osu file format v12

[General]
AudioFilename: Kibou no Hana.mp3
AudioLeadIn: 1000
PreviewTime: 90538
Countdown: 0
SampleSet: Soft
StackLeniency: 0.7
Mode: 0
LetterboxInBreaks: 0
WidescreenStoryboard: 0

[Editor]
DistanceSpacing: 1.2
BeatDivisor: 4
GridSize: 4

[Metadata]
Title:Kibou no Hana (TV Size)
TitleUnicode:希望の花 (TV Size)
Artist:Chisuga Haruka
ArtistUnicode:千菅春香
Creator:watashino
Version:Easy
Source:Kotoura-san
Tags:ED1 Ending
BeatmapID:243018
BeatmapSetID:89370

[Difficulty]
HPDrainRate:2
CircleSize:3
OverallDifficulty:2
ApproachRate:3
SliderMultiplier:1.4
SliderTickRate:2

[Events]
//Background and Video events
0,0,"noname.jpg",0,0
Video,0,"Kibou no Hana.avi"
//Break Periods
2,19940,24300
//Storyboard Layer 0 (Background)
//Storyboard Layer 1 (Fail)
//Storyboard Layer 2 (Pass)
//Storyboard Layer 3 (Foreground)
//Storyboard Sound Samples
//Background Colour Transformations
3,100,163,162,255

[TimingPoints]
1740,750,4,2,1,20,1,0
6990,-100,4,2,1,30,0,0
15802,-100,4,2,1,5,0,0
16177,-100,4,2,1,30,0,0
19740,-100,4,2,1,30,0,0
38115,-100,4,2,1,35,0,0
48052,-100,4,2,2,35,0,0
48427,-100,4,2,1,35,0,0
49740,-100,4,2,1,40,0,0
72240,-100,4,2,1,45,0,0
83302,-100,4,2,2,45,0,0
83677,-100,4,2,1,45,0,0
91740,-100,4,2,1,50,0,1
96052,-100,4,2,2,50,0,1
96427,-100,4,2,1,50,0,1
112927,-100,4,2,1,45,0,1
113115,-100,4,2,1,40,0,1
113302,-100,4,2,1,35,0,1
113490,-100,4,2,1,30,0,1
113677,-100,4,2,1,25,0,1
113865,-100,4,2,1,20,0,1
114240,-100,4,2,1,15,0,1
114615,-100,4,2,1,10,0,1
114990,-100,4,2,1,5,0,1
115740,-100,4,2,1,30,0,0

[Colours]
Combo1 : 255,228,149
Combo2 : 255,128,128
Combo3 : 128,185,255
Combo4 : 157,255,157

[HitObjects]
256,192,1740,12,0,6990,0:0:0:0:
252,208,7740,6,0,P|228:180|218:148,2,70,6|0|0,0:0|0:0|0:0,0:0:0:0:
304,140,8865,1,0,0:0:0:0:
388,128,9240,2,0,L|475:149,1,70,2|0,0:0|0:0,0:0:0:0:
455,229,9990,2,0,L|368:208,1,70,0|0,0:0|0:0,0:0:0:0:
304,220,10740,5,2,0:0:0:0:
184,100,11490,1,0,0:0:0:0:
140,264,12240,1,2,0:0:0:0:
304,220,12990,1,0,0:0:0:0:
256,192,13740,12,0,15990,0:0:0:0:
256,192,16740,12,4,19740,0:0:0:0:
108,228,25740,5,6,0:0:0:0:
192,216,26115,2,0,P|244:200|292:112,1,140
288,48,27240,2,0,B|316:120|340:184,1,140,2|0,0:0|0:0,0:0:0:0:
320,336,28740,6,0,P|392:328|446:290,2,140,2|0|2,0:0|0:0|0:0,0:0:0:0:
196,220,30990,1,0,0:0:0:0:
236,56,31740,5,2,0:0:0:0:
312,96,32115,2,0,P|332:144|312:240,1,140
236,240,33240,2,0,P|304:296|376:304,1,140,2|0,0:0|0:0,0:0:0:0:
424,152,34740,5,2,0:0:0:0:
288,52,35490,1,0,0:0:0:0:
128,100,36240,2,0,B|156:176|240:208,1,140,2|0,0:0|0:0,0:0:0:0:
384,184,37740,5,6,0:0:0:0:
308,224,38115,2,0,L|240:252,1,70,0|0,0:0|0:0,0:0:0:0:
184,312,38865,2,0,P|160:272|160:248,1,70,0|2,0:0|0:0,0:0:0:0:
128,172,39615,2,0,B|120:176|88:184|76:220,2,70,0|0|0,0:0|0:0|0:0,0:0:0:0:
200,128,40740,6,0,B|272:112|335:147,1,140,2|0,0:0|0:0,0:0:0:0:
248,288,42240,1,2,0:0:0:0:
128,168,42990,1,0,0:0:0:0:
240,44,43740,5,2,0:0:0:0:
312,84,44115,2,0,B|304:140|332:180|332:180|328:228,1,140
300,299,45240,2,0,P|208:328|152:296,1,140,2|0,0:0|0:0,0:0:0:0:
104,264,46365,2,0,P|152:232|162:230,1,70,0|2,0:0|0:0,0:0:0:0:
248,224,47115,5,0,0:0:0:0:
322,182,47490,1,0,0:0:0:0:
405,188,47865,2,0,P|368:112|258:128,1,210,0|2,0:0|0:0,0:0:0:0:
148,256,49740,5,6,0:0:0:0:
144,172,50115,2,0,P|200:188|228:280,1,140
192,332,51240,2,0,P|248:344|312:288,1,140,2|0,0:0|0:0,0:0:0:0:
460,224,52740,6,0,B|444:176|456:132|456:132|444:80,1,140,2|0,0:0|0:0,0:0:0:0:
372,44,53865,2,0,L|272:44,1,70,0|2,0:0|0:0,0:0:0:0:
148,108,54990,1,0,0:0:0:0:
240,248,55740,6,0,L|176:196,1,70,2|0,0:0|0:0,0:0:0:0:
100,208,56490,2,0,P|124:144|186:118,1,140,0|2,0:0|0:0,0:0:0:0:
348,80,57990,1,0,0:0:0:0:
432,224,58740,6,0,P|364:248|297:241,2,140,2|0|2,0:0|0:0|0:0,0:0:0:0:
348,80,60990,1,0,0:0:0:0:
188,124,61740,5,6,0:0:0:0:
200,208,62115,2,0,P|180:252|136:284,1,70,0|0,0:0|0:0,0:0:0:0:
112,200,62865,2,0,P|88:164|84:132,1,70,0|2,0:0|0:0,0:0:0:0:
148,80,63615,2,0,P|116:56|87:52,2,70,0|0|0,0:0|0:0|0:0,0:0:0:0:
224,112,64740,5,2,0:0:0:0:
376,188,65490,1,0,0:0:0:0:
232,272,66240,1,2,0:0:0:0:
192,200,66615,1,0,0:0:0:0:
256,144,66990,2,0,L|224:80,2,70,2|0|6,0:0|0:0|0:0,0:0:0:0:
336,176,68115,6,0,P|416:208|424:280,1,140
345,261,69240,2,0,P|313:301|273:317,1,70,2|0,0:0|0:0,0:0:0:0:
264,232,69990,1,0,0:0:0:0:
208,296,70365,1,0,0:0:0:0:
128,328,70740,2,0,B|76:268|76:268|68:268|68:268|88:244|16:248|12:200|-8:136|60:100,1,280,2|2,0:0|0:0,0:0:0:0:
104,172,72615,5,0,0:0:0:0:
176,124,72990,1,0,0:0:0:0:
252,92,73365,1,0,0:0:0:0:
336,104,73740,6,0,B|356:164|336:212|336:212|288:208|228:228,1,210,6|0,0:0|0:0,0:0:0:0:
200,300,75240,2,0,P|155:251|181:163,1,140,2|0,0:0|0:0,0:0:0:0:
196,104,76365,1,0,0:0:0:0:
256,44,76740,5,2,0:0:0:0:
340,44,77115,1,0,0:0:0:0:
411,88,77490,2,0,B|440:170|347:208,1,140,0|2,0:0|0:0,0:0:0:0:
232,96,78990,1,0,0:0:0:0:
296,152,79365,1,0,0:0:0:0:
272,232,79740,6,0,P|364:200|380:156,1,140,6|0,0:0|0:0,0:0:0:0:
301,315,81240,2,0,P|196:268|184:224,1,140,6|0,0:0|0:0,0:0:0:0:
100,108,82740,5,6,0:0:0:0:
184,90,83115,2,0,P|168:162|114:193,1,140
76,268,84240,1,2,0:0:0:0:
140,324,84615,1,0,0:0:0:0:
220,348,84990,1,2,0:0:0:0:
302,331,85365,1,0,0:0:0:0:
256,192,85740,12,2,88740,0:0:0:0:
94,259,90615,5,0,0:0:0:0:
179,272,90990,1,0,0:0:0:0:
251,228,91365,1,0,0:0:0:0:
219,149,91740,6,0,P|172:107|177:31,1,140,6|0,0:0|0:0,0:0:0:0:
250,72,92865,1,0,0:0:0:0:
333,69,93240,2,0,B|344:144|344:144|376:168|384:208,1,140,2|0,0:0|0:0,0:0:0:0:
298,213,94365,1,0,0:0:0:0:
222,249,94740,6,0,P|201:309|252:380,1,140,2|0,0:0|0:0,0:0:0:0:
286,303,95865,2,0,P|366:276|390:217,1,140,0|0,0:0|0:0,0:0:0:0:
422,152,96990,1,0,0:0:0:0:
350,107,97365,1,0,0:0:0:0:
264,104,97740,6,0,B|208:112|176:96|136:64|136:64|85:131,1,210,6|0,0:0|0:0,0:0:0:0:
159,173,99240,2,0,P|241:188|313:180,1,140,2|0,0:0|0:0,0:0:0:0:
356,244,100365,1,0,0:0:0:0:
392,320,100740,6,0,P|444:248|424:192,1,140,2|0,0:0|0:0,0:0:0:0:
296,104,102240,1,2,0:0:0:0:
190,233,102990,1,0,0:0:0:0:
357,233,103740,6,0,P|374:151|345:81,1,140,6|0,0:0|0:0,0:0:0:0:
277,124,104865,2,0,P|296:174|272:207,1,70,0|2,0:0|0:0,0:0:0:0:
308,268,105615,2,0,P|216:223|207:194,1,140,0|0,0:0|0:0,0:0:0:0:
132,236,106740,6,0,P|127:159|167:116,1,140,2|0,0:0|0:0,0:0:0:0:
204,192,107865,1,0,0:0:0:0:
208,275,108240,2,0,P|250:263|276:239,1,70,2|0,0:0|0:0,0:0:0:0:
326,308,108990,2,0,P|360:266|366:238,1,70,0|0,0:0|0:0,0:0:0:0:
319,180,109740,6,0,P|319:84|215:52,1,210,6|0,0:0|0:0,0:0:0:0:
249,129,111240,1,2,0:0:0:0:
81,129,111990,2,0,L|170:129,1,70,0|0,0:0|0:0,0:0:0:0:
256,192,112740,12,6,115740,0:0:0:0:
