osu file format v7

[General]
AudioFilename: -!.mp3
AudioLeadIn: 2000
PreviewTime: 47957
Countdown: 0
SampleSet: Normal
StackLeniency: 0.7
Mode: 0
LetterboxInBreaks: 1
StoryFireInFront: 0

[Editor]
DistanceSpacing: 1
BeatDivisor: 4
GridSize: 16

[Metadata]
Title:Geki! Teikoku Kagekidan (Full Ver.)
Artist:Chisa Yokoyama
Creator:Breeze
Version:Normal
Source:Sakura Taisen
Tags:Shinguji impossiblexu ccbp

[Difficulty]
HPDrainRate:4
CircleSize:3
OverallDifficulty:4
SliderMultiplier:1.4
SliderTickRate:1

[Events]
//Background and Video events
0,0,"BG.jpg"
//Break Periods
2,6665,19033
2,97353,111616
//Storyboard Layer 0 (Background)
Sprite,Background,TopLeft,"BG.jpg",0,0
Sprite,Background,Centre,"SB\Night of the Long Knives.png",320,240 R,0,20353,,-1.24928 M,1,20353,20748,324,235 F,0,20563,20748,1,0 S,0,20748,,0.6416001
Sprite,Background,Centre,"SB\Night of the Long Knives.png",320,240 S,0,20774,,0.8566402 R,0,20774,,0.9830396 M,0,20774,21194,320,240 F,0,20984,21194,1,0
Sprite,Background,Centre,"SB\Night of the Long Knives.png",320,240 M,1,21194,21590,317,298 F,0,21405,21615,1,0 S,0,21590,,0.8873602 R,0,21590,,0.3891193
Sprite,Background,Centre,"SB\black.png",320,240 M,0,20353,,316,237 S,0,20353,,1.32768 R,0,20353,,2.47808 M,0,20353,20563,316,237,451,760
Sprite,Background,Centre,"SB\black.png",320,240 M,0,20774,,320,240 S,0,20774,,1.41984 R,0,20774,,0.3686395 M,2,20774,20984,320,240,971,245
Sprite,Background,Centre,"SB\black.png",320,240 S,0,21194,,1.58368 R,0,21194,,-0.2867194 M,0,21194,21405,317,228,-355,413
Sprite,Background,Centre,"SB\full white.png",320,240 S,0,21590,32532,1.49152 S,0,32532,34412,1.49152 F,0,45158,48524,1
Sprite,Background,Centre,"SB\Night of the Long Knives.png",320,240 S,0,140710,,0.8668801 R,0,140710,,1.06496 M,0,140710,141131,318,267 F,0,140921,141131,1,0
Sprite,Background,Centre,"SB\Night of the Long Knives.png",320,240 S,0,141131,,0.9078401 R,0,141131,,0.04096006 M,0,141131,141533,320,268 F,0,141342,141552,1,0
Sprite,Background,Centre,"SB\Night of the Long Knives.png",320,240 S,0,141552,,0.55968 R,0,141552,,-0.7372802 M,0,141552,141954,344,254 F,0,141763,141973,1,0
Sprite,Background,Centre,"SB\black.png",320,240 F,0,140710,,1 S,0,140710,,1.4608 R,0,140710,,0.2457599 M,0,140710,140921,320,240,964,400
Sprite,Background,Centre,"SB\black.png",320,240 S,0,141131,,1.43008 R,0,141131,,-0.2252799 M,0,141131,141342,320,240,-314,522
Sprite,Background,Centre,"SB\black.png",320,240 S,0,141552,,1.33792 M,0,141552,141763,320,240,289,712
//Storyboard Layer 1 (Fail)
//Storyboard Layer 2 (Pass)
//Storyboard Layer 3 (Foreground)
Sprite,Foreground,Centre,"SB\logo.jpg",320,240 M,0,-2082,6439,320,240 F,0,6334,6439,1,0 F,0,13173,13594,0,1 M,0,13173,20327,320,240
Sprite,Foreground,Centre,"SB\Shinguji Sakura.png",320,240 M,0,126,,318,76 F,0,126,442,1 F,0,442,547,1,0 F,0,13804,14435,1 F,1,14435,15277,1,0
Sprite,Foreground,Centre,"SB\Maria Tachibana.png",320,240 M,0,468,784,512,115 F,0,758,863,1,0 F,0,14014,14435,1 F,1,14435,15277,1,0
Sprite,Foreground,Centre,"SB\Ri Kohran.png",320,240 M,0,758,1100,512,364 F,0,1073,1178,1,0 F,0,15277,16119,1 F,1,16119,16960,1,0
Sprite,Foreground,Centre,"SB\Kanzaki Sumire.png",320,240 M,0,1073,1415,320,398 F,0,1389,1494,1,0 F,0,15487,16119,1 F,1,16119,16960,1,0
Sprite,Foreground,Centre,"SB\Kiryushima Kanna.png",320,240 M,0,1389,1731,126,363 F,0,1705,1810,1,0 F,0,15698,16119,1 F,1,16119,16960,1,0
Sprite,Foreground,Centre,"SB\Iris Chateaubriand.png",320,240 M,0,1731,2047,127,116 F,0,2020,2125,1,0 F,0,13594,14435,1 F,1,14435,15277,1,0
Sprite,Foreground,Centre,"SB\SAKURA BIG.png",320,240 M,0,3493,3914,320,240 F,0,3493,3914,0,1 S,0,3493,6439,0.5801601,1.4096 R,1,3493,6439,0,2.29376 F,0,3914,6018,1 F,0,6018,6439,1,0.28832
Sprite,Foreground,Centre,"SB\sakura.png",320,240 M,0,3493,,320,240 F,0,3493,3914,0,1 S,0,3493,6439,1.11264,1.63488 R,1,3493,6439,0,-2.06848 F,0,3914,6018,1 F,0,6018,6439,1,0.4521599
Sprite,Foreground,Centre,"SB\full white.png",320,240 S,0,6439,,1.37888 F,0,6455,6860,1,0
Sprite,Foreground,Centre,"SB\white.png",320,240 R,0,2231,,0 F,0,2231,3493,0,0.78848 S,0,2231,3914,1,2.024 F,0,3493,3914,0.78848,0
Sprite,Foreground,Centre,"SB\teikoku kagekidan.png",320,240 M,1,6860,7702,320,175,320,108 F,1,6860,7702,0,1 S,1,6860,7702,1,1.256 M,2,7702,9385,320,108,320,166 S,2,7702,9385,1.256,1 F,0,7702,12752,1,0.9998259 F,1,12752,13594,0.9998259,0
Sprite,Foreground,Centre,"SB\Breeze.png",320,240 M,1,10227,11069,320,295,320,361 F,1,10227,11069,0,1 S,1,10227,11069,1,1.27648 M,2,11069,12752,320,361,320,296 F,0,11069,12752,1 S,2,11069,12752,1.27648,1 M,0,12752,13594,320,296,320,295 F,1,12752,13594,1,0
Sprite,Foreground,Centre,"SB\sakura.png",320,240 S,0,16960,,1.38912 F,2,16960,17802,0,1 M,0,16960,20327,351,96,226,283 F,0,17802,20327,1
Sprite,Foreground,Centre,"SB\SAKURA BIG.png",320,240 R,0,16960,,3.33824 F,2,16960,17802,0,1 M,0,16960,20327,320,240,243,171 S,0,16960,20327,1,1.24576
Sprite,Foreground,Centre,"SB\white.png",320,240 M,0,18644,,318,240 F,0,18644,20327,0,1 S,0,18644,20327,1,1.80896
Sprite,Foreground,Centre,"SB\sakura1.jpg",320,240 M,0,21590,22011,68,126,275,230 S,0,21590,22011,2.6384,1.11264 M,0,22011,32953,275,230,342,227 S,0,22011,32953,1.11264 M,0,32953,33795,342,227,266,624 F,2,32953,33795,1,0 S,0,32953,33795,1.11264,5
Sprite,Foreground,Centre,"SB\sakura3.jpg",320,240 F,2,47262,48104,0,1 F,0,48104,61992,1,0.9915459 F,0,61992,63254,0.9915459,0.9907777 F,0,63254,64096,0.9907777,0
Sprite,Foreground,Centre,"SB\Shinguji Sakura 2.png",320,240 M,0,48104,,162,97 F,0,48104,63254,0.9846399 F,1,63254,64096,0.9846399,0
Sprite,Foreground,Centre,"SB\Maria Tachibana 2.png",320,240 M,0,48524,,89,247 F,0,48524,63254,0.99488 F,1,63254,64096,0.99488,0
Sprite,Foreground,Centre,"SB\Ri Kohran 2.png",320,240 M,0,48945,,168,401 F,0,48945,63254,1 F,1,63254,64096,1,0
Sprite,Foreground,Centre,"SB\Kiryushima Kanna 2.png",320,240 M,0,54837,,494,403 F,0,54837,63254,1 F,1,63254,64096,1,0
Sprite,Foreground,Centre,"SB\Iris Chateaubriand 2.png",320,240 M,0,55258,,552,249 F,0,55258,63254,1 F,1,63254,64096,1,0
Sprite,Foreground,Centre,"SB\Kanzaki Sumire 2.png",320,240 M,0,55679,,518,85 F,0,55679,63254,1 F,0,63254,,1 F,1,63254,64096,1,0
Sprite,Foreground,Centre,"SB\sakura4.png",320,240 F,0,64096,64938,0,1 M,1,64096,67463,464,229,202,203 S,0,64096,67463,1.12288,1.512 F,0,64938,70409,1 M,2,67463,70830,202,203,-332,247 S,0,67463,70830,1.512,2.1264 F,0,70409,70830,1,0
Sprite,Foreground,Centre,"SB\big SAKURA.png",320,240 S,0,70830,,0.67232 F,0,70830,71250,0,1 M,0,70830,77563,-46,-35,691,463 R,1,70830,77563,0,-11.38688
Sprite,Foreground,Centre,"SB\Cherry Blossom Tree.jpg",320,240 F,0,77563,77984,0,1 F,0,77984,97343,1 F,2,97343,99027,1,0
Sprite,Foreground,Centre,"SB\SAKURA BIG.png",320,240 F,2,70830,71671,0,1 M,0,70830,77563,635,-61,227,316
Sprite,Foreground,Centre,"SB\SAKURA BIG.png",320,240 F,0,21590,22011,0,1 S,0,22011,,0.76448 M,0,22011,32953,92,192,443,320
Sprite,Foreground,Centre,"SB\OP effect.png",320,240 F,0,77563,77984,1,0 S,0,77563,77984,1,2.65888
Sprite,Foreground,Centre,"SB\Cherry Blossom Tree sakura.png",320,240 S,0,77984,,1 M,0,77984,95239,332,178,314,273 F,0,94397,95239,1,0
Sprite,Foreground,Centre,"SB\Cherry Blossom Tree.jpg",320,240 M,0,84086,,320,240 F,0,84086,84507,1,0 S,1,84086,84507,1.06144,1.01024 F,0,91031,91451,1,0 S,1,91031,91451,1.072699,0.9805391
Sprite,Foreground,Centre,"SB\OP effect.png",320,240 M,0,99027,,321,240 F,2,99027,99448,1,0 S,1,99027,99448,1,2.73056
Sprite,Foreground,Centre,"SB\SAKURA BIG.png",320,240 F,0,6860,7281,0,1 M,0,6860,13594,122,186,455,356 F,0,7281,12752,1 F,0,12752,13594,1,0
Sprite,Foreground,Centre,"SB\sakura2.jpg",320,240 F,0,33795,34215,0,1 S,0,33795,47262,1.14336,1.9216 M,0,33795,48104,327,27,374,774 F,0,34215,47262,1 F,0,47262,48104,1,0
Sprite,Foreground,Centre,"SB\SAKURA BIG.png",320,240 F,0,33795,34215,0,1 M,0,33795,47262,262,660,367,-162 R,0,33795,47262,2.99008,0.55296 F,0,34215,45578,1 F,0,45578,47262,1,0 R,0,47262,49852,0.55296,0.5130857
Sprite,Foreground,Centre,"SB\SAKURA BIG.png",320,240
Sprite,Foreground,Centre,"SB\OP effect.png",320,240 M,0,48104,48314,173,108 F,0,48104,48314,1,0 S,0,48104,48314,0.5084799,1.52224 M,0,48524,48735,104,243,119,308 F,0,48524,48735,1,0 S,0,48524,48735,0.648768,1.488448 M,0,48945,,134,374 F,0,48945,49156,1 S,0,48945,49156,0.610671,1.460591 F,0,49156,49261,1,0 M,0,54837,,490,368 F,0,54837,55048,1,0 S,0,54837,55048,0.5718952,1.452535 M,0,55258,55468,560,232 F,0,55258,55468,1,0 S,0,55258,55468,0.6230952,1.452535 M,0,55679,,516,80 F,0,55679,55889,1,0 S,0,55679,55889,0.5616551,1.452535
Sprite,Foreground,Centre,"SB\sakura.png",320,240 S,0,48104,,1 F,0,48104,48945,0,1 M,0,48104,63675,-207,167,415,281 F,0,48945,63254,1 F,0,63254,63675,1,0
Sprite,Foreground,Centre,"SB\sakura actor lines.png",320,240 F,0,99027,99868,0,1 M,0,99027,112915,388,240,135,240 F,0,99868,108706,1,0.99488 F,0,108706,112494,0.99488 F,0,112494,112915,0.99488,0 M,0,112915,,135,240
Sprite,Foreground,Centre,"SB\OP effect.png",320,240 M,0,99027,,321,240 F,2,99027,99448,1,0 S,1,99027,99448,1,2.73056
Sprite,Foreground,Centre,"SB\actor lines\al1.png",320,240 F,0,99868,100289,0,1 M,0,99868,103235,198,133,136,148 F,0,100289,102394,1 F,0,102394,103235,1,0
Sprite,Foreground,Centre,"SB\actor lines\al2.png",320,240 F,0,100921,101341,0,0.9948801 M,0,100921,103235,127,253,86,266 F,0,101341,102394,0.9948801 F,0,102394,103235,0.9948801,0
Sprite,Foreground,Centre,"SB\actor lines\al3.png",320,240 F,0,103235,103656,0,1 M,0,103256,106623,135,157,74,174 F,0,103656,105760,1 F,0,105760,106602,1,0
Sprite,Foreground,Centre,"SB\actor lines\al4.png",320,240 F,0,104287,104708,0,1 M,0,104309,106623,63,260,25,271 F,0,104708,,1 F,0,104708,105760,1 F,0,105760,106602,1,0
Sprite,Foreground,Centre,"SB\OP effect.png",320,240 M,0,106192,,75,55 S,0,106192,106297,0.1,5
Sprite,Foreground,Centre,"SB\OP effect.png",320,240 M,0,106392,,128,251 S,0,106403,106508,0.1,5
Sprite,Foreground,Centre,"SB\OP effect.png",320,240 M,0,106602,,15,433 S,0,106613,106718,0.1,5
Sprite,Foreground,Centre,"SB\actor lines\al5.png",320,240 F,0,106918,107339,0,1 M,0,106918,109548,530,118,482,116 F,0,107339,108706,1 F,0,108706,109548,1,0
Sprite,Foreground,Centre,"SB\OP effect.png",320,240 M,0,107865,,555,431 S,0,107876,107981,0.1,5
Sprite,Foreground,Centre,"SB\actor lines\al6.png",320,240 F,0,107970,108391,0,1 M,0,107970,109569,559,231,527,232 F,0,108391,108917,1 F,0,108917,109548,1,0
Sprite,Foreground,Centre,"SB\OP effect.png",320,240 M,0,108075,,512,254 S,0,108086,108191,0.1,5
Sprite,Foreground,Centre,"SB\OP effect.png",320,240 M,0,108285,,584,48 S,0,108296,108402,0.1,5
Sprite,Foreground,Centre,"SB\actor lines\al7.png",320,240 F,0,109548,109969,0,1 M,0,109548,112915,488,87,427,89 F,0,109969,112073,1 F,0,112073,112915,1,0 M,0,112915,,427,89
Sprite,Foreground,Centre,"SB\actor lines\al8.png",320,240 F,0,110390,110811,0,1 M,0,110390,112915,521,246,479,247 F,0,110811,112073,1 F,0,112073,112915,1,0
Sprite,Foreground,Centre,"SB\part2.jpg",320,240 F,0,112915,113336,0,1 M,0,112915,126382,56,454,320,240 S,0,112915,126382,2.3824,1 F,0,113336,125961,1 F,0,125961,126382,1,0
Sprite,Foreground,Centre,"SB\sakura.png",320,240 F,0,112915,113336,0,1 M,0,112915,126382,20,145,580,315 S,0,112915,126382,2.1776,1 F,0,113336,125961,1,0.993104 F,0,125961,126382,0.993104,0
Sprite,Foreground,Centre,"SB\title.jpg",320,240 F,0,126382,126803,0,1 M,1,126382,140691,286,528,329,25 S,1,126382,140691,1.26624,1.092159
Sprite,Foreground,Centre,"SB\SAKURA BIG.png",320,240 F,0,126382,126803,0,1 M,0,126382,140691,320,-102,338,385 R,0,126382,140691,0,-0.8601599
Sprite,Foreground,Centre,"SB\part22.jpg",320,240 M,0,141954,142375,96,399,339,248 S,0,141954,142375,2.01376,1.19456 M,0,142375,170151,339,248,320,240 S,0,142375,170151,1.19456,1.02048 F,0,166889,,1 F,2,166889,170151,1,0
Sprite,Foreground,Centre,"SB\sakura efect.png",320,240 M,0,147425,,101,316 F,0,147425,147635,1,0 S,0,147425,147635,3.77504,1.063878 R,0,147425,147635,0,-0.901121
Sprite,Foreground,Centre,"SB\sakura efect.png",320,240 M,0,147846,,547,60 F,0,147846,148056,1,0 S,0,147846,148056,2.82272,0.5596802 R,0,147846,148056,0.7987198,0
Sprite,Foreground,Centre,"SB\sakura efect.png",320,240 M,0,148266,,539,356 F,0,148266,148477,1,0 S,0,148266,148477,2.82272,0.6108798 R,0,148266,148477,1.06496,0
Sprite,Foreground,Centre,"hitcircle.png",320,240 M,0,154158,,71,80 F,0,154158,154369,1,0 S,0,154158,154369,2.51552,0.6211201 R,0,154158,154369,1.04448,0
Sprite,Foreground,Centre,"hitcircle.png",320,240 M,0,154579,,582,394 F,0,154579,154790,1,0 S,0,154579,154790,2.54624,0.6927999 R,0,154579,154790,-1.105921,0
Sprite,Foreground,Centre,"hitcircle.png",320,240 M,0,155000,,365,122 F,0,155000,155211,0.99488,0 S,0,155000,155211,2.26976,0.37536 R,0,155000,155211,0.9420798,0
Sprite,Foreground,Centre,"SB\sakura efect.png",320,240 M,0,160892,161102,359,400,337,396 F,0,160892,161102,1,0 S,0,160892,161102,2.61792,0.6416003 R,0,160892,161102,1.06496,0
Sprite,Foreground,Centre,"SB\sakura efect.png",320,240 M,0,161313,,92,299 F,0,161313,161523,1,0 S,0,161313,161523,2.45408,0.6313601 R,0,161313,161523,1.024,1.55648
Sprite,Foreground,Centre,"SB\sakura efect.png",320,240 M,0,161734,,574,214 F,0,161734,161944,1,0 S,0,161734,161944,2.46432,0.5494401 R,0,161734,161944,-0.8396802,-0.2457596
Sprite,Foreground,Centre,"SB\logo.jpg",320,240 F,0,169940,170151,0,1 F,0,170151,172045,1 F,0,172045,172255,1,0
Sprite,Foreground,Centre,"SB\Iris Chateaubriand.png",320,240 M,0,170151,,125,117 F,0,170151,170466,1
Sprite,Foreground,Centre,"SB\Kiryushima Kanna.png",320,240 M,0,170466,,123,361 F,0,170466,170782,1 F,0,170782,,1
Sprite,Foreground,Centre,"SB\Kanzaki Sumire.png",320,240 M,0,170782,,317,399 F,0,170782,171098,1 F,0,171098,,1
Sprite,Foreground,Centre,"SB\Ri Kohran.png",320,240 M,0,171098,,515,364 F,0,171098,171413,1
Sprite,Foreground,Centre,"SB\Maria Tachibana.png",320,240 M,0,171413,171729,516,116,514,115 F,0,171413,171729,1
Sprite,Foreground,Centre,"SB\Shinguji Sakura.png",320,240 M,0,171729,,320,77 F,0,171729,172045,1
Sprite,Foreground,Centre,"SB\SAKURA BIG.png",320,240 F,0,172255,172466,0,1 M,2,172255,173518,787,126,-16,503 R,2,172255,173518,0.8396801,2.37568 F,0,172466,173307,1 F,0,173307,173518,1,0
Sprite,Foreground,Centre,"SB\title.jpg",320,240 F,0,175201,,1 S,0,175201,175411,2.39264,1.09216 S,0,175411,175832,1.09216,1.086211
Sprite,Foreground,Centre,"SB\sakura2.jpg",320,240 S,0,175832,176043,2.25952,1.11264 S,0,176043,176464,1.11264,1.114533
Sprite,Foreground,Centre,"SB\part2.jpg",320,240 S,0,176464,176674,2.73056,1 S,0,176674,177305,1 F,0,177305,178147,1 F,0,178147,178989,1,0
Sprite,Foreground,Centre,"SB\OP effect.png",320,240 M,0,173535,173746,94,102 F,0,173535,173746,1,0 S,1,173535,173746,0.1,5
Sprite,Foreground,Centre,"SB\OP effect.png",320,240 F,0,173851,174061,1,0 F,0,173851,174061,1,0 S,0,173851,174061,0.1,5 M,0,173956,,542,375 S,0,174061,,5
//Storyboard Sound Samples
//Background Colour Transformations
3,100,0,0,0

[TimingPoints]
-1530,420.831141504471,4,1,0,31,1,0
6239,-100,4,1,0,61,0,0
6465,-100,4,1,0,59,0,1
6502,-100,4,1,0,59,0,0
19932,-100,4,2,1,40,0,0
26019,-100,4,2,2,40,0,0
27281,-100,4,2,1,40,0,0
28965,-100,4,2,2,40,0,0
29386,-100,4,2,1,40,0,0
32332,-100,4,2,2,40,0,0
32752,-100,4,2,1,40,0,0
42432,-100,4,2,2,40,0,0
42853,-100,4,2,1,40,0,0
47707,-100,4,1,0,41,0,0
61200,-100,4,1,0,32,0,0
63095,-100,4,1,0,59,0,0
63685,-100,4,1,0,59,0,1
63738,-100,4,1,0,59,0,0
63937,-200,4,2,0,21,0,0
77363,-100,4,2,1,55,0,0
77586,-100,4,2,1,55,0,0
89883,-100,4,2,2,55,0,0
90830,-100,4,2,1,55,0,0
94197,-100,4,1,0,41,0,0
96302,-100,4,1,0,27,0,0
96734,-100,4,1,0,14,0,0
97049,-100,4,1,0,0,0,0
99048,-100,4,1,0,0,0,1
99101,-100,4,1,0,0,0,0
112504,-100,4,2,1,40,0,0
116502,-100,4,2,2,40,0,0
118186,-100,4,2,1,40,0,0
118606,-100,4,2,2,40,0,0
119869,-100,4,2,1,40,0,0
121552,-100,4,2,2,40,0,0
121973,-100,4,2,1,40,0,0
124919,-100,4,2,2,40,0,0
125340,-100,4,2,1,40,0,0
132074,-100,4,2,2,40,0,0
133021,-100,4,2,1,40,0,0
133336,-100,4,2,2,40,0,0
135440,-100,4,2,1,40,0,0
140290,-100,4,1,0,40,0,0
166373,-100,4,1,0,25,0,0
169530,-100,4,1,0,12,0,0
169951,-100,4,1,0,39,0,0

[Colours]
Combo1 : 255,255,255
Combo2 : 255,128,192
Combo3 : 0,179,255
Combo4 : 255,255,0

[HitObjects]
304,112,153,2,2,B|384:208,1,105
310,251,784,2,2,B|205:251,1,105
144,192,1415,2,2,B|226:88,1,105
256,192,2257,12,0,3519
256,192,3835,5,0
256,192,6465,5,0
48,48,20353,5,0
160,48,20774,1,8
272,48,21194,2,0,B|352:64|352:32|432:48,1,140,0|10
464,144,22036,5,0
464,256,22457,1,8
384,336,22878,2,0,B|224:336,1,140,0|10
128,336,23719,5,0
64,240,24140,1,8
192,240,24561,1,0
128,144,24982,2,0,B|128:64,2,70,8|0|0
240,144,25824,1,10
352,144,26244,2,2,B|416:96,4,70,2|2|10|2|2
416,224,27507,5,8
336,304,27928,1,0
224,336,28349,1,8
112,352,28769,2,0,B|16:208|128:64,1,280
208,48,30032,1,10
272,48,30242,6,0,B|384:48,3,70,0|0|0|8
400,48,31084,2,0,B|400:272,1,210,0|8
320,336,32136,2,0,B|240:240|160:320|48:192,1,280
64,112,33398,1,10
160,48,33819,5,0
160,160,34240,1,8
256,96,34661,2,0,B|304:32|416:48,1,140,0|10
448,144,35503,5,0
352,208,35923,1,8
448,256,36344,2,0,B|448:352|320:352,1,140,0|10
272,272,37186,5,0
176,336,37607,1,8
80,272,38028,1,0
176,208,38448,2,0,B|256:128,2,70,8|0|0
80,144,39290,1,10
176,80,39711,2,0,B|112:16,2,70,0|0|8
288,80,40553,6,0,B|464:80,1,140,0|8
464,128,41184,2,0,B|464:320|288:320,1,280
256,320,42236,2,0,B|48:320|48:128,1,280
176,80,43709,6,0,B|256:80,7,70,0|0|0|8|0|0|0|8
256,192,45603,12,6,47286
48,304,48128,5,2
48,192,48548,1,2
48,80,48969,1,2
256,176,49811,5,0
336,112,50232,2,0,B|400:48,1,70
432,80,50653,2,0,B|432:224,1,140
432,336,51494,5,0
336,288,51915,1,0
240,336,52336,2,0,B|128:336|48:208,1,210
48,176,53178,2,0,B|64:64|208:64,1,210
256,32,54019,2,0,B|336:16|336:48|416:32,1,140
448,128,54861,5,2
352,192,55282,1,2
448,256,55703,1,2
240,320,56544,6,0,B|192:256|160:304|96:240,1,140
80,224,57175,1,0
64,176,57386,2,0,B|64:32|272:32,1,280
384,32,58648,6,0,B|448:96,1,70
464,128,59069,2,0,B|464:320|352:320,1,210
336,336,59911,2,0,B|192:384|128:272,1,210
96,272,60753,2,0,B|-16:192|96:96,1,210,0|2
144,96,61594,6,0,B|144:16,2,70,2|2|2
208,96,62225,2,2,B|384:96|384:272|192:272,1,350,2|2
128,192,63698,1,2
112,80,64119,6,0,B|0:192|96:336,1,280,0|0
144,352,66013,2,0,B|208:352|256:320,1,105
368,272,67486,6,0,B|448:240|448:160,1,140
400,112,68748,2,0,B|288:32|256:160|128:48,1,280
80,96,70852,6,0,B|32:160|80:240,1,140
96,288,72115,2,0,B|192:336|320:288,1,210
368,272,73798,6,0,B|528:160|352:32,1,280
256,192,75902,12,0,77586
256,192,78007,5,8
160,96,78427,2,0,B|96:32,2,70,0|0|8
304,96,79269,1,0
416,192,79690,1,8
336,304,80111,1,0
272,336,80321,1,0
208,304,80532,1,8
80,240,80952,6,0,B|80:96,1,140,0|8
144,64,81584,1,0
208,96,81794,2,0,B|288:96,2,70,0|0|8
208,240,82636,1,0
320,320,83057,1,8
320,176,83477,2,0,B|320:80,2,70,0|0|8
320,240,84109,1,4
416,48,84740,5,8
272,48,85161,1,0
208,48,85371,1,0
144,48,85582,1,8
32,144,86002,2,0,B|32:304,1,140,0|8
176,288,86844,2,0,B|240:352,2,70,0|0|8
176,224,87475,1,0
176,160,87686,2,0,B|288:160,1,70
320,160,88107,1,8
416,272,88527,6,0,B|480:336,2,70,0|0|8
416,208,89159,2,0,B|416:80|272:80,1,210,0|8
224,80,90000,2,8,B|128:80,1,70,2|8
112,128,90421,2,8,B|112:208,1,70,2|8
160,304,91052,1,4
304,304,91473,5,8
384,192,91894,2,0,B|480:192,2,70,0|0|8
384,128,92525,2,0,B|288:80|288:160|176:128,1,210,0|8
48,192,93577,1,0
96,240,93788,1,0
144,288,93998,1,8
288,288,94366,5,2
393,288,94681,2,2,B|393:160,1,105
386,78,95313,2,2,B|258:78,1,105
179,49,95944,2,2,B|25:48|24:336|176:336,1,402.5,2|0
256,192,112936,5,0
144,112,113356,1,8
32,192,113777,2,0,B|32:272|128:320,1,140,0|10
240,336,114619,5,0
368,288,115040,2,0,B|448:368,2,70,8|0|0
448,176,115881,1,10
352,80,116302,6,0,B|208:16|64:80,1,280
48,208,117565,1,8
80,272,117775,1,0
144,304,117986,1,0
256,224,118406,1,10
256,80,118827,2,2,B|288:48|320:80,3,70,2|2|10|2
384,80,119669,5,0
464,192,120090,1,8
384,304,120511,1,0
304,192,120931,1,8
224,304,121352,2,0,B|48:304|48:112,1,280
176,64,122615,1,10
240,64,122825,6,0,B|336:64,1,70
368,96,123246,2,0,B|432:160,1,70,0|8
464,192,123667,2,0,B|464:272|368:336,1,140
352,336,124298,1,8
240,336,124719,2,0,B|32:336|32:176,1,280,0|0
96,96,125981,1,10
192,48,126402,5,0
288,112,126823,1,8
384,176,127244,2,0,B|384:256|304:320,1,140,0|10
208,320,128085,5,0
112,256,128506,2,0,B|64:272|48:320,2,70,8|0|0
80,144,129348,1,10
160,64,129769,5,0
272,64,130190,1,8
384,64,130610,1,0
384,176,131031,2,0,B|480:176,2,70,8|0|0
384,288,131873,1,10
272,288,132294,2,2,B|160:288,3,70,2|2|10|2
144,288,133135,6,0,B|64:192|144:96,1,210
192,64,133977,2,0,B|416:64,1,210
448,96,134819,2,0,B|448:208|304:208|304:336,1,280
96,320,136292,6,0,B|-16:192|96:48,1,280
144,48,137344,2,0,B|336:48,1,140,0|8
256,192,138185,12,6,139869
144,144,140710,6,0,B|32:32,2,140,2|2|2
256,144,141973,1,0
368,144,142394,6,0,B|464:144|464:272,1,140
448,288,143025,1,0
416,336,143235,2,0,B|208:336,1,140
160,336,144077,5,0
64,272,144498,1,0
64,160,144919,2,0,B|112:32|288:32,1,210
272,32,145760,2,0,B|400:32|464:160,1,210
464,176,146602,2,0,B|464:256|368:352,1,140
304,336,147444,6,0,B|304:240|192:240,2,140,2|2|2
192,336,148706,1,0
96,272,149127,5,0
96,160,149548,2,0,B|96:80,2,70
208,160,150390,1,0
272,64,150810,1,0
384,64,151231,5,0
448,160,151652,2,0,B|448:288|288:352,1,210
288,336,152494,2,0,B|160:336|96:208,1,210
112,176,153335,2,0,B|128:80|256:80,1,140
320,80,154177,5,2
400,160,154598,1,2
480,240,155019,2,0,B|480:336|352:336,1,140,2|0
288,336,155860,6,0,B|80:336,1,140
96,336,156492,1,0
97,280,156702,2,0,B|257:280,1,140
320,208,157544,5,0
240,144,157965,1,0
128,144,158385,2,0,B|128:32|288:32,1,210
336,32,159227,2,0,B|464:32|464:192,1,210
464,224,160069,2,0,B|448:320|320:320,1,140
256,320,160910,5,2
144,320,161331,1,2
32,320,161752,2,0,B|32:176,1,140,2|0
112,96,162594,5,0
208,32,163014,2,0,B|288:32,2,70
208,144,163856,1,0
208,256,164277,1,0
304,320,164698,5,0
416,320,165119,2,0,B|480:208|416:64,1,210
400,80,165960,2,0,B|288:32|288:128|144:80,1,245
256,192,166907,12,4,169748
156,159,170169,5,2
156,159,170484,2,2,B|236:255,1,105
300,239,171115,2,2,B|380:159,1,105
316,111,171747,2,2,B|316:37|205:36|204:111,1,175,2|0
432,352,173535,6,0,B|432:247,1,105
96,112,175219,6,2,B|96:16,1,70
176,112,175850,2,2,B|176:32,1,70
256,112,176481,2,2,B|256:16,1,70,2|6
