osu file format v7

[General]
AudioFilename: -!.mp3
AudioLeadIn: 2000
PreviewTime: 47957
Countdown: 0
SampleSet: Normal
StackLeniency: 0.7
Mode: 0
LetterboxInBreaks: 1
StoryFireInFront: 0

[Editor]
DistanceSpacing: 1
BeatDivisor: 4
GridSize: 8

[Metadata]
Title:Geki! Teikoku Kagekidan (Full Ver.)
Artist:Chisa Yokoyama
Creator:Breeze
Version:Insane
Source:Sakura Taisen
Tags:Shinguji impossiblexu ccbp

[Difficulty]
HPDrainRate:7
CircleSize:4
OverallDifficulty:8
SliderMultiplier:2
SliderTickRate:1

[Events]
//Background and Video events
0,0,"BG.jpg"
//Break Periods
2,6665,12869
2,15924,19182
2,99248,111765
//Storyboard Layer 0 (Background)
Sprite,Background,TopLeft,"BG.jpg",0,0
Sprite,Background,Centre,"SB\Night of the Long Knives.png",320,240 R,0,20353,,-1.24928 M,1,20353,20748,324,235 F,0,20563,20748,1,0 S,0,20748,,0.6416001
Sprite,Background,Centre,"SB\Night of the Long Knives.png",320,240 S,0,20774,,0.8566402 R,0,20774,,0.9830396 M,0,20774,21194,320,240 F,0,20984,21194,1,0
Sprite,Background,Centre,"SB\Night of the Long Knives.png",320,240 M,1,21194,21590,317,298 F,0,21405,21615,1,0 S,0,21590,,0.8873602 R,0,21590,,0.3891193
Sprite,Background,Centre,"SB\black.png",320,240 M,0,20353,,316,237 S,0,20353,,1.32768 R,0,20353,,2.47808 M,0,20353,20563,316,237,451,760
Sprite,Background,Centre,"SB\black.png",320,240 M,0,20774,,320,240 S,0,20774,,1.41984 R,0,20774,,0.3686395 M,2,20774,20984,320,240,971,245
Sprite,Background,Centre,"SB\black.png",320,240 S,0,21194,,1.58368 R,0,21194,,-0.2867194 M,0,21194,21405,317,228,-355,413
Sprite,Background,Centre,"SB\full white.png",320,240 S,0,21590,32532,1.49152 S,0,32532,34412,1.49152 F,0,45158,48524,1
Sprite,Background,Centre,"SB\Night of the Long Knives.png",320,240 S,0,140710,,0.8668801 R,0,140710,,1.06496 M,0,140710,141131,318,267 F,0,140921,141131,1,0
Sprite,Background,Centre,"SB\Night of the Long Knives.png",320,240 S,0,141131,,0.9078401 R,0,141131,,0.04096006 M,0,141131,141533,320,268 F,0,141342,141552,1,0
Sprite,Background,Centre,"SB\Night of the Long Knives.png",320,240 S,0,141552,,0.55968 R,0,141552,,-0.7372802 M,0,141552,141954,344,254 F,0,141763,141973,1,0
Sprite,Background,Centre,"SB\black.png",320,240 F,0,140710,,1 S,0,140710,,1.4608 R,0,140710,,0.2457599 M,0,140710,140921,320,240,964,400
Sprite,Background,Centre,"SB\black.png",320,240 S,0,141131,,1.43008 R,0,141131,,-0.2252799 M,0,141131,141342,320,240,-314,522
Sprite,Background,Centre,"SB\black.png",320,240 S,0,141552,,1.33792 M,0,141552,141763,320,240,289,712
//Storyboard Layer 1 (Fail)
//Storyboard Layer 2 (Pass)
//Storyboard Layer 3 (Foreground)
Sprite,Foreground,Centre,"SB\logo.jpg",320,240 M,0,-2082,6439,320,240 F,0,6334,6439,1,0 F,0,13173,13594,0,1 M,0,13173,20327,320,240
Sprite,Foreground,Centre,"SB\SAKURA BIG.png",320,240
Sprite,Foreground,Centre,"SB\Shinguji Sakura.png",320,240 M,0,126,,318,76 F,0,126,442,1 F,0,442,547,1,0 F,0,13804,14435,1 F,1,14435,15277,1,0
Sprite,Foreground,Centre,"SB\Maria Tachibana.png",320,240 M,0,468,784,512,115 F,0,758,863,1,0 F,0,14014,14435,1 F,1,14435,15277,1,0
Sprite,Foreground,Centre,"SB\Ri Kohran.png",320,240 M,0,758,1100,512,364 F,0,1073,1178,1,0 F,0,15277,16119,1 F,1,16119,16960,1,0
Sprite,Foreground,Centre,"SB\Kanzaki Sumire.png",320,240 M,0,1073,1415,320,398 F,0,1389,1494,1,0 F,0,15487,16119,1 F,1,16119,16960,1,0
Sprite,Foreground,Centre,"SB\Kiryushima Kanna.png",320,240 M,0,1389,1731,126,363 F,0,1705,1810,1,0 F,0,15698,16119,1 F,1,16119,16960,1,0
Sprite,Foreground,Centre,"SB\Iris Chateaubriand.png",320,240 M,0,1731,2047,127,116 F,0,2020,2125,1,0 F,0,13594,14435,1 F,1,14435,15277,1,0
Sprite,Foreground,Centre,"SB\white.png",320,240 R,0,2231,,0 F,0,2231,3493,0,0.78848 S,0,2231,3914,1,2.024 F,0,3493,3914,0.78848,0
Sprite,Foreground,Centre,"SB\sakura.png",320,240 M,0,3493,,320,240 F,0,3493,3914,0,1 S,0,3493,6439,1.11264,1.63488 R,1,3493,6439,0,-2.06848 F,0,3914,6018,1 F,0,6018,6439,1,0.4521599
Sprite,Foreground,Centre,"SB\SAKURA BIG.png",320,240 M,0,3493,3914,320,240 F,0,3493,3914,0,1 S,0,3493,6439,0.5801601,1.4096 R,1,3493,6439,0,2.29376 F,0,3914,6018,1 F,0,6018,6439,1,0.28832
Sprite,Foreground,Centre,"SB\full white.png",320,240 S,0,6439,,1.37888 F,0,6455,6860,1,0
Sprite,Foreground,Centre,"SB\SAKURA BIG.png",320,240 F,0,6860,7281,0,1 M,0,6860,13594,122,186,455,356 F,0,7281,12752,1 F,0,12752,13594,1,0
Sprite,Foreground,Centre,"SB\teikoku kagekidan.png",320,240 M,1,6860,7702,320,175,320,108 F,1,6860,7702,0,1 S,1,6860,7702,1,1.256 M,2,7702,9385,320,108,320,166 S,2,7702,9385,1.256,1 F,0,7702,12752,1,0.9998259 F,1,12752,13594,0.9998259,0
Sprite,Foreground,Centre,"SB\Breeze.png",320,240 M,1,10227,11069,320,295,320,361 F,1,10227,11069,0,1 S,1,10227,11069,1,1.27648 M,2,11069,12752,320,361,320,296 F,0,11069,12752,1 S,2,11069,12752,1.27648,1 M,0,12752,13594,320,296,320,295 F,1,12752,13594,1,0
Sprite,Foreground,Centre,"SB\sakura.png",320,240 S,0,16960,,1.38912 F,2,16960,17802,0,1 M,0,16960,20327,351,96,226,283 F,0,17802,20327,1
Sprite,Foreground,Centre,"SB\SAKURA BIG.png",320,240 R,0,16960,,3.33824 F,2,16960,17802,0,1 M,0,16960,20327,320,240,243,171 S,0,16960,20327,1,1.24576
Sprite,Foreground,Centre,"SB\white.png",320,240 M,0,18644,,318,240 F,0,18644,20327,0,1 S,0,18644,20327,1,1.80896
Sprite,Foreground,Centre,"SB\SAKURA BIG.png",320,240 F,0,21590,22011,0,1 S,0,22011,,0.76448 M,0,22011,32953,92,192,443,320
Sprite,Foreground,Centre,"SB\sakura1.jpg",320,240 M,0,21590,22011,68,126,275,230 S,0,21590,22011,2.6384,1.11264 M,0,22011,32953,275,230,342,227 S,0,22011,32953,1.11264 M,0,32953,33795,342,227,266,624 F,2,32953,33795,1,0 S,0,32953,33795,1.11264,5
Sprite,Foreground,Centre,"SB\SAKURA BIG.png",320,240 F,0,33795,34215,0,1 M,0,33795,47262,262,660,367,-162 R,0,33795,47262,2.99008,0.55296 F,0,34215,45578,1 F,0,45578,47262,1,0 R,0,47262,49852,0.55296,0.5130857
Sprite,Foreground,Centre,"SB\sakura2.jpg",320,240 F,0,33795,34215,0,1 S,0,33795,47262,1.14336,1.9216 M,0,33795,48104,327,27,374,774 F,0,34215,47262,1 F,0,47262,48104,1,0
Sprite,Foreground,Centre,"SB\sakura3.jpg",320,240 F,2,47262,48104,0,1 F,0,48104,61992,1,0.9915459 F,0,61992,63254,0.9915459,0.9907777 F,0,63254,64096,0.9907777,0
Sprite,Foreground,Centre,"SB\Shinguji Sakura 2.png",320,240 M,0,48104,,162,97 F,0,48104,63254,0.9846399 F,1,63254,64096,0.9846399,0
Sprite,Foreground,Centre,"SB\OP effect.png",320,240 M,0,48104,48314,173,108 F,0,48104,48314,1,0 S,0,48104,48314,0.5084799,1.52224 M,0,48524,48735,104,243,119,308 F,0,48524,48735,1,0 S,0,48524,48735,0.648768,1.488448 M,0,48945,,134,374 F,0,48945,49156,1 S,0,48945,49156,0.610671,1.460591 F,0,49156,49261,1,0 M,0,54837,,490,368 F,0,54837,55048,1,0 S,0,54837,55048,0.5718952,1.452535 M,0,55258,55468,560,232 F,0,55258,55468,1,0 S,0,55258,55468,0.6230952,1.452535 M,0,55679,,516,80 F,0,55679,55889,1,0 S,0,55679,55889,0.5616551,1.452535
Sprite,Foreground,Centre,"SB\sakura.png",320,240 S,0,48104,,1 F,0,48104,48945,0,1 M,0,48104,63675,-207,167,415,281 F,0,48945,63254,1 F,0,63254,63675,1,0
Sprite,Foreground,Centre,"SB\Maria Tachibana 2.png",320,240 M,0,48524,,89,247 F,0,48524,63254,0.99488 F,1,63254,64096,0.99488,0
Sprite,Foreground,Centre,"SB\Ri Kohran 2.png",320,240 M,0,48945,,168,401 F,0,48945,63254,1 F,1,63254,64096,1,0
Sprite,Foreground,Centre,"SB\Kiryushima Kanna 2.png",320,240 M,0,54837,,494,403 F,0,54837,63254,1 F,1,63254,64096,1,0
Sprite,Foreground,Centre,"SB\Iris Chateaubriand 2.png",320,240 M,0,55258,,552,249 F,0,55258,63254,1 F,1,63254,64096,1,0
Sprite,Foreground,Centre,"SB\Kanzaki Sumire 2.png",320,240 M,0,55679,,518,85 F,0,55679,63254,1 F,0,63254,,1 F,1,63254,64096,1,0
Sprite,Foreground,Centre,"SB\sakura4.png",320,240 F,0,64096,64938,0,1 M,1,64096,67463,464,229,202,203 S,0,64096,67463,1.12288,1.512 F,0,64938,70409,1 M,2,67463,70830,202,203,-332,247 S,0,67463,70830,1.512,2.1264 F,0,70409,70830,1,0
Sprite,Foreground,Centre,"SB\SAKURA BIG.png",320,240 F,2,70830,71671,0,1 M,0,70830,77563,635,-61,227,316
Sprite,Foreground,Centre,"SB\big SAKURA.png",320,240 S,0,70830,,0.67232 F,0,70830,71250,0,1 M,0,70830,77563,-46,-35,691,463 R,1,70830,77563,0,-11.38688
Sprite,Foreground,Centre,"SB\OP effect.png",320,240 F,0,77563,77984,1,0 S,0,77563,77984,1,2.65888
Sprite,Foreground,Centre,"SB\Cherry Blossom Tree.jpg",320,240 F,0,77563,77984,0,1 F,0,77984,97343,1 F,2,97343,99027,1,0
Sprite,Foreground,Centre,"SB\Cherry Blossom Tree sakura.png",320,240 S,0,77984,,1 M,0,77984,95239,332,178,314,273 F,0,94397,95239,1,0
Sprite,Foreground,Centre,"SB\Cherry Blossom Tree.jpg",320,240 M,0,84086,,320,240 F,0,84086,84507,1,0 S,1,84086,84507,1.06144,1.01024 F,0,91031,91451,1,0 S,1,91031,91451,1.072699,0.9805391
Sprite,Foreground,Centre,"SB\sakura actor lines.png",320,240 F,0,99027,99868,0,1 M,0,99027,112915,388,240,135,240 F,0,99868,108706,1,0.99488 F,0,108706,112494,0.99488 F,0,112494,112915,0.99488,0 M,0,112915,,135,240
Sprite,Foreground,Centre,"SB\OP effect.png",320,240 M,0,99027,,321,240 F,2,99027,99448,1,0 S,1,99027,99448,1,2.73056
Sprite,Foreground,Centre,"SB\OP effect.png",320,240 M,0,99027,,321,240 F,2,99027,99448,1,0 S,1,99027,99448,1,2.73056
Sprite,Foreground,Centre,"SB\actor lines\al1.png",320,240 F,0,99868,100289,0,1 M,0,99868,103235,198,133,136,148 F,0,100289,102394,1 F,0,102394,103235,1,0
Sprite,Foreground,Centre,"SB\actor lines\al2.png",320,240 F,0,100921,101341,0,0.9948801 M,0,100921,103235,127,253,86,266 F,0,101341,102394,0.9948801 F,0,102394,103235,0.9948801,0
Sprite,Foreground,Centre,"SB\actor lines\al3.png",320,240 F,0,103235,103656,0,1 M,0,103256,106623,135,157,74,174 F,0,103656,105760,1 F,0,105760,106602,1,0
Sprite,Foreground,Centre,"SB\actor lines\al4.png",320,240 F,0,104287,104708,0,1 M,0,104309,106623,63,260,25,271 F,0,104708,,1 F,0,104708,105760,1 F,0,105760,106602,1,0
Sprite,Foreground,Centre,"SB\OP effect.png",320,240 M,0,106192,,75,55 S,0,106192,106297,0.1,5
Sprite,Foreground,Centre,"SB\OP effect.png",320,240 M,0,106392,,128,251 S,0,106403,106508,0.1,5
Sprite,Foreground,Centre,"SB\OP effect.png",320,240 M,0,106602,,15,433 S,0,106613,106718,0.1,5
Sprite,Foreground,Centre,"SB\actor lines\al5.png",320,240 F,0,106918,107339,0,1 M,0,106918,109548,530,118,482,116 F,0,107339,108706,1 F,0,108706,109548,1,0
Sprite,Foreground,Centre,"SB\OP effect.png",320,240 M,0,107865,,555,431 S,0,107876,107981,0.1,5
Sprite,Foreground,Centre,"SB\actor lines\al6.png",320,240 F,0,107970,108391,0,1 M,0,107970,109569,559,231,527,232 F,0,108391,108917,1 F,0,108917,109548,1,0
Sprite,Foreground,Centre,"SB\OP effect.png",320,240 M,0,108075,,512,254 S,0,108086,108191,0.1,5
Sprite,Foreground,Centre,"SB\OP effect.png",320,240 M,0,108285,,584,48 S,0,108296,108402,0.1,5
Sprite,Foreground,Centre,"SB\actor lines\al7.png",320,240 F,0,109548,109969,0,1 M,0,109548,112915,488,87,427,89 F,0,109969,112073,1 F,0,112073,112915,1,0 M,0,112915,,427,89
Sprite,Foreground,Centre,"SB\actor lines\al8.png",320,240 F,0,110390,110811,0,1 M,0,110390,112915,521,246,479,247 F,0,110811,112073,1 F,0,112073,112915,1,0
Sprite,Foreground,Centre,"SB\sakura.png",320,240 F,0,112915,113336,0,1 M,0,112915,126382,20,145,580,315 S,0,112915,126382,2.1776,1 F,0,113336,125961,1,0.993104 F,0,125961,126382,0.993104,0
Sprite,Foreground,Centre,"SB\part2.jpg",320,240 F,0,112915,113336,0,1 M,0,112915,126382,56,454,320,240 S,0,112915,126382,2.3824,1 F,0,113336,125961,1 F,0,125961,126382,1,0
Sprite,Foreground,Centre,"SB\title.jpg",320,240 F,0,126382,126803,0,1 M,1,126382,140691,286,528,329,25 S,1,126382,140691,1.26624,1.092159
Sprite,Foreground,Centre,"SB\SAKURA BIG.png",320,240 F,0,126382,126803,0,1 M,0,126382,140691,320,-102,338,385 R,0,126382,140691,0,-0.8601599
Sprite,Foreground,Centre,"SB\part22.jpg",320,240 M,0,141954,142375,96,399,339,248 S,0,141954,142375,2.01376,1.19456 M,0,142375,170151,339,248,320,240 S,0,142375,170151,1.19456,1.02048 F,0,166889,,1 F,2,166889,170151,1,0
Sprite,Foreground,Centre,"SB\sakura efect.png",320,240 M,0,147425,,101,316 F,0,147425,147635,1,0 S,0,147425,147635,3.77504,1.063878 R,0,147425,147635,0,-0.901121
Sprite,Foreground,Centre,"SB\sakura efect.png",320,240 M,0,147846,,547,60 F,0,147846,148056,1,0 S,0,147846,148056,2.82272,0.5596802 R,0,147846,148056,0.7987198,0
Sprite,Foreground,Centre,"SB\sakura efect.png",320,240 M,0,148266,,539,356 F,0,148266,148477,1,0 S,0,148266,148477,2.82272,0.6108798 R,0,148266,148477,1.06496,0
Sprite,Foreground,Centre,"hitcircle.png",320,240 M,0,154158,,71,80 F,0,154158,154369,1,0 S,0,154158,154369,2.51552,0.6211201 R,0,154158,154369,1.04448,0
Sprite,Foreground,Centre,"hitcircle.png",320,240 M,0,154579,,582,394 F,0,154579,154790,1,0 S,0,154579,154790,2.54624,0.6927999 R,0,154579,154790,-1.105921,0
Sprite,Foreground,Centre,"hitcircle.png",320,240 M,0,155000,,365,122 F,0,155000,155211,0.99488,0 S,0,155000,155211,2.26976,0.37536 R,0,155000,155211,0.9420798,0
Sprite,Foreground,Centre,"SB\sakura efect.png",320,240 M,0,160892,161102,359,400,337,396 F,0,160892,161102,1,0 S,0,160892,161102,2.61792,0.6416003 R,0,160892,161102,1.06496,0
Sprite,Foreground,Centre,"SB\sakura efect.png",320,240 M,0,161313,,92,299 F,0,161313,161523,1,0 S,0,161313,161523,2.45408,0.6313601 R,0,161313,161523,1.024,1.55648
Sprite,Foreground,Centre,"SB\sakura efect.png",320,240 M,0,161734,,574,214 F,0,161734,161944,1,0 S,0,161734,161944,2.46432,0.5494401 R,0,161734,161944,-0.8396802,-0.2457596
Sprite,Foreground,Centre,"SB\logo.jpg",320,240 F,0,169940,170151,0,1 F,0,170151,172045,1 F,0,172045,172255,1,0
Sprite,Foreground,Centre,"SB\Iris Chateaubriand.png",320,240 M,0,170151,,125,117 F,0,170151,170466,1
Sprite,Foreground,Centre,"SB\Kiryushima Kanna.png",320,240 M,0,170466,,123,361 F,0,170466,170782,1 F,0,170782,,1
Sprite,Foreground,Centre,"SB\Kanzaki Sumire.png",320,240 M,0,170782,,317,399 F,0,170782,171098,1 F,0,171098,,1
Sprite,Foreground,Centre,"SB\Ri Kohran.png",320,240 M,0,171098,,515,364 F,0,171098,171413,1
Sprite,Foreground,Centre,"SB\Maria Tachibana.png",320,240 M,0,171413,171729,516,116,514,115 F,0,171413,171729,1
Sprite,Foreground,Centre,"SB\Shinguji Sakura.png",320,240 M,0,171729,,320,77 F,0,171729,172045,1
Sprite,Foreground,Centre,"SB\SAKURA BIG.png",320,240 F,0,172255,172466,0,1 M,2,172255,173518,787,126,-16,503 R,2,172255,173518,0.8396801,2.37568 F,0,172466,173307,1 F,0,173307,173518,1,0
Sprite,Foreground,Centre,"SB\OP effect.png",320,240 M,0,173535,173746,94,102 F,0,173535,173746,1,0 S,1,173535,173746,0.1,5
Sprite,Foreground,Centre,"SB\OP effect.png",320,240 F,0,173851,174061,1,0 F,0,173851,174061,1,0 S,0,173851,174061,0.1,5 M,0,173956,,542,375 S,0,174061,,5
Sprite,Foreground,Centre,"SB\title.jpg",320,240 F,0,175201,,1 S,0,175201,175411,2.39264,1.09216 S,0,175411,175832,1.09216,1.086211
Sprite,Foreground,Centre,"SB\sakura2.jpg",320,240 S,0,175832,176043,2.25952,1.11264 S,0,176043,176464,1.11264,1.114533
Sprite,Foreground,Centre,"SB\part2.jpg",320,240 S,0,176464,176674,2.73056,1 S,0,176674,177305,1 F,0,177305,178147,1 F,0,178147,178989,1,0
//Storyboard Sound Samples
//Background Colour Transformations
3,100,0,0,0

[TimingPoints]
-1530,420.831141504471,4,1,0,31,1,0
4151,-100,4,1,0,15,0,0
6255,-100,4,1,0,61,0,0
6465,-100,4,1,0,59,0,1
6518,-100,4,1,0,59,0,0
13199,-100,4,1,0,29,0,0
19721,-100,4,2,1,40,0,0
26139,-100,4,2,2,40,0,0
27191,-100,4,2,1,40,0,0
32332,-100,4,2,2,40,0,0
32752,-100,4,2,1,40,0,0
33030,-100,4,2,1,40,0,0
33293,-100,4,2,1,30,0,0
33504,-100,4,2,1,21,0,0
33714,-100,4,2,1,25,0,0
34030,-100,4,2,1,40,0,0
39501,-100,4,2,2,40,0,0
40447,-100,4,2,1,40,0,0
40763,-100,4,2,2,40,0,0
41184,-100,4,2,1,40,0,0
45392,-100,4,2,1,9,0,0
45971,-100,4,2,1,21,0,0
46392,-100,4,2,1,31,0,0
46812,-100,4,2,1,40,0,0
47707,-100,4,1,0,41,0,0
60858,-100,4,1,0,25,0,0
63225,-100,4,1,0,45,0,0
63698,-100,4,1,0,45,0,1
63751,-100,4,1,0,45,0,0
63909,-200,4,2,0,21,0,0
75797,-100,4,2,2,24,0,0
76218,-100,4,2,2,35,0,0
76639,-100,4,2,2,45,0,0
77060,-100,4,2,2,55,0,0
77481,-100,4,2,2,100,0,0
77691,-100,4,2,2,55,0,0
86739,-100,4,2,2,40,0,0
86949,-100,4,2,2,27,0,0
87370,-100,4,2,2,55,0,0
87633,-100,4,2,2,30,0,0
87791,-100,4,2,2,55,0,0
89883,-100,4,2,2,55,0,0
90830,-100,4,2,1,55,0,0
93367,-100,4,2,1,41,0,0
93788,-100,4,2,1,54,0,0
93998,-100,4,2,1,45,0,0
94103,-100,4,2,1,30,0,0
94197,-100,4,1,0,41,0,0
96302,-100,4,1,0,27,0,0
96722,-100,4,1,0,14,0,0
97049,-100,4,1,0,0,0,0
97470,-100,4,1,0,20,0,0
97996,-100,4,1,0,30,0,0
98417,-100,4,1,0,39,0,0
98838,-100,4,1,0,70,0,0
99048,-100,4,1,0,71,0,1
99101,-100,4,1,0,71,0,0
112304,-100,4,2,1,40,0,0
116502,-100,4,2,2,40,0,0
118186,-100,4,2,1,40,0,0
118606,-100,4,2,2,40,0,0
119869,-100,4,2,1,40,0,0
121552,-100,4,2,2,40,0,0
121973,-100,4,2,1,40,0,0
124919,-100,4,2,2,40,0,0
125340,-100,4,2,1,40,0,0
125771,-100,4,2,1,31,0,0
125981,-100,4,2,1,19,0,0
126297,-100,4,2,1,31,0,0
126507,-100,4,2,1,40,0,0
131978,-100,4,2,2,40,0,0
133021,-100,4,2,1,40,0,0
133336,-100,4,2,2,40,0,0
135440,-100,4,2,1,40,0,0
138501,-100,4,2,1,14,0,0
138974,-100,4,2,1,23,0,0
139395,-100,4,2,1,33,0,0
139816,-100,4,2,1,39,0,0
140237,-100,4,2,1,45,0,0
140710,-100,4,1,0,40,0,0
166373,-100,4,1,0,25,0,0
169530,-100,4,1,0,12,0,0
169951,-100,4,1,0,39,0,0

[Colours]
Combo1 : 255,255,255
Combo2 : 255,128,192
Combo3 : 0,179,255
Combo4 : 255,255,0

[HitObjects]
256,48,153,1,2
392,112,468,1,2
392,264,784,1,2
256,296,1100,1,2
120,256,1415,1,2
120,112,1731,1,2
256,192,2257,12,0,3519
256,192,3835,5,0
256,192,4572,6,0,B|256:88,2,100
256,192,5203,5,0
88,352,5624,5,0
416,352,6044,5,0
256,192,6465,5,0
184,160,13619,5,0
256,88,13830,1,0
328,160,14040,1,0
328,192,15303,5,0
256,264,15513,1,0
184,192,15724,1,0
448,192,19932,5,8
448,192,20142,1,8
448,88,20353,2,0,B|360:0|272:96,1,200,0|8
272,192,20984,1,0
275,92,21194,2,0,B|187:4|96:88,1,200,0|10
80,184,21826,2,0,B|8:184,2,50
136,272,22246,1,0
216,328,22457,2,0,B|256:368|320:336,2,100,8|0|0
248,232,23088,1,0
248,232,23193,1,0
248,232,23299,2,0,B|248:128,1,100,10|0
304,48,23719,6,0,B|408:48|408:168,1,150
416,184,24140,1,8
400,280,24351,1,0
312,320,24561,2,0,B|176:384|120:272,1,200,0|8
64,216,25192,1,0
128,136,25403,2,0,B|176:32|320:56,1,200,0|10
368,120,26034,2,0,B|224:120,1,100,0|2
128,184,26455,6,0,B|248:184,1,100,2|10
336,256,26876,6,0,B|200:256,1,100,2|2
168,328,27296,6,0,B|296:328,1,100,0|8
368,328,27717,1,0
448,256,27928,1,0
472,136,28138,1,0
376,48,28349,1,8
240,40,28559,1,0
96,96,28769,2,0,B|0:192|112:272,2,200,0|8|0
184,144,29821,1,0
184,192,29927,1,0
184,240,30032,1,10
184,336,30242,5,0
232,336,30347,1,0
280,336,30453,1,0
376,320,30663,1,0
448,248,30873,1,8
448,144,31084,2,0,B|448:32,2,100
360,96,31715,2,0,B|272:152|272:40|168:104,1,200,8|0
88,152,32346,1,0
56,192,32452,1,0
72,240,32557,1,8
128,320,32767,1,0
224,296,32978,6,8,B|240:360,2,50
264,272,33293,2,8,B|312:320,2,50
296,232,33609,2,8,B|368:264,2,50,8|8|12
256,40,34240,5,8
160,56,34451,1,0
88,128,34661,2,0,B|88:184|32:208,2,100,0|0|10
88,128,35187,1,0
88,128,35292,1,0
168,192,35503,1,0
240,264,35713,1,0
320,320,35923,2,0,B|368:360|416:320,1,100,8|0
424,224,36344,2,0,B|376:192|320:224,1,100
329,219,36660,1,0
329,219,36765,1,10
224,48,37186,6,0,B|224:198,1,150
192,232,37607,1,8
152,200,37712,2,0,B|152:50,1,150
48,48,38238,1,0
48,96,38343,1,0
48,144,38448,2,0,B|48:248,2,100,8|0|0
152,144,39080,1,0
152,240,39290,1,10
232,304,39501,2,0,B|232:184,1,100
296,64,39921,6,0,B|296:192,1,100,0|8
368,272,40342,6,0,B|368:128,1,100
440,104,40763,2,0,B|440:216,1,100,0|8
440,304,41184,1,0
336,344,41394,1,0
216,320,41605,1,0
112,240,41815,1,8
112,96,42026,1,0
248,32,42236,2,0,B|224:168|368:-48|344:112,2,200,0|8|0
208,120,43288,1,0
184,160,43393,1,0
200,208,43498,1,10
264,288,43709,5,0
360,288,43919,2,0,B|360:184,1,100
360,88,44340,2,0,B|360:208,1,100,8|0
460,189,44761,2,0,B|348:189,1,100
460,189,45182,1,8
256,192,45603,6,0,B|256:112,3,50
224,104,46023,2,0,B|144:64,3,50,8|0|0|0
128,80,46444,2,0,B|64:120,3,50,8|0|0|0
56,144,46865,2,0,B|56:224,3,50,0|0|8|0
104,216,47286,2,8,B|240:216,1,100,8|12
256,40,48128,5,2
480,192,48548,5,2
256,344,48969,5,2
256,240,49180,1,0
256,192,49285,1,0
208,192,49390,1,0
72,40,49811,2,0,B|16:136|128:136|72:256,1,200
112,328,50442,1,0
152,232,50653,2,0,B|208:144|88:112|146:40,1,200
344,40,51494,6,0,B|296:144|496:-8|440:144,2,200
240,40,52546,1,0
192,40,52652,1,0
144,40,52757,1,0
72,112,52967,2,0,B|200:112,1,100
296,184,53388,6,0,B|184:184,1,100,0|0
96,256,53809,6,0,B|216:256,1,100,0|0
264,328,54230,6,0,B|144:328,2,100
328,248,54861,5,2
144,168,55282,1,2
288,32,55703,1,2
376,80,55913,2,0,B|408:40,2,50
352,280,56544,2,0,B|256:368|176:280,1,200
264,224,57175,1,0
352,176,57386,2,0,B|256:88|176:176,1,200
264,224,58017,1,0
264,224,58122,1,0
264,224,58228,1,0
224,32,58648,5,0
128,64,58859,1,0
80,152,59069,2,0,B|-24:240|96:384|208:304,1,300
296,304,59911,1,0
400,248,60121,1,0
456,128,60332,1,0
352,32,60542,1,0
200,40,60753,1,0
96,48,60963,6,2,B|-16:128|112:248,1,200
160,280,61594,2,2,B|88:360,2,100
248,320,62225,2,2,B|416:320|416:56|256:56,1,400,2|0
208,56,63172,1,0
160,56,63277,1,2
152,256,63698,1,2
232,312,64119,6,0,B|360:352|392:216,1,200
432,216,65171,1,0
400,176,65382,2,0,B|416:112|352:56,1,100
344,40,66013,2,0,B|232:40,1,100
192,40,66644,1,0
144,56,66855,1,0
104,88,67065,1,0
72,184,67486,6,0,B|40:272|120:328,1,150
152,336,68327,2,0,B|272:336,1,100
280,296,68959,1,0
312,336,69169,2,0,B|448:336,1,100
448,304,69800,1,0
464,256,70011,1,0
456,208,70221,1,0
432,168,70432,1,0
360,104,70852,6,0,B|296:96|304:24,2,100
384,144,71905,1,0
360,192,72115,2,0,B|352:248|272:280,2,100
384,144,73167,1,0
336,144,73377,2,0,B|200:144,1,100
184,144,74009,1,0
136,144,74219,2,0,B|96:192|136:240,1,100
184,240,74850,1,0
232,240,75061,2,0,B|280:280|232:328,1,100
184,328,75692,1,0
88,328,75902,6,8,B|88:192,1,100
88,128,76323,2,8,B|88:56|192:56,1,100
248,64,76744,2,8,B|312:64|312:168,1,100,8|8
312,232,77165,2,8,B|312:296|384:296,1,100
472,296,77586,5,0
472,248,77691,1,0
472,200,77796,1,0
432,104,78007,2,0,B|480:72,2,50,8|0|0
344,64,78427,1,0
296,64,78533,1,0
248,64,78638,1,0
160,112,78848,2,0,B|112:72,2,50,8|0|0
96,192,79269,1,0
96,240,79374,1,0
96,288,79479,1,0
200,288,79690,5,8
296,288,79900,2,0,B|424:288|424:144,1,200
424,64,80532,1,8
328,64,80742,2,0,B|200:64,1,100
56,64,81163,6,0,B|176:64,1,100,0|8
232,136,81584,2,0,B|112:136,1,100
64,208,82004,2,0,B|200:208,1,100,0|8
232,280,82425,2,0,B|296:280,2,50
128,280,82846,1,0
56,352,83057,2,0,B|192:352,1,100,8|0
256,352,83477,1,0
360,352,83688,2,0,B|432:352|432:272,2,100,0|8|4
360,248,84319,6,0,B|360:168|456:168,1,100
413,173,84635,1,0
413,173,84740,1,8
416,72,84950,1,0
320,40,85161,2,0,B|192:40,1,100
184,136,85582,2,0,B|184:240,2,100,8|0|0
152,40,86213,2,0,B|24:40,1,100,0|8
48,144,86634,1,0
48,240,86844,5,8
112,320,87054,1,8
160,328,87160,1,8
208,320,87265,1,8
304,320,87475,1,0
352,328,87580,1,0
400,320,87686,1,4
456,240,87896,5,0
456,136,88107,1,8
360,256,88317,5,0
360,120,88527,1,0
264,280,88738,5,0
264,104,88948,1,8
168,256,89159,5,0
168,120,89369,1,0
80,240,89579,5,0
80,136,89790,2,2,B|80:80|128:48,1,100,8|2
124,50,90211,2,2,B|160:16|240:40,1,100,8|2
218,34,90632,2,2,B|272:40|320:96,1,100,10|2
305,80,91052,1,4
360,168,91263,6,0,B|416:160,2,50,0|0|8
312,256,91684,2,0,B|368:304,2,50
216,280,92104,1,0
120,256,92315,1,8
56,184,92525,2,0,B|56:56|184:56,1,200
280,56,93157,1,8
440,176,93577,5,8
352,304,93893,1,8
304,320,93998,1,8
256,304,94103,1,8
104,304,94366,5,2
104,112,94681,1,2
192,320,94997,5,2
192,96,95313,1,2
280,336,95628,5,2
288,72,95944,2,2,B|536:-80|536:464|259:325,1,575
48,192,97786,5,0
184,192,98206,1,0
328,192,98627,1,0
472,192,99048,1,0
192,192,112515,5,8
192,192,112725,1,8
96,224,112936,2,0,B|24:264|24:120|112:176,1,150
144,192,113356,1,8
248,192,113567,1,0
344,224,113777,2,0,B|408:272|456:192|408:128|344:160,1,200,0|10
248,192,114408,1,0
248,192,114514,1,0
248,192,114619,5,0
248,96,114829,1,0
144,96,115040,2,0,B|80:96|64:32,2,100,8|0|0
80,168,115671,1,0
144,248,115881,1,10
216,320,116092,1,0
312,320,116302,6,0,B|392:312|432:224,1,150
456,192,116723,1,8
456,96,116933,1,0
368,144,117144,2,0,B|288:80|264:208|184:144,1,200,0|8
184,48,117775,1,0
96,104,117986,2,0,B|152:192|48:208|96:312,1,200,0|10
176,344,118617,1,0
272,344,118827,6,2,B|272:224,1,100
272,40,119248,2,2,B|272:176,1,100,8|0
480,192,119669,6,0,B|320:192,1,150,0|0
280,192,120090,1,8
208,112,120300,1,0
88,112,120511,1,0
32,232,120721,1,0
120,344,120931,1,8
272,352,121142,1,0
416,288,121352,2,0,B|544:192|312:248|440:136,2,200,0|8|0
320,264,122404,1,0
320,160,122615,1,10
280,72,122825,5,0
240,48,122930,1,0
200,72,123036,1,0
112,112,123246,2,0,B|64:144|64:224,1,100,0|8
96,288,123667,2,0,B|208:272|160:376|280:336,1,200
360,288,124298,1,8
360,288,124719,2,0,B|536:216|448:0|272:88,1,400,0|8
232,104,125666,5,8
184,128,125771,1,8
144,152,125876,1,8
104,176,125981,1,8
144,200,126087,1,8
184,224,126192,1,8
224,248,126297,1,8
272,272,126402,6,0,B|312:344|408:320,1,150,12|0
440,296,126823,1,8
472,200,127033,1,0
448,104,127244,2,0,B|376:24|256:32,1,200,0|10
176,80,127875,1,0
96,144,128085,2,0,B|56:192|96:248,2,100,0|0|8
176,80,128717,1,0
224,56,128822,1,0
272,48,128927,2,0,B|328:40|376:80,2,100,0|0|10
272,152,129558,1,0
200,224,129769,6,0,B|272:256|352:216,1,150
345,219,130190,1,8
272,152,130400,1,0
352,96,130610,2,0,B|264:8|176:96,1,200,0|8
120,176,131242,1,0
104,272,131452,2,0,B|112:344|200:336,1,100
272,336,131873,1,10
368,304,132083,5,2
408,272,132189,1,2
440,232,132294,1,2
352,192,132504,2,2,B|352:72,2,100,2|10|2
280,264,133135,6,0,B|280:136,1,100
280,64,133556,2,0,B|280:176,1,100,8|0
176,160,133977,5,0
392,160,134188,1,0
224,216,134398,5,8
344,104,134608,1,0
280,264,134819,6,0,B|280:24,2,200,0|8|0
328,352,135871,1,0
280,352,135976,1,0
232,352,136081,1,10
136,328,136292,5,0
64,256,136502,2,0,B|16:208|56:144,1,100
45,164,136923,2,0,B|56:104|128:80,1,100,8|0
105,89,137344,2,0,B|144:56|216:72,1,100
199,68,137765,2,0,B|264:64|320:112,1,100,8|0
294,93,138185,2,0,B|352:120|376:192,1,100
360,264,138606,6,0,B|296:264,3,50,8|0|0|0
256,264,139027,5,0
208,264,139132,1,0
160,264,139238,1,0
112,264,139343,1,0
112,312,139448,6,0,B|168:312,3,50,8|0|0|0
216,312,139869,5,0
264,312,139974,1,0
312,312,140079,1,0
360,312,140184,1,0
408,312,140290,6,0,B|408:240,4,50,8|0|0|0|2
256,32,141131,5,2
104,312,141552,5,2
320,192,141973,5,0
120,216,142394,2,0,B|72:272|0:192|72:96|120:168,1,200,0|0
208,192,143025,1,0
308,170,143235,2,0,B|352:104|424:200|352:280|304:224,1,200,0|0
208,192,143867,1,0
184,96,144077,6,0,B|128:48|208:-24|304:48|232:104,1,200,0|0
208,192,144708,1,0
233,288,144919,2,0,B|296:336|200:408|120:336|176:288,1,200,0|0
208,192,145550,1,0
288,40,145760,6,0,B|288:160,1,100
352,352,146181,2,0,B|352:224,1,100
416,104,146602,6,0,B|416:216,1,100
488,288,147023,2,0,B|488:168,1,100
488,88,147444,5,2
256,312,147865,5,2
32,88,148285,5,2
136,88,148496,2,0,B|136:32,2,50
216,144,148917,1,0
304,88,149127,2,0,B|304:24|456:24|456:104,1,200
376,152,149758,1,0
304,224,149969,2,0,B|304:288|456:288|456:208,2,200
216,176,151021,1,0
168,176,151126,1,0
120,176,151231,6,0,B|56:176|56:272,2,100
216,176,151862,2,0,B|216:120|312:120,2,100
160,264,152494,5,0
352,264,152704,1,0
160,200,152915,5,0
352,200,153125,1,0
160,136,153335,6,0,B|256:88|360:144,1,200
256,176,153967,1,0
256,224,154072,1,0
256,272,154177,5,2
40,32,154598,5,2
472,32,155019,5,2
256,272,155440,5,0
176,88,155860,2,0,B|96:88|96:216|184:216,1,200
256,152,156492,1,0
329,215,156702,2,0,B|416:216|416:88|336:88,1,200
256,152,157333,1,0
256,152,157544,6,0,B|208:248|304:248|256:360,2,200
208,64,158596,1,0
256,48,158701,1,0
304,64,158806,1,0
376,136,159017,2,0,B|424:176|408:256,1,100
320,192,159437,2,0,B|344:256|272:320,1,100
240,208,159858,2,0,B|224:256|144:288,1,100
152,176,160279,2,0,B|120:208|40:192,2,100
104,88,160910,5,2
408,88,161331,5,2
256,344,161752,5,2
256,248,161962,1,0
256,200,162068,1,0
256,152,162173,1,0
304,64,162383,2,0,B|256:24|208:64,2,100
368,144,163014,2,0,B|416:192|368:240,1,100
304,304,163435,2,0,B|256:344|208:304,1,100
144,232,163856,2,0,B|102:191|150:143,1,100
432,152,164277,6,0,B|480:200|432:248,1,100,0|0
81,232,164698,6,0,B|40:192|88:144,1,100
160,80,165119,2,0,B|248:-32|448:96|392:184,1,325
352,256,165960,2,0,B|336:328|248:328,1,125
160,320,166486,2,0,B|104:320|96:248,1,100
256,192,167012,12,0,169748
112,112,170169,5,2
112,264,170484,1,2
256,320,170800,1,2
392,264,171115,1,2
392,112,171431,1,2
256,48,171747,1,2
256,192,172273,12,0,173114
32,192,173535,5,0
176,224,173851,2,0,B|248:288|328:192|248:96|176:168,1,250
136,192,174482,1,0
136,192,174587,1,0
136,192,174693,1,0
136,192,174798,1,0
136,192,174903,1,0
136,192,175008,1,0
48,144,175219,5,2
48,240,175429,1,2
256,120,175850,5,2
256,272,176060,1,2
464,96,176481,5,2
464,296,176691,1,6
