osu file format v5

[General]
AudioFilename: Golimar!!.mp3
AudioLeadIn: 1029
PreviewTime: -1
Countdown: 1
SampleSet: Normal
StackLeniency: 0.7
Mode: 0
LetterboxInBreaks: 1

[Metadata]
Title:GOLIMAR!!
Artist:Chiru
Creator:James
Version:Hard
Source:
Tags:

[Difficulty]
HPDrainRate:5
CircleSize:5
OverallDifficulty:5
SliderMultiplier:1.4
SliderTickRate:0.5

[Events]
//Background and Video events
1,0,"golimar.avi"
//Break Periods
2,3882,16266
2,55779,63709
2,74263,76431
2,107197,109368
2,116720,122463
//Storyboard Layer 0 (Background)
//Storyboard Layer 1 (Failing)
//Storyboard Layer 2 (Passing)
//Storyboard Layer 3 (Foreground)
//Storyboard Sound Samples
//Background Colour Transformations
3,100,163,162,255

[TimingPoints]
17466,405.405405405405,4,1,0,100,1
33682,398.14200398142,4,1,0,100,1
55977,388.349514563107,4,1,0,100,1
65305,400,4,1,0,100,1
68505,396.825396825397,4,1,0,100,1
133584,394.736842105263,4,1,0,100,1
136741,390.625,4,1,0,100,1
149261,394.088669950739,4,1,0,100,1
152039,394.088669950739,4,1,0,100,1
158374,393.44262295082,4,1,0,100,1
167758,393.44262295082,4,1,0,100,1
174436,397.614314115308,4,1,0,100,1
188300,396.563119629874,4,1,0,100,1

[Colours]
Combo1 : 240,5,5
Combo2 : 149,0,0
Combo3 : 191,0,0

[HitObjects]
256,192,33,12,0,3682
88,104,17466,6,0,C|88:264,1,140
200,104,18276,2,0,C|200:248,1,140
312,104,19087,2,0,C|312:264,1,140
432,104,19898,2,0,C|432:256,1,140
320,328,20709,5,0
224,224,21114,1,0
328,136,21520,1,0
424,232,21925,1,0
320,328,22330,1,0
224,224,22736,1,0
328,136,23141,1,0
240,24,23547,5,0
128,104,23952,1,0
208,216,24357,1,0
80,280,24763,2,0,C|120:334|176:272,2,140
208,216,25979,2,0,C|208:368,1,140
336,312,26790,6,0,C|488:312,1,140
476,313,27601,1,0
476,313,28006,1,0
392,200,28411,2,0,C|240:200,1,140
304,72,29222,2,0,C|152:72,1,140
164,72,30033,5,0
312,192,30438,2,0,C|472:192,1,140
451,51,31249,2,0,C|451:219,1,140
224,192,32060,2,0,C|64:192,1,140
86,192,32871,2,0,C|86:344,1,140
288,368,33682,6,0,C|440:312,1,140
288,280,34478,2,0,C|364:250,1,70
288,232,34876,2,0,C|368:200,1,70
280,192,35274,2,0,C|360:160,1,70
280,144,35672,2,0,C|360:112,1,70
320,56,36070,2,0,C|418:31|416:72,1,140
320,328,36867,6,0,B|254:267|176:344,3,140
208,88,38459,6,0,B|64:88,1,140
208,304,39255,2,0,B|48:304,1,140
68,303,40052,1,0
256,192,40450,2,0,B|416:192,1,140
396,193,41246,1,0
192,328,41644,6,0,B|258:267|336:344,3,140
80,64,43237,5,0
80,64,43635,2,0,B|40:136|80:216,1,140
208,200,44431,2,0,B|384:200,1,140
349,199,45228,1,0
432,312,45626,1,0
432,312,46024,2,0,B|256:312,1,140
416,48,46820,6,0,B|440:96|417:129|417:129|360:128,1,140
224,128,47616,1,0
224,128,48015,1,0
224,128,48413,2,0,B|72:128,1,140
256,328,49209,5,0
448,104,49607,2,0,B|448:256,2,140
304,104,50802,2,0,B|136:104,1,140
304,104,51598,2,0,B|304:256,1,140
164,244,52394,6,0,B|316:244,1,140
303,243,53190,2,0,B|303:99,1,140
304,104,53987,1,0
164,106,54385,2,0,B|316:106,1,140
305,245,55181,2,0,B|305:101,1,140
24,360,64909,5,0
24,288,65103,2,0,L|24:360,1,70,0|0
96,288,65505,2,0,L|96:376,1,70,0|0
176,288,65905,2,0,L|176:368,1,70
256,288,66305,2,0,L|256:376,1,70
336,288,66705,2,0,L|336:368,1,70
416,288,67105,2,0,L|416:376,1,70
496,288,67505,2,0,L|496:368,1,70
496,360,67905,1,0
192,328,68105,6,0,B|257:296|344:336,2,140
48,48,69298,1,0
192,328,69695,2,0,B|257:296|344:336,2,140
48,48,70885,1,0
192,328,71282,2,0,B|257:296|344:336,2,140
48,48,72473,1,0
192,328,72870,2,0,B|257:296|344:336,2,140
48,48,74060,1,0
128,48,77631,6,0,B|40:55|48:160,1,140
320,248,78425,2,0,B|168:248,1,140
128,48,79219,6,0,B|40:55|48:160,1,140
320,248,80012,2,0,B|168:248,1,140
56,328,80806,5,0
56,328,81203,1,0
192,328,81600,2,0,B|336:328,1,140,0|0
456,232,82393,1,0
456,232,82790,1,0
312,232,83187,2,0,B|168:232,1,140,0|0
56,136,83981,5,0
56,136,84378,1,0
192,136,84774,2,0,B|336:136,1,140,0|0
456,40,85568,1,0
456,40,85965,1,0
312,40,86362,2,0,B|168:40,1,140,0|0
176,40,87155,6,0,B|88:60|88:153|88:153|240:153,1,280
214,154,88346,1,0
216,296,88743,1,0
216,296,89139,1,0
352,296,89536,2,0,B|282:246|192:312,1,140
304,40,90330,6,0,B|216:60|216:153|216:153|368:153,1,280
342,154,91520,1,0
344,296,91917,1,0
344,296,92314,1,0
480,296,92711,2,0,B|410:246|320:312,1,140
136,48,93504,6,0,B|44:56|56:152,3,140
256,216,95092,1,0
256,272,95290,1,0
256,328,95489,1,0
392,80,95885,2,0,B|469:142|392:232,1,140
136,48,96679,6,0,B|44:56|56:152,3,140
256,216,98266,1,0
256,272,98465,1,0
256,328,98663,1,0
392,80,99060,2,0,B|469:142|392:232,1,140
328,320,99854,5,0
184,320,100251,1,0
328,320,100647,1,0
184,320,101044,1,0
32,128,101441,6,0,B|32:288,1,140
104,128,102235,2,0,B|104:280,1,140
176,128,103028,2,0,B|176:280,3,140
480,128,104616,2,0,B|480:288,1,140
408,128,105409,2,0,B|408:280,1,140
336,128,106203,2,0,B|336:280,1,140
336,269,106997,1,0
48,64,110568,6,0,B|192:64,1,140
456,256,111362,2,0,B|456:88,1,140
64,344,112155,2,0,B|232:344,1,140
203,344,112949,2,0,B|203:200,1,140
200,40,113743,6,0,B|360:40,1,140
340,180,114536,2,0,B|340:20,1,140
200,181,115330,2,0,B|360:181,1,140
339,319,116124,2,0,B|339:167,1,140
64,64,123663,6,0,B|64:144,1,70,0|0
120,88,124060,2,0,B|120:160,1,70
176,112,124457,2,0,B|176:200,1,70,0|0
232,136,124854,2,0,B|232:216,1,70
288,160,125251,2,0,B|288:264,1,70,0|0
344,184,125647,2,0,B|344:288,1,70,0|0
400,208,126044,2,0,B|400:296,1,70
456,232,126441,2,0,B|456:320,1,70
320,328,126838,6,0,B|248:296|168:336,3,140
320,192,128425,2,0,B|248:160|168:200,3,140
320,56,130012,2,0,B|248:24|168:64,3,140
184,280,131600,1,0
320,280,131997,1,0
320,136,132393,1,0
184,136,132790,1,0
176,278,133187,1,0
319,278,133584,6,0,B|256:243|175:286,2,140
320,280,134768,1,0
320,280,135162,1,0
320,112,135557,2,0,B|160:112,1,140
176,278,136347,1,0
319,278,136741,2,0,B|256:243|175:286,2,140
320,280,137912,1,0
320,280,138303,1,0
320,112,138694,2,0,B|160:112,1,140
176,304,139475,6,0,B|24:304,1,140
336,304,140256,2,0,B|488:304,1,140
176,192,141037,2,0,B|16:192,1,140
336,192,141819,2,0,B|496:192,1,140
472,48,142600,5,0
328,48,142991,1,0
184,48,143381,1,0
40,48,143772,1,0
112,160,144162,5,0
112,160,144553,1,0
200,264,144944,2,0,B|368:264,1,140
248,160,145725,1,0
248,160,146116,1,0
344,264,146506,2,0,B|512:264,1,140
392,160,147287,1,0
392,160,147678,1,0
328,344,148069,2,0,B|160:344,1,140,0|0
48,128,148850,6,0,B|-7:195|56:264,1,140
184,256,149655,2,0,B|239:189|176:120,1,140,0|0
336,128,150443,2,0,B|281:195|344:264,1,140
472,256,151231,2,0,B|527:189|464:120,1,140,0|0
320,160,152039,6,0,B|184:224,1,140
256,344,152827,1,0
256,192,153221,1,0
328,48,153615,2,0,B|168:48,2,140,0|0|0
256,192,154797,1,0
48,128,155191,6,0,B|48:272,1,140
152,128,155979,2,0,B|152:288,1,140
256,128,156768,2,0,B|256:288,3,140
360,128,158374,2,0,B|360:272,1,140
464,128,159160,2,0,B|464:272,1,140
184,288,159947,2,0,B|336:288,3,140
176,40,161521,6,0,B|88:60|88:153|88:153|240:153,1,280
214,154,162701,1,0
216,296,163095,1,0
216,296,163488,1,0
352,296,163882,2,0,B|192:296,1,140
304,40,164669,6,0,B|216:60|216:153|216:153|368:153,1,280
342,154,165849,1,0
344,296,166242,1,0
344,296,166636,1,0
480,296,167029,2,0,B|320:296,1,140
224,120,167758,6,0,B|152:80|80:128,1,140
224,120,168544,2,0,B|328:0,1,140
264,192,169331,2,0,B|192:152|120:200,1,140
264,192,170117,2,0,B|368:72,1,140
304,256,170905,2,0,B|232:216|160:264,1,140
304,256,171691,2,0,B|408:136,1,140
344,328,172478,2,0,B|272:288|200:336,1,140
344,328,173264,2,0,B|448:208,1,140
256,24,174053,5,0
32,192,174436,1,0
256,360,174833,1,0
480,192,175231,1,0
168,56,175628,6,0,B|72:56|64:160,1,140
344,56,176424,2,0,B|440:56|448:160,1,140
192,160,177219,2,0,B|263:112|352:176,2,140
326,159,178412,1,0
184,344,178809,2,0,B|344:344,1,140
325,345,179604,1,0
325,345,179803,1,0
325,345,180002,1,0
352,192,180400,1,0
352,192,180599,2,0,B|128:192,1,210
144,192,181593,5,0
72,48,181990,1,0
72,336,182388,1,0
440,336,182785,1,0
440,48,183183,1,0
256,360,183581,1,0
32,192,183978,1,0
256,24,184376,1,0
480,192,184773,1,0
240,336,185171,6,0,B|384:336,1,140,0|0
381,337,185966,2,0,B|381:169,1,140
240,200,186762,2,0,B|408:200,1,140
384,200,187557,2,0,B|384:56,1,140
40,216,188300,6,0,B|200:216,1,140
180,355,189093,2,0,B|180:195,1,140
180,215,189886,2,0,B|340:215,1,140
327,360,190679,2,0,B|327:208,1,140
326,361,191472,5,0
472,359,191869,2,0,B|472:207,1,140
332,219,192662,2,0,B|492:219,1,140
328,359,193455,2,0,B|328:215,1,140
328,223,194248,1,0
256,40,194645,6,0,B|408:40,1,140
256,40,195438,2,0,B|104:40,1,140
256,192,196231,6,0,B|96:192,1,140
256,192,197024,2,0,B|432:192,1,140
256,344,199403,6,0,B|104:344,1,140
256,344,200196,2,0,B|408:344,1,140
256,192,200989,6,0,B|416:192,1,140
256,192,201782,2,0,B|80:192,1,140
56,72,204361,5,0
56,72,204559,1,0
136,72,204758,1,0
136,72,204956,1,0
216,72,205153,1,0
216,72,205352,1,0
296,72,205550,1,0
296,72,205748,1,0
256,192,206046,1,0
328,296,206343,1,0
328,296,206541,2,0,B|440:200,2,140,0|0|0
248,264,207533,5,0
248,264,207731,1,0
296,192,207929,1,0
296,192,208128,1,0
240,128,208326,1,0
240,128,208524,1,0
288,56,208723,1,0
288,56,208921,1,0
392,120,209218,1,0
496,192,209516,1,0
496,192,209714,1,0
256,192,209912,12,0,210507
88,360,210904,5,0
256,360,211300,1,0
256,192,211697,1,0
88,192,212093,1,0
256,192,212490,1,0
424,192,212886,1,0
424,24,213283,1,0
256,24,213680,1,0
256,192,214076,1,0
424,192,214473,1,0
256,192,214869,12,0,216454
