osu file format v12

[General]
AudioFilename: MV.mp3
AudioLeadIn: 2
PreviewTime: 170384
Countdown: 1
SampleSet: Normal
StackLeniency: 0.7
Mode: 0
LetterboxInBreaks: 1
WidescreenStoryboard: 0

[Editor]
Bookmarks: 14469,14574,26300,55032,60102,61793,77004,78694,85455,119257,126018,153060,171652,184328,185173,198694
DistanceSpacing: 1
BeatDivisor: 4
GridSize: 8

[Metadata]
Title:Hana wa Sakuragi, Hito wa Kimi
TitleUnicode:花は桜木、人は君
Artist:Chimukamiuta
ArtistUnicode:チームカミウタ
Creator:_Erra_
Version:Hard
Source:
Tags:
BeatmapID:325137
BeatmapSetID:128390

[Difficulty]
HPDrainRate:5
CircleSize:3
OverallDifficulty:5
ApproachRate:6
SliderMultiplier:1.6
SliderTickRate:1

[Events]
//Background and Video events
0,0,"bgsakura.jpg",0,0
//Break Periods
2,78048,84405
//Storyboard Layer 0 (Background)
//Storyboard Layer 1 (Fail)
//Storyboard Layer 2 (Pass)
//Storyboard Layer 3 (Foreground)
//Storyboard Sound Samples
//Background Colour Transformations
3,100,163,162,255

[TimingPoints]
948,422.535211267606,4,2,0,70,1,0
12778,-100,4,1,0,70,0,0
14469,-100,4,1,0,100,0,1
14574,-100,4,1,0,100,0,0
41088,-100,4,2,0,60,0,0
53764,-100,4,1,0,75,0,0
55032,-100,4,1,0,100,0,1
58624,-200,4,1,0,100,0,1
59680,-100,4,1,0,100,0,1
60102,-100,4,1,0,100,0,0
61793,-100,4,1,0,100,0,1
71933,-100,4,1,0,85,0,1
76793,-200,4,1,0,85,0,1
77004,-200,4,1,0,100,0,0
77849,-100,4,1,0,100,0,0
119257,-100,4,1,0,100,0,1
126018,-100,4,1,0,100,0,0
171652,-100,4,1,0,100,0,1
184328,-100,4,1,0,100,0,0
185173,-100,4,1,0,100,0,1
198694,-100,4,2,0,100,0,0

[Colours]
Combo1 : 64,233,247
Combo2 : 0,255,255
Combo3 : 255,128,255
Combo4 : 250,56,187

[HitObjects]
256,64,948,1,2,0:0:0:0:
256,256,1581,1,0,0:0:0:0:
256,336,1793,1,2,0:0:0:0:
192,208,2215,2,0,P|256:160|320:216,2,160,0|2|0,0:0|0:0|0:0,0:0:0:0:
136,232,3271,2,0,P|88:248|24:232,1,80,0|2,0:0|0:0,0:0:0:0:
96,120,3905,6,0,P|136:88|192:72,1,80
224,64,4328,1,2,0:0:0:0:
344,96,4962,1,2,0:0:0:0:
416,136,5173,1,2,0:0:0:0:
320,304,5807,5,2,0:0:0:0:
280,256,6018,2,0,P|240:248|176:272,1,80,2|0,0:0|0:0,0:0:0:0:
152,296,6440,2,0,P|104:304|48:288,1,80,2|0,0:0|0:0,0:0:0:0:
32,248,6863,1,2,0:0:0:0:
88,128,7286,1,2,0:0:0:0:
192,200,7708,6,0,B|240:176|272:176|272:176|312:200|368:216,2,160,2|0|0,0:0|0:0|0:0,0:0:0:0:
264,304,8976,1,0,0:0:0:0:
328,304,9187,1,0,0:0:0:0:
384,272,9398,2,0,P|424:240|432:192,1,80,2|0,0:0|0:0,0:0:0:0:
408,152,9821,2,0,B|368:128|360:88|360:88|392:56|392:16,2,160,0|2|0,0:0|0:0|0:0,0:0:0:0:
288,120,11088,6,0,L|208:120,1,80
120,216,11722,1,0,0:0:0:0:
168,256,11933,2,0,P|208:280|248:288,1,80
304,280,12356,2,0,P|342:269|376:248,1,80
424,192,12778,5,0,0:0:0:0:
416,128,12990,2,0,P|400:80|368:48,2,80
352,120,13624,2,0,P|304:96|264:96,1,80
216,112,14046,2,0,L|152:120,2,40
232,192,14469,5,4,0:0:0:0:
264,264,14680,1,0,0:0:0:0:
328,312,14891,2,0,P|368:304|408:280,1,80
432,208,15314,2,0,P|424:144|400:112,1,80
360,72,15736,2,0,P|320:64|256:88,2,80
336,144,16370,1,0,0:0:0:0:
304,216,16581,1,0,0:0:0:0:
232,248,16793,1,0,0:0:0:0:
152,256,17004,6,0,P|88:232|64:200,1,80
136,168,17426,2,0,P|184:112|200:72,1,80
248,56,17849,6,0,P|304:48|352:56,2,80,4|0|0,0:0|0:0|0:0,0:0:0:0:
280,128,18483,2,0,P|296:168|296:208,1,80
232,248,18905,1,0,0:0:0:0:
152,256,19117,2,0,P|144:296|152:344,2,80
112,184,19750,1,0,0:0:0:0:
72,112,19962,1,0,0:0:0:0:
144,72,20173,2,0,P|200:64|256:72,1,80
280,128,20595,2,0,P|336:136|384:120,1,80
416,80,21018,6,0,P|472:72|512:88,2,80,0|4|0,0:0|0:0|0:0,0:0:0:0:
408,160,21652,1,0,0:0:0:0:
392,240,21863,1,0,0:0:0:0:
312,240,22074,2,0,P|272:280|240:288,1,80
160,280,22497,2,0,P|176:224|200:200,1,80
248,144,22919,1,0,0:0:0:0:
304,88,23131,2,0,P|336:40|344:8,2,80
224,64,23764,1,0,0:0:0:0:
144,80,23976,1,0,0:0:0:0:
88,136,24187,6,0,P|64:200|80:288,1,160
160,304,24821,1,0,0:0:0:0:
224,256,25032,1,0,0:0:0:0:
296,280,25243,2,0,P|344:288|400:272,1,80
384,200,25666,2,0,P|432:192|488:216,1,80
256,80,26511,5,4,0:0:0:0:
176,216,26933,1,4,0:0:0:0:
336,224,27356,1,4,0:0:0:0:
384,72,27778,5,8,0:0:0:0:
440,136,27990,1,0,0:0:0:0:
288,320,28624,1,8,0:0:0:0:
208,320,28835,1,0,0:0:0:0:
8,192,29469,1,8,0:0:0:0:
48,120,29680,2,0,P|96:88|128:80,1,80
176,136,30102,2,0,P|240:120|280:96,1,80
288,40,30525,2,0,L|272:0,4,40,0|4|0|4|0,0:0|0:0|0:0|0:0|0:0,0:0:0:0:
432,112,31370,5,8,0:0:0:0:
256,280,32004,1,8,0:0:0:0:
256,200,32215,1,0,0:0:0:0:
256,40,32638,1,0,0:0:0:0:
192,88,32849,2,0,P|136:112|104:136,1,80
104,200,33271,2,0,P|128:248|168:288,1,80
224,288,33694,2,0,L|280:304,4,40
272,224,34328,2,0,P|296:192|336:176,1,80
384,120,34750,5,0,0:0:0:0:
256,24,35173,1,0,0:0:0:0:
256,104,35384,1,0,0:0:0:0:
176,120,35595,2,0,P|112:136|80:128,1,80
208,256,36229,1,0,0:0:0:0:
280,296,36440,2,0,P|344:312|368:328,2,80
288,216,37074,2,0,P|280:176|304:136,1,80
344,80,37497,2,0,P|384:40|384:16,1,80
224,40,38131,5,0,0:0:0:0:
8,152,38764,1,0,0:0:0:0:
8,232,38976,1,0,0:0:0:0:
328,192,39609,1,0,0:0:0:0:
312,112,39820,2,0,P|272:88|232:80,1,80,4|0,0:0|0:0,0:0:0:0:
200,152,40243,2,0,P|168:184|152:224,1,80,4|0,0:0|0:0,0:0:0:0:
232,232,40666,1,0,0:0:0:0:
320,368,41088,21,2,0:0:0:0:
384,320,41300,1,0,0:0:0:0:
384,320,41511,1,0,0:0:0:0:
256,24,42145,1,2,0:0:0:0:
256,104,42356,1,0,0:0:0:0:
32,192,42990,1,0,0:0:0:0:
96,240,43201,2,0,P|152:248|200:232,1,80,2|0,0:0|0:0,0:0:0:0:
240,200,43624,2,0,P|320:184|400:200,1,160,2|0,0:0|0:0,0:0:0:0:
464,232,44257,1,0,0:0:0:0:
256,360,44891,5,2,0:0:0:0:
120,272,45314,2,0,P|112:208|128:176,1,80
160,128,45736,2,0,P|176:64|176:32,2,80
248,136,46370,1,0,0:0:0:0:
328,112,46581,2,0,P|376:112|408:128,1,80
400,208,47004,1,0,0:0:0:0:
336,256,47215,1,0,0:0:0:0:
304,328,47426,1,0,0:0:0:0:
72,272,48060,6,0,L|176:272,1,80,0|2,0:0|0:0,0:0:0:0:
184,112,48694,2,0,P|216:72|216:32,1,80
296,48,49117,2,0,P|303:86|330:115,1,80
256,256,49750,1,0,0:0:0:0:
200,312,49962,2,0,P|152:320|128:304,1,80
168,232,50384,2,0,P|160:192|184:152,1,80
256,168,50807,2,0,P|296:160|352:176,2,80
256,88,51440,2,0,L|256:8,2,80
256,168,52074,5,0,0:0:0:0:
280,240,52286,1,0,0:0:0:0:
216,288,52497,2,0,P|152:320|128:344,1,80
112,248,52919,2,0,P|64:208|56:184,1,80
56,112,53342,5,2,0:0:0:0:
216,136,53764,1,8,0:0:0:0:
368,96,54187,1,8,0:0:0:0:
400,256,54609,1,8,0:0:0:0:
248,280,55032,6,0,B|200:272|160:280|160:280|112:304|80:304,2,160
320,136,56300,1,0,0:0:0:0:
256,88,56511,1,0,0:0:0:0:
176,88,56722,2,0,P|168:128|112:160,1,80
96,88,57145,1,0,0:0:0:0:
88,248,57567,1,0,0:0:0:0:
240,304,57990,2,0,P|296:280|336:240,1,80
296,192,58412,1,0,0:0:0:0:
296,192,58624,2,0,P|351:168|396:130,1,120
256,56,59680,1,0,0:0:0:0:
136,160,60102,6,0,L|152:88,2,40
200,208,60525,2,0,L|232:160,2,40
208,288,60948,1,0,0:0:0:0:
368,264,61370,1,0,0:0:0:0:
408,112,61793,5,0,0:0:0:0:
256,56,62215,1,0,0:0:0:0:
112,120,62638,1,0,0:0:0:0:
120,280,63060,2,0,P|194:305|272:290,1,160
336,240,63694,1,0,0:0:0:0:
280,176,63905,1,0,0:0:0:0:
344,128,64117,2,0,P|392:104|432:104,2,80
280,72,64750,5,0,0:0:0:0:
200,48,64962,1,0,0:0:0:0:
128,88,65173,2,0,B|112:128|136:160|136:160|160:176|160:216|144:248,2,160
200,48,66229,1,0,0:0:0:0:
280,72,66440,1,0,0:0:0:0:
296,144,66652,1,0,0:0:0:0:
288,224,66863,2,0,P|256:288|216:304,1,80
168,280,67286,2,0,P|104:248|64:240,1,80
136,176,67708,2,0,P|192:128|200:112,2,80
48,40,68553,5,0,0:0:0:0:
200,32,68976,1,0,0:0:0:0:
280,40,69187,2,0,P|352:56|384:72,1,80
328,136,69609,2,0,P|312:184|328:216,1,80
384,264,70032,1,0,0:0:0:0:
448,320,70243,2,0,L|488:352,4,40
448,240,70877,2,0,P|456:200|448:160,1,80
440,80,71300,1,0,0:0:0:0:
376,32,71511,1,0,0:0:0:0:
256,136,71933,5,0,0:0:0:0:
96,136,72356,2,0,P|112:192|152:216,1,80
208,240,72778,1,0,0:0:0:0:
368,272,73201,1,0,0:0:0:0:
336,200,73412,1,0,0:0:0:0:
352,120,73624,2,0,P|368:80|368:40,2,80
272,104,74257,2,0,P|224:88|200:56,1,80
128,64,74680,1,0,0:0:0:0:
56,96,74891,1,8,0:0:0:0:
104,248,75314,5,0,0:0:0:0:
256,288,75736,2,0,L|336:304,1,80
416,320,76159,1,0,0:0:0:0:
416,200,76793,2,0,P|400:152|384:112,1,80
352,104,77426,2,0,P|304:112|256:104,1,80
256,56,85455,5,4,0:0:0:0:
80,328,86300,2,0,P|104:264|144:240,1,80,8|0,0:0|0:0,0:0:0:0:
184,288,86722,2,0,P|216:256|224:208,1,80,8|0,0:0|0:0,0:0:0:0:
168,168,87145,1,8,0:0:0:0:
472,72,87990,6,0,L|384:128,1,80,8|0,0:0|0:0,0:0:0:0:
368,184,88412,2,0,L|360:280,1,80,8|0,0:0|0:0,0:0:0:0:
352,344,88835,1,4,0:0:0:0:
232,48,89680,2,0,L|152:88,1,80,8|0,0:0|0:0,0:0:0:0:
88,120,90102,1,8,0:0:0:0:
152,264,90525,1,4,0:0:0:0:
256,312,92215,5,4,0:0:0:0:
400,232,92638,2,0,B|376:192|328:208|328:208|312:168|256:176,1,160,8|0,0:0|0:0,0:0:0:0:
112,224,93483,2,0,L|64:152,1,80,8|0,0:0|0:0,0:0:0:0:
128,104,93905,2,0,L|192:32,1,80,8|0,0:0|0:0,0:0:0:0:
272,40,94328,2,0,B|320:32|352:56|352:56|400:72|440:48,2,160,8|0|8,0:0|0:0|0:0,0:0:0:0:
