osu file format v12

[General]
AudioFilename: MV.mp3
AudioLeadIn: 2
PreviewTime: 170384
Countdown: 1
SampleSet: Soft
StackLeniency: 0.7
Mode: 0
LetterboxInBreaks: 1
WidescreenStoryboard: 1

[Editor]
Bookmarks: 14469,14574,26300,55032,60102,61793,77004,85455,119257,126018,153060,171652,184328,185173,198694
DistanceSpacing: 0.9
BeatDivisor: 2
GridSize: 8

[Metadata]
Title:Hana wa Sakuragi, Hito wa Kimi
TitleUnicode:花は桜木、人は君
Artist:Chimukamiuta
ArtistUnicode:チームカミウタ
Creator:_Erra_
Version:Easy
Source:
Tags:
BeatmapID:325136
BeatmapSetID:128390

[Difficulty]
HPDrainRate:3
CircleSize:2
OverallDifficulty:2
ApproachRate:3
SliderMultiplier:1
SliderTickRate:1

[Events]
//Background and Video events
0,0,"bgsakura.jpg",0,0
//Break Periods
//Storyboard Layer 0 (Background)
//Storyboard Layer 1 (Fail)
//Storyboard Layer 2 (Pass)
//Storyboard Layer 3 (Foreground)
//Storyboard Sound Samples
//Background Colour Transformations
3,100,163,162,255

[TimingPoints]
948,422.535211267606,4,2,0,70,1,0
12778,-100,4,1,0,70,0,0
14469,-100,4,1,0,100,0,1
14574,-100,4,1,0,100,0,0
41088,-100,4,2,0,60,0,0
53764,-100,4,1,0,75,0,0
55032,-100,4,1,0,100,0,1
56722,-200,4,1,0,100,0,1
59680,-100,4,1,0,100,0,1
60102,-100,4,1,0,100,0,0
61793,-100,4,1,0,100,0,1
77004,-100,4,1,0,100,0,0
119257,-100,4,1,0,100,0,1
126018,-100,4,1,0,100,0,0
171652,-100,4,1,0,100,0,1
184328,-100,4,1,0,100,0,0
185173,-100,4,1,0,100,0,1
198694,-100,4,2,0,100,0,0

[Colours]
Combo1 : 64,233,247
Combo2 : 0,255,255
Combo3 : 255,128,255
Combo4 : 250,56,187

[HitObjects]
256,88,948,1,2,0:0:0:0:
392,112,1581,2,0,L|488:136,1,50,2|0,0:0|0:0,0:0:0:0:
352,264,2638,2,0,P|304:296|256:296,2,100,2|0|0,0:0|0:0|0:0,0:0:0:0:
240,152,4328,5,2,0:0:0:0:
136,96,4962,2,0,L|56:48,2,50,2|0|0,0:0|0:0|0:0,0:0:0:0:
96,208,6018,2,0,B|128:248|192:248|192:248|248:264|280:304,1,200
360,288,7286,1,2,0:0:0:0:
440,240,7708,6,0,B|456:176|440:144|440:144|408:128|416:40,1,200
280,56,9187,1,0,0:0:0:0:
232,56,9398,2,0,P|168:56|104:72,2,100
256,232,11088,5,2,0:0:0:0:
384,192,11722,2,0,L|448:192,1,50,2|0,0:0|0:0,0:0:0:0:
472,112,12356,1,0,0:0:0:0:
392,72,12778,6,0,B|336:48|296:56|296:56|248:88|200:88,1,200,2|0,0:0|0:0,0:0:0:0:
136,144,14046,2,0,P|96:192|96:240,1,100,0|4,0:0|0:0,0:0:0:0:
152,296,14891,5,0,0:0:0:0:
240,312,15314,2,0,P|328:312|368:288,2,100
232,224,16581,2,0,P|280:184|320:168,2,100
144,224,17849,5,4,0:0:0:0:
120,136,18271,2,0,P|120:56|136:24,1,100
216,56,19117,2,0,P|288:32|328:32,2,100
272,128,20384,2,0,P|336:152|368:184,2,100,0|0|4,0:0|0:0|0:0,0:0:0:0:
240,216,21652,5,0,0:0:0:0:
200,296,22074,1,0,0:0:0:0:
112,272,22497,2,0,P|40:256|16:216,1,100
96,184,23342,2,0,P|72:128|80:80,1,100
168,104,24187,6,0,P|232:64|288:64,2,100,0|4|0,0:0|0:0|0:0,0:0:0:0:
192,192,25455,2,0,P|248:240|264:264,1,100
392,296,26511,5,8,0:0:0:0:
416,208,26933,1,8,0:0:0:0:
384,120,27356,1,8,0:0:0:0:
296,88,27778,6,0,L|216:64,1,50,0|0,0:0|0:0,0:0:0:0:
216,208,28624,2,0,L|304:208,1,50
256,344,29469,1,0,0:0:0:0:
128,296,30102,2,0,P|48:248|56:144,1,200
128,112,31370,6,0,L|200:112,1,50
232,184,32004,2,0,L|304:184,1,50
368,216,32638,1,0,0:0:0:0:
320,288,33060,2,0,P|280:320|208:320,2,100
408,296,34328,1,0,0:0:0:0:
464,224,34750,6,0,B|464:192|448:168|448:168|432:128|440:96,1,100
360,80,35595,1,0,0:0:0:0:
272,72,36018,2,0,P|192:64|168:80,2,100
248,160,37286,2,0,P|200:208|192:248,2,100
376,120,38764,6,0,L|456:104,1,50
368,232,39609,2,0,L|432:272,1,50
368,336,40243,2,0,B|328:344|272:320|272:320|232:320|168:336,1,200
88,296,41511,5,0,0:0:0:0:
96,160,42145,2,0,L|152:144,1,50
224,104,42778,2,0,B|272:88|320:104|320:104|352:112|392:96|416:80,2,200
216,192,44891,1,0,0:0:0:0:
256,272,45314,6,0,P|304:296|352:296,1,100
376,216,46159,2,0,P|432:192|480:200,2,100
304,160,47426,2,0,B|272:136|248:136|248:136|216:120|192:80,1,100
