osu file format v14

[General]
AudioFilename: tp2.mp3
AudioLeadIn: 2000
PreviewTime: 41715
Countdown: 0
SampleSet: Soft
StackLeniency: 0.3
Mode: 0
LetterboxInBreaks: 0
WidescreenStoryboard: 0

[Editor]
DistanceSpacing: 1
BeatDivisor: 3
GridSize: 4
TimelineZoom: 1.8

[Metadata]
Title:Tokimeki Poporon
TitleUnicode:ときめきポポロン♪
Artist:Chimame-tai
ArtistUnicode:チマメ隊
Creator:Fycho
Version:Easy
Source:ご注文はうさぎですか??
Tags:alacat momochikun manga time kirara max gochuumon wa usagi desuka?? gochiusa ending is the order a rabbit?? kafuu chino minase inori season 2 tv size ごちうさ chimame tai 香風智乃 条河麻耶 奈津惠 水瀬いのり 德井青空 村川梨衣 jouga maya natsu megu Tokui Sora Murakawa Rie
BeatmapID:801119
BeatmapSetID:364922

[Difficulty]
HPDrainRate:2
CircleSize:3
OverallDifficulty:2
ApproachRate:3
SliderMultiplier:0.9
SliderTickRate:1

[Events]
//Background and Video events
0,0,"bg8.jpg",0,0
Video,10,"video.flv"
//Break Periods
//Storyboard Layer 0 (Background)
//Storyboard Layer 1 (Fail)
//Storyboard Layer 2 (Pass)
//Storyboard Layer 3 (Foreground)
//Storyboard Sound Samples

[TimingPoints]
186,352.941176470588,4,2,1,50,1,0
3009,-100,4,2,1,40,0,0
36891,-100,4,2,1,50,0,0
39715,-100,4,2,1,60,0,0
42538,-100,4,2,1,70,0,1
64421,-100,4,2,1,70,0,0
65127,-100,4,2,1,70,0,1
87715,-100,4,2,1,60,0,0

[Colours]
Combo1 : 2,221,57
Combo2 : 92,237,183
Combo3 : 247,121,162
Combo4 : 36,135,255

[HitObjects]
340,295,186,6,0,P|394:308|488:229,1,180,4|4,0:0|0:0,0:0:0:0:
426,66,1597,2,0,L|412:155,1,90,4|0,0:0|0:0,0:0:0:0:
323,170,2303,2,0,L|336:81,1,90,8|8,0:0|0:0,0:0:0:0:
260,32,3009,6,0,P|151:50|102:103,2,180,6|2|2,0:0|0:0|0:0,0:0:0:0:
334,196,5127,1,8,0:1:0:0:
353,283,5480,1,2,0:0:0:0:
285,342,5833,6,0,P|231:327|114:357,1,180,2|10,0:0|0:1,0:0:0:0:
58,286,6891,1,0,0:0:0:0:
134,237,7244,2,0,P|159:157|154:134,1,90,2|0,0:0|0:0,0:0:0:0:
136,66,7950,2,0,L|251:53,1,90,2|0,0:0|0:0,0:0:0:0:
313,35,8656,6,0,P|410:76|436:157,1,180,2|10,0:0|0:1,0:0:0:0:
362,193,9715,1,0,0:0:0:0:
335,278,10068,2,0,L|324:379,2,90,2|0|0,0:0|0:0|0:0,0:0:0:0:
345,98,11480,6,0,L|246:81,1,90,2|0,0:0|0:0,0:0:0:0:
166,87,12185,2,0,P|116:126|107:253,1,180,2|2,0:0|0:0,0:0:0:0:
161,301,13244,1,0,0:0:0:0:
250,289,13597,2,0,L|230:376,1,90,10|0,0:1|0:0,0:0:0:0:
320,370,14303,6,0,L|340:271,2,90,2|0|2,0:0|0:0|0:0,0:0:0:0:
410,369,15362,1,0,0:0:0:0:
485,319,15715,2,0,P|516:245|491:150,1,180,2|2,0:0|0:0,0:0:0:0:
415,104,16774,1,0,0:0:0:0:
345,160,17127,6,0,P|287:148|256:129,1,90,2|0,0:0|0:0,0:0:0:0:
177,99,17833,2,0,P|126:99|89:119,1,90,10|0,0:1|0:0,0:0:0:0:
43,192,18538,2,0,P|61:95|22:21,1,180,10|2,0:1|0:0,0:0:0:0:
115,10,19597,1,0,0:0:0:0:
199,41,19950,6,0,L|295:27,1,90,2|0,0:0|0:0,0:0:0:0:
359,82,20656,2,0,P|378:131|365:191,1,90,2|0,0:0|0:0,0:0:0:0:
300,218,21362,2,0,L|114:220,1,180,2|2,0:0|0:0,0:0:0:0:
254,340,22774,6,0,P|323:331|415:341,1,150,4|8,0:0|0:0,0:0:0:0:
497,185,24068,2,0,P|360:142|291:137,1,210,4|2,0:0|0:0,0:0:0:0:
204,143,25244,1,8,0:0:0:0:
119,173,25597,5,4,0:0:0:0:
256,192,25715,12,4,26891,0:0:0:0:
98,306,28421,6,0,P|133:183|110:117,1,180,2|2,0:0|0:0,0:0:0:0:
286,65,29833,2,0,P|269:105|276:153,1,90
309,233,30538,2,0,L|284:343,1,90,2|0,0:0|0:0,0:0:0:0:
369,361,31244,6,0,L|410:179,1,180,2|2,0:0|0:0,0:0:0:0:
234,232,32656,1,2,0:0:0:0:
148,259,33009,2,0,P|125:196|136:163,2,90,0|2|0,0:0|0:0|0:0,0:0:0:0:
190,338,34068,6,0,P|273:306|362:313,1,180,2|2,0:0|0:0,0:0:0:0:
403,232,35127,2,0,L|391:157,1,60,2|4,0:0|0:0,0:0:0:0:
45,349,36891,5,2,0:0:0:0:
68,262,37244,1,12,0:0:0:0:
236,326,37950,1,12,0:0:0:0:
122,185,38656,1,12,0:0:0:0:
206,26,39362,1,12,0:0:0:0:
256,192,39715,12,4,41009,0:0:0:0:
258,124,42538,6,0,P|163:108|96:153,1,180,4|2,0:0|0:0,0:0:0:0:
65,236,43597,2,0,L|54:343,2,90,8|2|8,0:0|0:0|0:0,0:0:0:0:
153,252,44656,2,0,L|256:233,1,90,0|8,0:0|0:0,0:0:0:0:
331,244,45362,6,0,P|356:155|291:71,1,180,2|2,0:0|0:0,0:0:0:0:
236,37,46421,1,8,0:0:0:0:
147,53,46774,2,0,L|49:81,2,90,2|8|2,0:0|0:0|0:0,0:0:0:0:
165,141,47833,1,8,0:0:0:0:
247,176,48185,6,0,P|265:251|236:360,2,180,2|2|2,0:0|0:0|0:0,0:0:0:0:
67,186,50303,1,2,0:0:0:0:
191,48,51009,6,0,P|239:52|294:83,1,90,2|8,0:0|0:0,0:0:0:0:
272,159,51715,2,0,P|259:200|263:258,1,90,2|8,0:0|0:0,0:0:0:0:
301,326,52421,2,0,P|416:333|466:278,1,180,2|2,0:0|0:0,0:0:0:0:
446,203,53480,1,8,0:0:0:0:
357,220,53833,6,0,L|383:41,2,180,2|2|2,0:0|0:0|0:0,0:0:0:0:
275,257,55597,2,0,P|221:258|183:233,1,90,8|2,0:0|0:0,0:0:0:0:
150,160,56303,1,8,0:0:0:0:
60,162,56656,6,0,P|55:215|26:257,1,90,2|8,0:0|0:0,0:0:0:0:
45,335,57362,2,0,P|221:310|245:309,1,180,2|2,0:0|0:0,0:0:0:0:
310,332,58421,1,8,0:0:0:0:
385,282,58774,2,0,P|382:229|398:184,1,90,2|8,0:0|0:0,0:0:0:0:
368,107,59480,6,0,P|318:84|284:54,1,90,2|12,0:0|0:0,0:0:0:0:
205,89,60185,2,0,P|201:143|177:185,1,90,2|12,0:0|0:0,0:0:0:0:
95,169,60891,2,0,L|65:264,1,90,2|12,0:0|0:0,0:0:0:0:
103,337,61597,2,0,P|156:331|207:347,1,90,2|12,0:0|0:0,0:0:0:0:
280,354,62303,6,0,P|334:355|406:256,1,180,6|2,0:0|0:0,0:0:0:0:
418,173,63362,1,8,0:0:0:0:
392,86,63715,2,0,L|481:77,2,90,2|8|2,0:0|0:0|0:0,0:0:0:0:
303,105,64774,1,8,0:0:0:0:
213,116,65127,6,0,P|97:129|41:87,1,180,4|2,0:0|0:0,0:0:0:0:
59,276,66538,2,0,L|41:384,2,90,2|8|2,0:0|0:0|0:0,0:0:0:0:
147,256,67597,1,8,0:0:0:0:
218,201,67950,6,0,B|286:175|337:221|395:189,1,180,2|2,0:0|0:0,0:0:0:0:
348,111,69009,1,8,0:0:0:0:
261,85,69362,2,0,L|164:106,2,90,2|8|0,0:0|0:0|0:0,0:0:0:0:
325,22,70421,1,8,0:0:0:0:
414,29,70774,6,0,P|446:108|400:214,2,180,2|2|2,0:0|0:0|0:0,0:0:0:0:
257,117,72891,2,0,L|232:220,1,90,2|8,0:0|0:0,0:0:0:0:
211,291,73597,6,0,P|154:280|22:303,1,180,2|2,0:0|0:0,0:0:0:0:
13,209,74656,1,8,0:0:0:0:
85,155,75009,2,0,P|98:113|88:67,1,90,2|8,0:0|0:0,0:0:0:0:
159,12,75715,2,0,L|271:41,1,90,2|8,0:0|0:0,0:0:0:0:
272,120,76421,6,0,P|310:181|423:186,1,180,4|2,0:0|0:0,0:0:0:0:
323,318,77715,2,0,P|204:302|95:297,1,210,4|2,0:0|0:0,0:0:0:0:
85,211,78891,1,8,0:0:0:0:
173,195,79244,6,0,P|193:148|188:97,1,90,4|8,0:0|0:0,0:0:0:0:
239,33,79950,2,0,L|408:62,1,150,2|4,0:0|0:0,0:0:0:0:
460,153,81009,2,0,P|443:198|444:245,2,90,10|2|8,0:0|0:0|0:0,0:0:0:0:
369,148,82068,6,0,P|379:91|361:54,1,90,2|12,0:0|0:0,0:0:0:0:
294,9,82774,2,0,L|188:30,2,90,2|12|2,0:0|0:0|0:0,0:0:0:0:
298,99,83833,1,12,0:0:0:0:
243,170,84185,2,0,P|226:211|230:255,2,90,2|12|4,0:0|0:0|0:0,0:0:0:0:
256,192,85009,12,4,86303,0:0:0:0:
256,264,87715,6,0,B|256:174,1,90,4|8,0:0|0:0,0:0:0:0:
323,114,88421,2,0,P|256:86|188:114,1,150,4|4,0:0|0:0,0:0:0:0:
