osu file format v13

[General]
AudioFilename: cs_1050.mp3
AudioLeadIn: 2000
PreviewTime: 20271
Countdown: 0
SampleSet: Soft
StackLeniency: 0.7
Mode: 0
LetterboxInBreaks: 0
WidescreenStoryboard: 0

[Editor]
DistanceSpacing: 1
BeatDivisor: 4
GridSize: 4
TimelineZoom: 1

[Metadata]
Title:Angel Gakuen no Ichinichi
TitleUnicode:エンジェル学園の一日
Artist:Chili Tomato
ArtistUnicode:チリトマト
Creator:-[ Asuna ]-
Version:Hard
Source:Cosmic Break
Tags:コズミックブレイク Online Video Game sawasaki yoshihiro mituo ikusa JAPAN BGM STG SAM kanpan Xinely Jekate Troogle -Google- kurokami
BeatmapID:418041
BeatmapSetID:172967

[Difficulty]
HPDrainRate:6
CircleSize:4
OverallDifficulty:7
ApproachRate:8
SliderMultiplier:2.6
SliderTickRate:2

[Events]
//Background and Video events
0,0,"Plaza.jpg",0,0
//Break Periods
//Storyboard Layer 0 (Background)
//Storyboard Layer 1 (Fail)
//Storyboard Layer 2 (Pass)
//Storyboard Layer 3 (Foreground)
//Storyboard Sound Samples
//Background Colour Transformations
3,100,163,162,255

[TimingPoints]
6,638.297872340426,4,2,1,70,1,0
1920,-100,4,1,0,45,0,0
2240,-100,4,2,1,70,0,0
4474,-100,4,1,0,45,0,0
4793,-100,4,2,1,70,0,0
7027,-100,4,1,0,45,0,0
7346,-100,4,2,1,70,0,0
8942,-100,4,1,0,45,0,0
9261,-100,4,2,1,70,0,0
12133,-100,4,1,0,45,0,0
12452,-100,4,2,1,70,0,0
14686,-100,4,1,0,45,0,0
15006,-100,4,2,1,70,0,0
17240,-100,4,1,0,45,0,0
17559,-100,4,2,1,70,0,0
19154,-100,4,1,1,45,0,0
19474,-100,4,2,1,70,0,0
20431,-100,4,2,1,70,0,1
28091,-100,4,2,1,50,0,0
30644,-100,4,2,1,60,0,1
38623,-100,4,2,1,45,0,1
40059,-100,4,2,1,30,0,1
40218,-133.333333333333,4,2,1,15,0,1
40697,-133.333333333333,4,2,1,5,0,1
40857,-133.333333333333,4,2,1,5,0,0

[Colours]
Combo1 : 255,81,168
Combo2 : 33,147,239
Combo3 : 225,142,253
Combo4 : 159,170,247

[HitObjects]
82,243,6,5,2,0:0:0:0:
140,350,325,1,0,0:0:0:0:
197,233,644,1,2,0:0:0:0:
257,347,963,2,0,L|386:363,1,130,0|2,0:0|0:0,0:0:0:0:
468,264,1601,2,0,P|500:200|492:124,1,130,0|8,0:0|0:0,0:0:0:0:
368,140,2240,5,2,0:0:0:0:
336,84,2399,1,0,0:0:0:0:
304,28,2559,1,2,0:0:0:0:
228,136,2878,1,0,0:0:0:0:
140,32,3197,1,2,0:0:0:0:
48,128,3516,2,0,P|16:184|16:256,1,130,0|2,0:0|0:0,0:0:0:0:
136,208,4154,1,0,0:0:0:0:
248,136,4474,1,8,0:0:0:0:
328,240,4793,5,2,0:0:0:0:
276,284,4952,1,0,0:0:0:0:
220,320,5112,1,2,0:0:0:0:
92,332,5431,1,0,0:0:0:0:
60,208,5750,2,0,P|48:136|72:80,1,130,2|0,0:0|0:0,0:0:0:0:
180,16,6388,1,2,0:0:0:0:
291,83,6708,2,0,P|307:151|283:223,1,130,0|8,0:0|0:0,0:0:0:0:
180,268,7346,1,0,0:0:0:0:
284,344,7665,6,0,P|356:344|408:304,1,130,2|0,0:0|0:0,0:0:0:0:
420,184,8303,2,0,L|404:44,1,130,2|0,0:0|0:0,0:0:0:0:
296,128,8942,1,8,0:0:0:0:
344,256,9261,6,0,L|272:288,1,65,2|0,0:0|0:0,0:0:0:0:
248,224,9580,2,0,L|312:196,1,65,2|0,0:0|0:0,0:0:0:0:
296,128,9899,2,0,L|226:158,1,65,2|0,0:0|0:0,0:0:0:0:
172,128,10218,5,2,0:0:0:0:
156,256,10537,1,0,0:0:0:0:
40,192,10857,2,0,P|24:124|36:64,1,130,2|0,0:0|0:0,0:0:0:0:
160,24,11495,1,2,0:0:0:0:
256,112,11814,1,0,0:0:0:0:
356,196,12133,1,8,0:0:0:0:
228,212,12452,5,2,0:0:0:0:
284,176,12612,1,0,0:0:0:0:
336,136,12771,1,2,0:0:0:0:
460,96,13091,2,0,P|472:168|452:228,1,130,0|2,0:0|0:0,0:0:0:0:
392,336,13729,2,0,P|328:352|264:336,1,130,0|2,0:0|0:0,0:0:0:0:
326,222,14367,2,0,L|366:158,1,65,2|0,0:0|0:0,0:0:0:0:
330,110,14686,1,8,0:0:0:0:
195,120,15006,6,0,L|155:184,1,65,2|0,0:0|0:0,0:0:0:0:
187,237,15325,1,2,0:0:0:0:
36,288,15644,2,0,L|88:328,1,65,2|0,0:0|0:0,0:0:0:0:
104,248,15963,2,0,L|50:211,1,65,2|0,0:0|0:0,0:0:0:0:
60,128,16282,2,0,L|128:176,1,65,2|0,0:0|0:0,0:0:0:0:
184,152,16601,1,2,0:0:0:0:
236,288,16920,2,0,P|304:296|368:272,1,130,0|8,0:0|0:0,0:0:0:0:
436,172,17559,5,2,0:0:0:0:
496,120,17718,1,0,0:0:0:0:
436,72,17878,1,2,0:0:0:0:
284,72,18197,5,2,0:0:0:0:
224,24,18357,1,0,0:0:0:0:
164,72,18516,1,2,0:0:0:0:
56,180,18835,5,2,0:0:0:0:
100,244,18995,1,0,0:0:0:0:
144,180,19154,2,0,P|208:160|268:184,2,130,8|0|0,0:0|0:0|0:0,0:0:0:0:
416,124,20431,6,0,P|480:230|428:344,1,260,2|0,0:0|0:0,0:0:0:0:
328,232,21388,1,0,0:0:0:0:
232,348,21708,2,0,P|180:228|244:128,1,260,2|0,0:0|0:0,0:0:0:0:
372,156,22665,5,0,0:0:0:0:
252,208,22984,2,0,P|240:140|264:84,1,130,2|0,0:0|0:0,0:0:0:0:
336,192,23623,2,0,P|326:252|275:293,1,130,2|0,0:0|0:0,0:0:0:0:
204,184,24261,1,2,0:0:0:0:
156,296,24580,2,0,P|96:260|84:196,1,130,0|2,0:0|0:0,0:0:0:0:
74,102,25218,5,2,0:0:0:0:
110,34,25378,1,0,0:0:0:0:
34,34,25537,1,2,0:0:0:0:
236,68,25857,2,0,L|380:68,1,130,0|2,0:0|0:0,0:0:0:0:
460,156,26495,5,2,0:0:0:0:
440,232,26654,1,0,0:0:0:0:
512,212,26814,1,2,0:0:0:0:
404,356,27133,1,0,0:0:0:0:
276,336,27452,1,2,0:0:0:0:
180,252,27771,1,0,0:0:0:0:
308,160,28091,5,2,0:0:0:0:
227,49,28410,1,2,0:0:0:0:
357,91,28729,1,2,0:0:0:0:
227,133,29048,1,2,0:0:0:0:
308,23,29367,1,2,0:0:0:0:
308,160,29686,1,2,0:0:0:0:
227,49,30006,1,2,0:0:0:0:
357,91,30325,1,2,0:0:0:0:
227,49,30644,6,0,L|95:49,1,130,2|0,0:0|0:0,0:0:0:0:
0,136,31282,1,2,0:0:0:0:
124,180,31601,2,0,L|192:180,2,65,0|0|2,0:0|0:0|0:0,0:0:0:0:
4,240,32240,1,0,0:0:0:0:
116,308,32559,2,0,P|168:352|236:352,1,130,2|0,0:0|0:0,0:0:0:0:
276,312,33037,1,0,0:0:0:0:
256,248,33197,2,0,P|292:192|352:176,1,130,2|0,0:0|0:0,0:0:0:0:
486,268,33835,6,0,L|356:268,2,130,0|2|2,0:0|0:0|0:0,0:0:0:0:
413,159,34793,1,0,0:0:0:0:
428,30,35112,1,2,0:0:0:0:
307,78,35431,1,0,0:0:0:0:
99,159,35750,5,2,0:0:0:0:
84,30,36069,1,0,0:0:0:0:
205,78,36388,1,2,0:0:0:0:
28,100,36708,2,0,L|0:232,1,130,0|2,0:0|0:0,0:0:0:0:
88,280,37346,5,0,0:0:0:0:
237,332,37665,1,2,0:0:0:0:
197,208,37984,1,0,0:0:0:0:
347,255,38303,1,2,0:0:0:0:
368,100,38623,6,0,L|304:68,1,65,2|0,0:0|0:0,0:0:0:0:
240,112,38942,2,0,L|168:96,1,65,2|0,0:0|0:0,0:0:0:0:
144,172,39261,2,0,L|72:180,1,65,2|0,0:0|0:0,0:0:0:0:
72,260,39580,2,0,L|20:300,1,65,2|0,0:0|0:0,0:0:0:0:
96,332,39899,2,0,L|148:292,1,65,2|0,0:0|0:0,0:0:0:0:
228,288,40218,2,0,P|324:316|368:296,1,146.250005578995
