osu file format v14

[General]
AudioFilename: Song.mp3
AudioLeadIn: 0
PreviewTime: 57344
Countdown: 0
SampleSet: Soft
StackLeniency: 0.7
Mode: 0
LetterboxInBreaks: 0
WidescreenStoryboard: 0

[Editor]
DistanceSpacing: 0.9
BeatDivisor: 4
GridSize: 4
TimelineZoom: 1.4

[Metadata]
Title:Zettai muteki Fallin' LOVE
TitleUnicode:絶対無敵☆Fallin' LOVE☆
Artist:Chikyuboueibu
ArtistUnicode:地球防衛部
Creator:m1223961117
Version:Normal
Source:美男高校地球防衛部LOVE!
Tags:binan koukou 箱根 有基 はこね ゆもと hakone yumoto battle lover scarlet 由布院 煙 ゆふいん えん yubuin en battle lover cerulean 鬼怒川 熱史 きぬがわ あつし kinugawa atsusi battle lover epinal 鳴子 硫黄 なるこ いお naruko io battle lover sulphur 蔵王 立 ざおう りゅう zaou ryu battle lover vesta tv size opening
BeatmapID:615123
BeatmapSetID:269765

[Difficulty]
HPDrainRate:4
CircleSize:3
OverallDifficulty:4
ApproachRate:5
SliderMultiplier:1.1
SliderTickRate:1

[Events]
//Background and Video events
0,0,"BG.jpg",0,0
Video,30,"VDO.flv"
//Break Periods
//Storyboard Layer 0 (Background)
//Storyboard Layer 1 (Fail)
//Storyboard Layer 2 (Pass)
//Storyboard Layer 3 (Foreground)
//Storyboard Sound Samples

[TimingPoints]
621,344.827586206897,4,2,1,70,1,0
793,-100,4,2,1,60,0,0
1310,344.827586206897,4,2,1,60,1,0
2516,-100,4,2,0,60,0,0
2603,-100,4,2,1,60,0,0
3896,-100,4,2,0,60,0,0
4241,-100,4,2,1,60,0,0
5275,-100,4,2,0,60,0,0
5620,-100,4,2,1,60,0,0
6654,-100,4,2,0,60,0,0
6741,-100,4,2,1,60,0,0
8034,-100,4,2,0,60,0,0
8120,-100,4,2,1,60,0,0
9586,-100,4,2,2,70,0,0
11999,-100,4,2,2,70,0,0
23379,-100,4,2,2,60,0,0
33552,-100,4,2,1,60,0,0
34069,-100,4,2,2,60,0,0
44241,-100,4,2,1,60,0,0
44414,-100,4,2,2,60,0,0
44586,-100,4,2,1,60,0,0
45103,-100,4,2,2,60,0,0
55793,-100,4,2,1,60,0,0
57861,-100,4,2,2,70,0,1
59068,-100,4,2,0,70,0,1
59154,-100,4,2,2,70,0,1
60447,-100,4,2,0,70,0,1
60792,-100,4,2,2,70,0,1
65965,-100,4,2,0,70,0,1
66051,-100,4,2,2,70,0,1
79241,-100,4,2,1,70,0,1
79586,-100,4,2,2,70,0,1
80965,-100,4,2,1,70,0,1
81138,-100,4,2,2,70,0,1
82000,-100,4,2,1,70,0,1
82345,-100,4,2,2,70,0,1
84586,-100,4,2,1,70,0,1
85103,-100,4,2,2,70,0,0
87172,-100,4,2,2,60,0,0
87689,-100,4,2,2,50,0,0
88207,-100,4,2,2,40,0,0
88724,-100,4,2,2,30,0,0
89241,-100,4,2,2,20,0,0
89758,-100,4,2,2,10,0,0
90103,-100,4,2,2,5,0,0

[Colours]
Combo1 : 255,111,255
Combo2 : 255,40,40
Combo3 : 255,218,104
Combo4 : 128,255,128
Combo5 : 36,135,255

[HitObjects]
44,96,793,6,0,L|36:28,2,55,0|0|0,0:0|0:0|0:0,0:0:0:0:
48,144,1310,2,0,P|98:159|176:140,1,110,4|2,0:0|0:0,0:0:0:0:
220,76,1999,2,0,L|356:64,1,110,0|2,0:0|0:0,0:0:0:0:
380,72,2516,2,0,P|368:160|392:236,1,165,2|2,0:0|0:0,0:0:0:0:
340,316,3378,2,0,P|290:329|218:317,1,110,0|2,0:0|0:0,0:0:0:0:
188,300,3896,5,2,0:0:0:0:
92,316,4241,2,0,L|84:392,2,55,0|2|2,0:0|0:0|0:0,0:0:0:0:
64,276,4758,2,0,P|80:224|68:152,1,110,0|2,0:0|0:0,0:0:0:0:
56,124,5275,1,2,0:0:0:0:
96,32,5620,1,0,0:0:0:0:
96,32,5792,2,0,L|228:20,1,110,2|0,0:0|0:0,0:0:0:0:
280,84,6482,1,2,0:0:0:0:
280,84,6654,6,0,P|372:50|464:72,1,165,2|10,0:0|0:0,0:0:0:0:
444,160,7516,2,0,P|400:184|336:188,1,110,0|10,0:0|0:0,0:0:0:0:
292,184,8034,2,0,P|236:156|112:172,1,165,2|10,0:0|0:0,0:0:0:0:
48,208,8896,2,0,B|37:286|37:286|56:340,1,110,0|10,0:0|0:0,0:0:0:0:
132,372,9585,5,4,0:0:0:0:
208,308,9930,2,0,L|284:300,1,55,8|4,0:0|0:0,0:0:0:0:
348,352,10447,2,0,L|428:356,1,55,2|8,0:0|0:0,0:0:0:0:
452,344,10792,6,0,P|436:272|460:168,1,165,4|0,0:0|0:0,0:0:0:0:
412,92,11654,2,0,L|420:28,2,55,2|2|8,0:0|0:0|0:0,0:0:0:0:
352,172,12344,2,0,P|260:189|156:152,1,165,8|8,0:0|0:0,0:0:0:0:
44,40,13551,6,0,P|55:95|41:176,1,110,4|2,0:0|0:0,0:0:0:0:
32,196,14068,1,8,0:0:0:0:
80,284,14413,2,0,L|72:364,2,55,2|2|8,0:0|0:0|0:0,0:0:0:0:
100,240,14930,1,0,0:0:0:0:
136,204,15103,2,0,P|228:187|332:224,1,165,8|8,0:0|0:0,0:0:0:0:
416,360,16310,6,0,P|405:305|419:224,1,110,4|2,0:0|0:0,0:0:0:0:
432,208,16827,1,8,0:0:0:0:
460,168,16999,2,0,P|464:110|452:48,1,110,4|2,0:0|0:0,0:0:0:0:
424,20,17516,1,8,0:0:0:0:
424,20,17689,2,0,P|360:52|240:44,1,165,4|8,0:0|0:0,0:0:0:0:
176,92,18551,2,0,L|112:84,2,55,0|2|8,0:0|0:0|0:0,0:0:0:0:
208,128,19068,6,0,P|221:181|212:248,1,110,4|2,0:0|0:0,0:0:0:0:
144,304,19758,2,0,L|16:312,2,110,4|2|4,0:0|0:0|0:0,0:0:0:0:
240,332,20792,2,0,L|328:344,1,55,2|8,0:0|0:0,0:0:0:0:
328,304,21137,2,0,P|396:288|444:296,1,110,4|8,0:0|0:0,0:0:0:0:
500,220,21827,6,0,P|509:165|486:88,1,110,4|2,0:0|0:0,0:0:0:0:
472,72,22344,1,8,0:0:0:0:
380,40,22689,2,0,L|304:48,1,55,2|2,0:0|0:0,0:0:0:0:
276,52,23034,1,2,0:0:0:0:
196,108,23378,6,0,P|147:91|64:96,1,110,4|8,0:0|0:0,0:0:0:0:
8,148,24068,2,0,L|16:284,1,110,2|8,0:0|0:0,0:0:0:0:
36,304,24585,2,0,P|88:332|148:328,1,110,2|2,0:0|0:0,0:0:0:0:
184,316,25103,1,8,0:0:0:0:
256,248,25447,6,0,L|248:116,2,110,2|8|2,0:0|0:0|0:0,0:0:0:0:
320,324,26482,2,0,L|388:332,1,55,8|2,0:0|0:0,0:0:0:0:
424,328,26827,2,0,P|452:279|452:196,1,110,2|8,0:0|0:0,0:0:0:0:
448,180,27344,1,2,0:0:0:0:
404,92,27689,2,0,L|412:20,2,55,2|8|2,0:0|0:0|0:0,0:0:0:0:
372,132,28206,2,0,P|321:148|239:136,1,110,8|8,0:0|0:0,0:0:0:0:
216,60,28896,6,0,P|153:40|92:45,1,110,4|8,0:0|0:0,0:0:0:0:
28,100,29585,2,0,L|20:236,1,110,2|8,0:0|0:0,0:0:0:0:
48,252,30103,2,0,P|140:228|224:240,1,165,2|8,0:0|0:0,0:0:0:0:
296,276,30965,1,8,0:0:0:0:
240,360,31310,2,0,L|180:356,1,55,8|2,0:0|0:0,0:0:0:0:
136,352,31654,5,4,0:0:0:0:
40,328,31999,1,8,0:0:0:0:
40,328,32172,2,0,P|28:276|40:208,1,110,4|2,0:0|0:0,0:0:0:0:
128,184,32861,2,0,P|140:125|128:64,1,110,4|2,0:0|0:0,0:0:0:0:
108,32,33378,1,8,0:0:0:0:
108,32,33551,2,0,P|192:52|280:40,1,165,0|8,0:0|0:0,0:0:0:0:
320,128,34413,6,0,P|369:111|452:116,1,110,4|8,0:0|0:0,0:0:0:0:
512,164,35103,2,0,L|500:304,1,110,2|8,0:0|0:0,0:0:0:0:
480,316,35620,2,0,P|428:344|368:340,1,110,2|2,0:0|0:0,0:0:0:0:
332,328,36137,1,8,0:0:0:0:
292,300,36310,2,0,B|265:287|228:284|228:284|180:316|112:300,1,165,2|8,0:0|0:0,0:0:0:0:
48,256,37172,6,0,P|58:201|46:135,1,110,2|8,0:0|0:0,0:0:0:0:
36,100,37689,1,2,0:0:0:0:
36,100,37861,2,0,P|104:108|172:88,1,110,2|8,0:0|0:0,0:0:0:0:
192,80,38378,1,4,0:0:0:0:
276,28,38723,2,0,L|356:36,1,55,2|8,0:0|0:0,0:0:0:0:
376,52,39068,2,0,P|408:124|407:217,1,165,6|8,0:0|0:0,0:0:0:0:
376,304,39930,5,4,0:0:0:0:
288,260,40275,1,8,0:0:0:0:
208,320,40620,2,0,L|216:400,2,55,8|2|8,0:0|0:0|0:0,0:0:0:0:
148,240,41310,1,8,0:0:0:0:
60,288,41654,1,8,0:0:0:0:
8,204,41999,2,0,L|12:132,1,55,8|2,0:0|0:0,0:0:0:0:
16,100,42344,1,8,0:0:0:0:
88,32,42689,5,4,0:0:0:0:
168,92,43034,1,8,0:0:0:0:
168,92,43206,2,0,P|220:104|288:92,1,110,4|2,0:0|0:0,0:0:0:0:
344,24,43896,2,0,P|403:12|464:24,1,110,4|8,0:0|0:0,0:0:0:0:
492,48,44413,2,0,P|472:128|476:180,1,110,8|8,0:0|0:0,0:0:0:0:
492,252,45103,1,4,0:0:0:0:
420,320,45447,6,0,P|361:338|286:330,1,110,4|8,0:0|0:0,0:0:0:0:
284,296,45965,2,0,P|228:276|104:280,1,165,2|8,0:0|0:0,0:0:0:0:
52,204,46827,2,0,P|32:144|40:76,1,110,2|8,0:0|0:0,0:0:0:0:
56,52,47344,2,0,P|115:61|188:48,1,110,2|2,0:0|0:0,0:0:0:0:
212,40,47861,1,8,0:0:0:0:
276,116,48206,6,0,L|268:196,2,55,2|2|8,0:0|0:0|0:0,0:0:0:0:
364,68,48896,2,0,L|360:8,2,55,0|2|8,0:0|0:0|0:0,0:0:0:0:
404,96,49413,2,0,L|392:236,1,110,2|2,0:0|0:0,0:0:0:0:
392,256,49930,1,8,0:0:0:0:
352,348,50275,2,0,P|280:364|224:348,1,110,2|8,0:0|0:0,0:0:0:0:
164,304,50965,6,0,P|172:232|140:128,1,165,4|2,0:0|0:0,0:0:0:0:
80,72,51827,2,0,L|8:80,2,55,2|8|2,0:0|0:0|0:0,0:0:0:0:
128,64,52344,1,2,0:0:0:0:
216,24,52689,1,8,0:0:0:0:
216,24,52861,2,0,P|276:44|336:40,1,110,2|2,0:0|0:0,0:0:0:0:
372,32,53378,1,8,0:0:0:0:
452,92,53723,6,0,L|464:224,1,110,2|8,0:0|0:0,0:0:0:0:
420,292,54413,2,0,L|428:380,2,55,2|2|8,0:0|0:0|0:0,0:0:0:0:
384,256,54930,2,0,P|336:240|248:256,1,110,4|8,0:0|0:0,0:0:0:0:
232,264,55447,1,8,0:0:0:0:
188,352,55792,2,0,P|120:364|68:352,1,110,8|8,0:0|0:0,0:0:0:0:
36,336,56310,1,8,0:0:0:0:
0,304,56482,2,0,P|12:244|0:124,1,165,4|0,0:0|0:0,0:0:0:0:
80,76,57344,6,0,L|72:8,2,55
92,124,57861,2,0,P|146:142|219:135,1,110,4|8,0:0|0:0,0:0:0:0:
260,64,58551,2,0,P|320:48|396:56,1,110,2|8,0:0|0:0,0:0:0:0:
416,68,59068,2,0,B|408:132|428:184|428:184|412:252,1,165,2|8,0:0|0:0,0:0:0:0:
336,284,59930,2,0,P|288:264|216:260,1,110,2|8,0:0|0:0,0:0:0:0:
180,264,60447,5,2,0:0:0:0:
92,312,60792,2,0,L|84:384,2,55,2|8|2,0:0|0:0|0:0,0:0:0:0:
68,268,61310,2,0,P|60:204|80:132,1,110,2|8,0:0|0:0,0:0:0:0:
92,116,61827,1,4,0:0:0:0:
176,64,62172,2,0,P|224:80|296:76,1,110,2|2,0:0|0:0,0:0:0:0:
328,64,62689,1,2,0:0:0:0:
420,100,63034,1,8,0:0:0:0:
420,100,63206,6,0,P|452:176|432:280,1,165,4|8,0:0|0:0,0:0:0:0:
380,332,64068,2,0,P|322:337|264:324,1,110,2|8,0:0|0:0,0:0:0:0:
240,288,64585,2,0,P|184:280|112:300,1,110,4|2,0:0|0:0,0:0:0:0:
88,316,65103,1,8,0:0:0:0:
20,244,65447,2,0,L|28:180,1,55,2|2,0:0|0:0,0:0:0:0:
36,140,65792,1,8,0:0:0:0:
36,140,65965,6,0,P|124:164|224:144,1,165,2|8,0:0|0:0,0:0:0:0:
268,88,66827,2,0,L|260:24,2,55,2|2|8,0:0|0:0|0:0,0:0:0:0:
296,128,67344,2,0,P|272:216|296:316,1,165,4|8,0:0|0:0,0:0:0:0:
364,344,68206,1,2,0:0:0:0:
460,316,68551,1,8,0:0:0:0:
460,316,68723,6,0,P|484:260|480:188,1,110,4|2,0:0|0:0,0:0:0:0:
472,164,69241,2,0,L|332:152,1,110,8|2,0:0|0:0,0:0:0:0:
316,68,69930,1,8,0:0:0:0:
316,68,70103,2,0,L|188:80,1,110,4|2,0:0|0:0,0:0:0:0:
156,84,70620,1,8,0:0:0:0:
72,140,70965,2,0,L|0:128,2,55,2|2|8,0:0|0:0|0:0,0:0:0:0:
116,164,71482,6,0,P|100:224|112:296,1,110,4|2,0:0|0:0,0:0:0:0:
124,316,71999,1,8,0:0:0:0:
216,356,72344,2,0,L|348:348,1,110,2|8,0:0|0:0,0:0:0:0:
372,336,72861,2,0,P|396:268|372:152,1,165,4|8,0:0|0:0,0:0:0:0:
324,100,73723,1,2,0:0:0:0:
260,176,74068,1,8,0:0:0:0:
260,176,74241,6,0,P|176:208|84:196,1,165,4|8,0:0|0:0,0:0:0:0:
20,148,75103,1,2,0:0:0:0:
68,60,75447,1,8,0:0:0:0:
68,60,75620,2,0,P|152:28|244:40,1,165,4|8,0:0|0:0,0:0:0:0:
308,88,76482,1,8,0:0:0:0:
404,64,76827,6,0,L|412:-8,2,55,8|2|4,0:0|0:0|0:0,0:0:0:0:
464,144,77516,2,0,L|470:198,1,55,8|4,0:0|0:0,0:0:0:0:
412,280,78034,2,0,L|405:334,2,55,2|8|4,0:0|0:0|0:0,0:0:0:0:
356,200,78723,2,0,L|344:120,2,55,2|8|2,0:0|0:0|0:0,0:0:0:0:
332,244,79241,2,0,P|272:264|220:256,1,110,8|8,0:0|0:0,0:0:0:0:
188,168,79930,6,0,P|131:148|56:152,1,110,4|2,0:0|0:0,0:0:0:0:
32,160,80447,2,0,L|40:296,1,110,4|2,0:0|0:0,0:0:0:0:
112,336,81137,2,0,P|156:316|236:312,1,110,4|2,0:0|0:0,0:0:0:0:
268,316,81654,1,8,0:0:0:0:
352,368,81999,2,0,L|364:228,1,110,8|4,0:0|0:0,0:0:0:0:
324,168,82689,5,4,0:0:0:0:
240,220,83034,1,8,0:0:0:0:
240,220,83206,2,0,P|186:234|132:228,1,110,4|2,0:0|0:0,0:0:0:0:
48,176,83896,1,4,0:0:0:0:
100,84,84241,2,0,L|93:29,2,55,2|8|0,0:0|0:0|0:0,0:0:0:0:
138,117,84758,2,0,L|132:227,1,110,8|8,0:0|0:0,0:0:0:0:
164,320,85447,6,0,L|236:332,1,55,8|8,0:0|0:0,0:0:0:0:
300,272,85965,1,8,0:0:0:0:
300,272,86137,2,0,P|352:256|424:264,1,110,8|8,0:0|0:0,0:0:0:0:
452,280,86654,1,4,0:0:0:0:
256,192,86827,12,0,90103,0:0:0:0:
