osu file format v14

[General]
AudioFilename: Song.mp3
AudioLeadIn: 0
PreviewTime: 57344
Countdown: 0
SampleSet: Soft
StackLeniency: 0.7
Mode: 0
LetterboxInBreaks: 0
WidescreenStoryboard: 0

[Editor]
DistanceSpacing: 1.3
BeatDivisor: 4
GridSize: 4
TimelineZoom: 1.4

[Metadata]
Title:Zettai muteki Fallin' LOVE
TitleUnicode:絶対無敵☆Fallin' LOVE☆
Artist:Chikyuboueibu
ArtistUnicode:地球防衛部
Creator:m1223961117
Version:Hard
Source:美男高校地球防衛部LOVE!
Tags:binan koukou 箱根 有基 はこね ゆもと hakone yumoto battle lover scarlet 由布院 煙 ゆふいん えん yubuin en battle lover cerulean 鬼怒川 熱史 きぬがわ あつし kinugawa atsusi battle lover epinal 鳴子 硫黄 なるこ いお naruko io battle lover sulphur 蔵王 立 ざおう りゅう zaou ryu battle lover vesta tv size opening
BeatmapID:613831
BeatmapSetID:269765

[Difficulty]
HPDrainRate:6
CircleSize:4
OverallDifficulty:6
ApproachRate:8
SliderMultiplier:1.5
SliderTickRate:1

[Events]
//Background and Video events
0,0,"BG.jpg",0,0
Video,30,"VDO.flv"
//Break Periods
//Storyboard Layer 0 (Background)
//Storyboard Layer 1 (Fail)
//Storyboard Layer 2 (Pass)
//Storyboard Layer 3 (Foreground)
//Storyboard Sound Samples

[TimingPoints]
621,344.827586206897,4,2,1,70,1,0
793,-133.333333333333,4,2,1,60,0,0
1310,344.827586206897,4,2,1,60,1,0
1310,-133.333333333333,4,2,1,60,0,0
2516,-133.333333333333,4,2,0,60,0,0
2603,-133.333333333333,4,2,1,60,0,0
3896,-133.333333333333,4,2,0,60,0,0
3982,-133.333333333333,4,2,1,60,0,0
5275,-133.333333333333,4,2,0,60,0,0
5361,-133.333333333333,4,2,1,60,0,0
6654,-133.333333333333,4,2,0,60,0,0
6741,-133.333333333333,4,2,1,60,0,0
8034,-133.333333333333,4,2,0,60,0,0
8120,-133.333333333333,4,2,1,60,0,0
9586,-100,4,2,2,70,0,0
10792,-133.333333333333,4,2,2,70,0,0
11310,-111.111111111111,4,2,2,70,0,0
11999,-100,4,2,2,70,0,0
23378,-111.111111111111,4,2,2,60,0,0
33552,-111.111111111111,4,2,1,60,0,0
34069,-111.111111111111,4,2,2,60,0,0
44241,-111.111111111111,4,2,1,60,0,0
44414,-111.111111111111,4,2,2,60,0,0
44586,-111.111111111111,4,2,1,60,0,0
45103,-111.111111111111,4,2,2,60,0,0
55793,-111.111111111111,4,2,1,60,0,0
57861,-100,4,2,2,70,0,1
59068,-100,4,2,0,70,0,1
59154,-100,4,2,2,70,0,1
60447,-100,4,2,0,70,0,1
60534,-100,4,2,2,70,0,1
64585,-100,4,2,0,70,0,1
64672,-100,4,2,2,70,0,1
65965,-100,4,2,0,70,0,1
66051,-100,4,2,2,70,0,1
79241,-100,4,2,1,70,0,1
79586,-100,4,2,2,70,0,1
80965,-100,4,2,1,70,0,1
81138,-100,4,2,2,70,0,1
82000,-100,4,2,1,70,0,1
82345,-100,4,2,2,70,0,1
84241,-100,4,2,1,70,0,1
84414,-100,4,2,2,70,0,1
84586,-100,4,2,1,70,0,1
85103,-100,4,2,2,70,0,0
87172,-100,4,2,2,60,0,0
87689,-100,4,2,2,50,0,0
88207,-100,4,2,2,40,0,0
88724,-100,4,2,2,30,0,0
89241,-100,4,2,2,20,0,0
89758,-100,4,2,2,10,0,0
90103,-100,4,2,2,5,0,0

[Colours]
Combo1 : 255,111,255
Combo2 : 255,40,40
Combo3 : 255,218,104
Combo4 : 128,255,128
Combo5 : 36,135,255

[HitObjects]
424,300,793,6,0,P|464:312|500:312,2,56.2500021457673,0|0|0,0:0|0:0|0:0,0:0:0:0:
348,260,1310,6,0,P|364:212|364:132,1,112.500004291535,4|2,0:0|0:0,0:0:0:0:
340,68,1827,1,2,0:0:0:0:
260,96,1999,2,0,L|268:172,1,56.2500021457673
232,232,2344,1,2,0:0:0:0:
162,180,2516,2,0,P|126:164|34:184,1,112.500004291535,2|0,0:0|0:0,0:0:0:0:
4,240,3034,2,0,L|12:320,1,56.2500021457673,2|2,0:0|0:0,0:0:0:0:
88,360,3378,2,0,L|92:288,1,56.2500021457673
132,228,3723,1,2,0:0:0:0:
192,288,3896,6,0,P|248:312|320:304,1,112.500004291535,2|0,0:0|0:0,0:0:0:0:
376,276,4413,2,0,L|384:196,1,56.2500021457673,2|2,0:0|0:0,0:0:0:0:
376,136,4758,1,0,0:0:0:0:
376,136,5103,1,2,0:0:0:0:
332,64,5275,2,0,P|279:40|200:48,1,112.500004291535,2|0,0:0|0:0,0:0:0:0:
160,92,5792,2,0,P|128:92|88:80,1,56.2500021457673,2|2,0:0|0:0,0:0:0:0:
40,140,6137,2,0,P|56:192|48:264,1,112.500004291535,0|2,0:0|0:0,0:0:0:0:
76,332,6654,6,0,P|136:316|200:328,1,112.500004291535,2|0,0:0|0:0,0:0:0:0:
260,360,7172,1,10,0:0:0:0:
312,296,7344,1,2,0:0:0:0:
268,224,7516,2,0,P|236:215|192:216,1,56.2500021457673
132,240,7861,1,10,0:0:0:0:
172,316,8034,2,0,P|236:339|296:332,1,112.500004291535,2|0,0:0|0:0,0:0:0:0:
360,304,8551,2,0,L|368:228,1,56.2500021457673,10|2,0:0|0:0,0:0:0:0:
279,193,8896,2,0,L|284:264,1,56.2500021457673
364,164,9241,2,0,L|372:84,1,56.2500021457673,10|0,0:0|0:0,0:0:0:0:
336,28,9585,5,4,0:0:0:0:
336,28,9930,1,8,0:0:0:0:
244,112,10103,2,0,P|152:120|100:64,1,150,4|0,0:0|0:0,0:0:0:0:
192,32,10620,1,8,0:0:0:0:
244,112,10792,6,0,B|272:184|260:248|260:248|236:288,1,168.750006437302,4|0,0:0|0:0,0:0:0:0:
36,240,11654,6,0,L|28:196,3,33.7499989700318,2|2|2|2,0:0|0:0|0:0|0:0,0:0:0:0:
24,164,11999,2,0,P|64:144|120:140,1,75,8|0,0:0|0:0,0:0:0:0:
180,144,12344,6,0,L|232:152,4,37.5,8|8|8|8|8,0:0|0:0|0:0|0:0|0:0,0:0:0:0:
308,36,12861,2,0,L|345:32,4,37.5,8|8|8|8|8,0:0|0:0|0:0|0:0|0:0,0:0:0:0:
448,211,13551,6,0,P|391:264|320:268,1,150,4|2,0:0|0:0,0:0:0:0:
265,192,14068,2,0,P|304:177|340:176,1,75,8|2,0:0|0:0,0:0:0:0:
322,269,14413,1,0,0:0:0:0:
248,312,14585,2,0,L|210:315,2,37.5,2|2|8,0:0|0:0|0:0,0:0:0:0:
128,300,14930,1,2,0:0:0:0:
68,236,15103,6,0,L|72:188,4,37.5,8|8|8|8|8,0:0|0:0|0:0|0:0|0:0,0:0:0:0:
135,93,15620,2,0,L|132:56,4,37.5,8|8|8|8|8,0:0|0:0|0:0|0:0|0:0,0:0:0:0:
176,284,16310,6,0,P|231:327|312:332,1,150,4|2,0:0|0:0,0:0:0:0:
388,300,16827,1,8,0:0:0:0:
340,228,16999,2,0,P|325:172|364:80,1,150,4|2,0:0|0:0,0:0:0:0:
428,40,17516,1,8,0:0:0:0:
511,117,17689,2,0,L|436:124,1,75,4|0,0:0|0:0,0:0:0:0:
356,88,18034,1,2,0:0:0:0:
280,48,18206,2,0,L|188:40,1,75,8|0,0:0|0:0,0:0:0:0:
140,116,18551,1,0,0:0:0:0:
120,32,18723,1,0,0:0:0:0:
120,32,18810,1,0,0:0:0:0:
120,32,18896,1,8,0:0:0:0:
224,120,19068,6,0,P|254:181|244:272,1,150,4|2,0:0|0:0,0:0:0:0:
209,338,19585,1,8,0:0:0:0:
140,284,19758,2,0,L|148:192,1,75,4|0,0:0|0:0,0:0:0:0:
52,120,20103,2,0,L|60:200,1,75,2|8,0:0|0:0,0:0:0:0:
136,96,20447,2,0,P|88:40|4:44,1,150,4|2,0:0|0:0,0:0:0:0:
52,120,20965,1,8,0:0:0:0:
156,180,21137,2,0,P|195:180|232:168,1,75,4|0,0:0|0:0,0:0:0:0:
296,112,21482,1,8,0:0:0:0:
296,112,21568,1,8,0:0:0:0:
296,112,21654,1,8,0:0:0:0:
408,140,21827,6,0,P|440:211|432:284,1,150,4|2,0:0|0:0,0:0:0:0:
372,344,22344,2,0,L|280:352,1,75,8|0,0:0|0:0,0:0:0:0:
236,288,22689,2,0,L|196:284,3,37.5,2|2|2|2,0:0|0:0|0:0|0:0,0:0:0:0:
164,316,23034,2,0,L|124:320,3,37.5,2|2|2|2,0:0|0:0|0:0|0:0,0:0:0:0:
84,304,23378,6,0,P|65:252|80:148,1,134.999995880127,4|8,0:0|0:0,0:0:0:0:
110,96,23896,1,0,0:0:0:0:
188,136,24068,2,0,L|180:212,2,67.4999979400635,2|2|8,0:0|0:0|0:0,0:0:0:0:
236,64,24585,2,0,P|280:32|376:40,1,134.999995880127,2|2,0:0|0:0,0:0:0:0:
432,80,25103,2,0,P|444:120|440:172,1,67.4999979400635,8|0,0:0|0:0,0:0:0:0:
368,192,25447,2,0,P|356:232|360:288,1,67.4999979400635,2|2,0:0|0:0,0:0:0:0:
388,340,25792,5,8,0:0:0:0:
388,340,26137,2,0,P|321:309|242:312,1,134.999995880127,2|8,0:0|0:0,0:0:0:0:
176,336,26654,1,0,0:0:0:0:
144,256,26827,2,0,L|152:164,1,67.4999979400635,2|2,0:0|0:0,0:0:0:0:
116,108,27172,1,8,0:0:0:0:
4,148,27344,2,0,P|31:169|64:178,1,67.4999979400635,2|0,0:0|0:0,0:0:0:0:
150,189,27689,1,2,0:0:0:0:
196,68,27861,2,0,L|128:75,1,67.4999979400635,8|0,0:0|0:0,0:0:0:0:
232,152,28206,1,8,0:0:0:0:
288,80,28378,6,0,L|292:40,2,33.7499989700318,8|8|8,0:0|0:0|0:0,0:0:0:0:
308,200,28723,1,8,0:0:0:0:
308,200,28810,1,8,0:0:0:0:
308,200,28896,2,0,P|372:252|448:236,1,134.999995880127,4|8,0:0|0:0,0:0:0:0:
492,200,29413,1,0,0:0:0:0:
472,116,29585,2,8,L|477:48,2,67.4999979400635,2|2|8,0:0|0:0|0:0,0:0:0:0:
384,136,30103,6,0,P|328:104|240:120,1,134.999995880127
188,160,30620,1,8,0:0:0:0:
104,96,30792,1,2,0:0:0:0:
20,192,30965,2,0,L|108:184,1,67.4999979400635,8|8,0:0|0:0,0:0:0:0:
128,204,31223,1,8,0:0:0:0:
128,204,31310,2,0,L|120:292,1,67.4999979400635,8|0,0:0|0:0,0:0:0:0:
176,340,31654,5,4,0:0:0:0:
176,340,31999,1,8,0:0:0:0:
236,276,32172,2,0,P|312:240|380:268,1,134.999995880127,4|2,0:0|0:0,0:0:0:0:
428,304,32689,1,8,0:0:0:0:
312,332,32861,2,0,L|328:180,1,134.999995880127,4|2,0:0|0:0,0:0:0:0:
352,112,33378,2,0,P|402:93|442:97,1,67.4999979400635,8|8,0:0|0:0,0:0:0:0:
500,112,33723,1,8,0:0:0:0:
440,176,33896,1,8,0:0:0:0:
344,28,34068,5,8,0:0:0:0:
344,28,34413,2,0,P|280:56|204:48,1,134.999995880127,4|8,0:0|0:0,0:0:0:0:
132,24,34930,1,0,0:0:0:0:
76,92,35103,2,0,P|64:127|68:180,1,67.4999979400635,2|2,0:0|0:0,0:0:0:0:
80,244,35447,1,8,0:0:0:0:
148,188,35620,2,0,P|188:176|236:180,1,67.4999979400635,2|0,0:0|0:0,0:0:0:0:
276,236,35965,2,0,L|268:324,2,67.4999979400635,2|8|2,0:0|0:0|0:0,0:0:0:0:
344,180,36482,2,0,L|338:112,1,67.4999979400635,2|2,0:0|0:0,0:0:0:0:
348,24,36827,5,8,0:0:0:0:
420,76,36999,1,0,0:0:0:0:
338,112,37172,2,0,P|276:124|208:96,1,134.999995880127,2|8,0:0|0:0,0:0:0:0:
148,36,37689,1,0,0:0:0:0:
80,92,37861,2,0,L|88:184,2,67.4999979400635,2|2|8,0:0|0:0|0:0,0:0:0:0:
36,240,38378,2,0,P|112:248|168:200,1,134.999995880127,4|2,0:0|0:0,0:0:0:0:
212,144,38896,1,8,0:0:0:0:
284,196,39068,2,0,P|300:272|256:336,1,134.999995880127,4|2,0:0|0:0,0:0:0:0:
196,360,39585,5,8,0:0:0:0:
196,360,39930,2,0,L|116:352,1,67.4999979400635,4|0,0:0|0:0,0:0:0:0:
12,286,40275,2,0,L|80:280,1,67.4999979400635,8|0,0:0|0:0,0:0:0:0:
120,264,40534,1,0,0:0:0:0:
119,264,40620,2,0,P|128:231|130:197,1,67.4999979400635,8|2,0:0|0:0,0:0:0:0:
104,116,40965,5,8,0:0:0:0:
44,180,41137,1,0,0:0:0:0:
130,198,41310,2,0,L|265:188,1,134.999995880127,8|8,0:0|0:0,0:0:0:0:
344,228,41827,1,2,0:0:0:0:
285,335,41999,2,0,P|271:305|268:272,1,67.4999979400635,8|0,0:0|0:0,0:0:0:0:
428,200,42344,2,0,P|432:232|424:265,1,67.4999979400635,8|0,0:0|0:0,0:0:0:0:
372,344,42689,5,4,0:0:0:0:
372,344,43034,1,8,0:0:0:0:
304,288,43206,2,0,P|280:240|296:140,1,134.999995880127,4|2,0:0|0:0,0:0:0:0:
340,92,43723,1,8,0:0:0:0:
380,212,43896,2,0,P|344:236|236:232,1,134.999995880127,4|8,0:0|0:0,0:0:0:0:
180,188,44413,2,0,L|188:96,1,67.4999979400635,8|8,0:0|0:0,0:0:0:0:
108,36,44758,2,0,P|72:88|80:148,1,101.249996910095,8|0,0:0|0:0,0:0:0:0:
84,168,45103,5,4,0:0:0:0:
84,168,45447,2,0,L|240:180,1,134.999995880127,4|8,0:0|0:0,0:0:0:0:
280,116,45965,2,0,P|319:101|368:104,1,67.4999979400635,0|2,0:0|0:0,0:0:0:0:
432,120,46310,2,0,L|440:204,1,67.4999979400635,2|8,0:0|0:0,0:0:0:0:
432,272,46654,1,0,0:0:0:0:
380,340,46827,2,0,P|316:364|235:339,1,134.999995880127,2|8,0:0|0:0,0:0:0:0:
192,288,47344,2,0,P|140:260|44:284,1,134.999995880127,2|2,0:0|0:0,0:0:0:0:
50,358,47861,2,0,L|118:352,1,67.4999979400635,8|0,0:0|0:0,0:0:0:0:
192,288,48206,6,0,P|204:236|200:200,1,67.4999979400635,2|2,0:0|0:0,0:0:0:0:
184,136,48551,1,8,0:0:0:0:
348,48,48896,2,0,P|335:100|340:136,1,67.4999979400635,2|2,0:0|0:0,0:0:0:0:
356,200,49241,1,8,0:0:0:0:
444,180,49413,2,0,L|452:96,1,67.4999979400635
356,200,49758,2,0,L|364:284,1,67.4999979400635,2|8,0:0|0:0,0:0:0:0:
344,356,50103,1,0,0:0:0:0:
276,296,50275,2,0,P|210:284|120:296,1,134.999995880127,2|8,0:0|0:0,0:0:0:0:
56,324,50792,1,0,0:0:0:0:
56,324,50878,1,0,0:0:0:0:
56,324,50965,6,0,L|48:228,1,67.4999979400635,4|0,0:0|0:0,0:0:0:0:
72,172,51310,1,8,0:0:0:0:
156,196,51482,2,0,L|148:292,1,67.4999979400635,2|0,0:0|0:0,0:0:0:0:
72,172,51827,2,0,L|64:76,1,67.4999979400635,2|8,0:0|0:0,0:0:0:0:
108,28,52172,1,2,0:0:0:0:
176,84,52344,2,0,P|236:104|332:84,1,134.999995880127,2|8,0:0|0:0,0:0:0:0:
456,192,52861,2,0,P|396:172|300:192,1,134.999995880127,2|2,0:0|0:0,0:0:0:0:
256,236,53378,2,0,L|264:328,1,67.4999979400635,8|0,0:0|0:0,0:0:0:0:
384,260,53723,6,0,L|396:104,1,134.999995880127,2|8,0:0|0:0,0:0:0:0:
204,40,54413,2,0,L|208:128,1,67.4999979400635,2|0,0:0|0:0,0:0:0:0:
248,184,54758,1,8,0:0:0:0:
357,132,54930,2,0,P|328:115|296:108,1,67.4999979400635,4|0,0:0|0:0,0:0:0:0:
160,184,55275,2,0,L|152:276,1,67.4999979400635,8|8,0:0|0:0,0:0:0:0:
248,184,55620,1,2,0:0:0:0:
204,100,55792,2,0,L|115:93,1,67.4999979400635,8|0,0:0|0:0,0:0:0:0:
8,220,56137,2,0,L|92:212,1,67.4999979400635,8|8,0:0|0:0,0:0:0:0:
199,332,56482,6,0,P|133:338|79:299,1,134.999995880127,4|0,0:0|0:0,0:0:0:0:
216,252,56999,2,0,L|283:245,1,67.4999979400635
364,280,57344,2,0,L|448:288,2,67.4999979400635
283,245,57861,6,0,P|255:195|267:92,1,150,4|8,0:0|0:0,0:0:0:0:
316,36,58378,1,0,0:0:0:0:
419,98,58551,2,0,P|385:113|348:116,1,75,2|2,0:0|0:0,0:0:0:0:
261,105,58896,1,8,0:0:0:0:
196,48,59068,2,0,P|124:29|44:72,1,150,2|2,0:0|0:0,0:0:0:0:
12,136,59585,2,0,L|20:228,1,75,8|0,0:0|0:0,0:0:0:0:
68,284,59930,2,0,L|64:358,2,75,2|2|8,0:0|0:0|0:0,0:0:0:0:
108,204,60447,6,0,P|164:228|252:212,1,150,2|2,0:0|0:0,0:0:0:0:
316,160,60965,2,0,P|352:158|400:168,1,75,8|0,0:0|0:0,0:0:0:0:
468,204,61310,1,2,0:0:0:0:
468,204,61654,1,8,0:0:0:0:
432,284,61827,2,0,P|383:316|288:320,1,150,4|2,0:0|0:0,0:0:0:0:
212,288,62344,2,0,L|216:212,1,75,8|2,0:0|0:0,0:0:0:0:
135,172,62689,2,0,L|127:337,1,150,2|8,0:0|0:0,0:0:0:0:
17,242,63206,6,0,P|63:185|136:172,1,150,4|2,0:0|0:0,0:0:0:0:
212,212,63723,2,0,P|247:222|285:220,1,75,8|0,0:0|0:0,0:0:0:0:
368,192,64068,1,2,0:0:0:0:
396,272,64241,1,2,0:0:0:0:
312,304,64413,1,8,0:0:0:0:
285,220,64585,2,0,L|297:52,1,150,2|2,0:0|0:0,0:0:0:0:
208,32,65103,2,0,L|212:116,1,75,8|0,0:0|0:0,0:0:0:0:
172,184,65447,2,0,P|142:200|80:200,1,75,2|2,0:0|0:0,0:0:0:0:
16,184,65792,1,8,0:0:0:0:
76,124,65965,6,0,L|88:284,1,150,2|2,0:0|0:0,0:0:0:0:
168,316,66482,2,0,L|176:224,1,75,8|0,0:0|0:0,0:0:0:0:
228,172,66827,2,0,L|220:72,2,75,2|2|8,0:0|0:0|0:0,0:0:0:0:
260,252,67344,2,0,P|296:292|396:292,1,150,4|2,0:0|0:0,0:0:0:0:
420,200,67861,2,0,P|383:203|348:216,1,75,8|2,0:0|0:0,0:0:0:0:
468,272,68206,2,0,P|456:220|468:116,1,150,2|8,0:0|0:0,0:0:0:0:
416,52,68723,6,0,P|334:79|246:59,1,150,4|2,0:0|0:0,0:0:0:0:
198,28,69241,1,8,0:0:0:0:
148,100,69413,1,0,0:0:0:0:
62,88,69585,2,0,P|48:53|43:15,1,75,2|2,0:0|0:0,0:0:0:0:
148,100,69930,1,8,0:0:0:0:
96,168,70103,2,0,P|76:233|95:320,1,150,4|2,0:0|0:0,0:0:0:0:
164,360,70620,2,0,L|260:352,1,75,8|0,0:0|0:0,0:0:0:0:
304,296,70965,2,0,L|388:304,1,75,2|2,0:0|0:0,0:0:0:0:
464,328,71310,1,8,0:0:0:0:
464,328,71482,6,0,P|491:256|484:172,1,150,4|2,0:0|0:0,0:0:0:0:
460,104,71999,1,8,0:0:0:0:
380,132,72172,1,0,0:0:0:0:
320,68,72344,2,0,P|256:44|160:76,1,150,2|8,0:0|0:0,0:0:0:0:
32,140,72861,2,0,P|96:164|192:132,1,150,4|2,0:0|0:0,0:0:0:0:
244,196,73378,2,0,L|249:270,1,75,8|0,0:0|0:0,0:0:0:0:
314,142,73723,2,0,L|320:68,1,75,2|2,0:0|0:0,0:0:0:0:
390,16,74068,1,8,0:0:0:0:
452,124,74241,6,0,P|440:204|464:300,1,150,4|2,0:0|0:0,0:0:0:0:
392,332,74758,2,0,P|356:345|319:348,1,75,8|0,0:0|0:0,0:0:0:0:
260,284,75103,2,0,P|200:252|116:268,1,150,2|8,0:0|0:0,0:0:0:0:
56,320,75620,2,0,P|80:256|60:160,1,150,4|2,0:0|0:0,0:0:0:0:
20,104,76137,2,0,L|104:96,1,75,8|2,0:0|0:0,0:0:0:0:
228,168,76482,2,0,L|148:160,1,75,8|2,0:0|0:0,0:0:0:0:
256,68,76827,2,0,P|290:53|343:53,1,75,8|2,0:0|0:0,0:0:0:0:
412,64,77172,1,4,0:0:0:0:
412,64,77516,5,8,0:0:0:0:
400,148,77689,2,0,P|360:196|264:198,1,150,4|2,0:0|0:0,0:0:0:0:
212,152,78206,1,8,0:0:0:0:
312,120,78378,2,0,L|324:288,1,150,4|2,0:0|0:0,0:0:0:0:
232,316,78896,2,0,L|240:232,1,75,8|2,0:0|0:0,0:0:0:0:
150,258,79241,2,0,L|144:184,1,75,8|0,0:0|0:0,0:0:0:0:
60,196,79585,2,0,L|68:112,1,75,8|0,0:0|0:0,0:0:0:0:
104,44,79930,5,4,0:0:0:0:
104,44,80275,1,8,0:0:0:0:
160,108,80447,2,0,P|210:131|320:108,1,150,4|2,0:0|0:0,0:0:0:0:
372,68,80965,1,8,0:0:0:0:
444,164,81137,2,0,P|464:252|432:324,1,150,4|2,0:0|0:0,0:0:0:0:
356,312,81654,2,0,P|356:272|372:228,1,75,8|2,0:0|0:0,0:0:0:0:
276,164,81999,2,0,L|284:252,1,75,8|0,0:0|0:0,0:0:0:0:
205,354,82344,2,0,L|211:279,1,75,4|0,0:0|0:0,0:0:0:0:
200,194,82689,5,4,0:0:0:0:
200,194,83034,1,8,0:0:0:0:
168,112,83206,2,0,P|115:60|24:72,1,150,4|2,0:0|0:0,0:0:0:0:
82,144,83723,1,8,0:0:0:0:
200,194,83896,2,0,L|300:188,1,75,4|0,0:0|0:0,0:0:0:0:
392,116,84241,2,0,L|317:112,1,75,8|8,0:0|0:0,0:0:0:0:
356,24,84585,1,8,0:0:0:0:
448,36,84758,2,0,P|484:96|456:188,1,150,8|4,0:0|0:0,0:0:0:0:
256,264,85447,5,8,0:0:0:0:
256,264,85620,1,8,0:0:0:0:
176,44,85965,5,8,0:0:0:0:
176,44,86137,1,8,0:0:0:0:
392,116,86482,5,8,0:0:0:0:
392,116,86654,1,4,0:0:0:0:
256,192,86741,12,0,90103,0:0:0:0:
