osu file format v14

[General]
AudioFilename: Song.mp3
AudioLeadIn: 0
PreviewTime: 57344
Countdown: 0
SampleSet: Soft
StackLeniency: 0.7
Mode: 0
LetterboxInBreaks: 0
WidescreenStoryboard: 0

[Editor]
DistanceSpacing: 1.2
BeatDivisor: 2
GridSize: 4
TimelineZoom: 1.4

[Metadata]
Title:Zettai muteki Fallin' LOVE
TitleUnicode:絶対無敵☆Fallin' LOVE☆
Artist:Chikyuboueibu
ArtistUnicode:地球防衛部
Creator:m1223961117
Version:Easy
Source:美男高校地球防衛部LOVE!
Tags:binan koukou 箱根 有基 はこね ゆもと hakone yumoto battle lover scarlet 由布院 煙 ゆふいん えん yubuin en battle lover cerulean 鬼怒川 熱史 きぬがわ あつし kinugawa atsusi battle lover epinal 鳴子 硫黄 なるこ いお naruko io battle lover sulphur 蔵王 立 ざおう りゅう zaou ryu battle lover vesta tv size opening
BeatmapID:661245
BeatmapSetID:269765

[Difficulty]
HPDrainRate:3
CircleSize:2.5
OverallDifficulty:2
ApproachRate:3
SliderMultiplier:0.8
SliderTickRate:1

[Events]
//Background and Video events
0,0,"BG.jpg",0,0
Video,30,"VDO.flv"
//Break Periods
//Storyboard Layer 0 (Background)
//Storyboard Layer 1 (Fail)
//Storyboard Layer 2 (Pass)
//Storyboard Layer 3 (Foreground)
//Storyboard Sound Samples

[TimingPoints]
621,344.827586206897,4,2,1,70,1,0
793,-100,4,2,1,60,0,0
1310,344.827586206897,4,2,1,60,1,0
1654,-100,4,2,3,60,0,0
1999,-100,4,2,1,60,0,0
5792,-100,4,2,3,60,0,0
7172,-100,4,2,1,60,0,0
9586,-100,4,2,2,70,0,0
11999,-100,4,2,2,70,0,0
23379,-100,4,2,2,60,0,0
33552,-100,4,2,1,60,0,0
34069,-100,4,2,2,60,0,0
44586,-100,4,2,1,60,0,0
45103,-100,4,2,2,60,0,0
55793,-100,4,2,1,60,0,0
57861,-100,4,2,2,70,0,1
79241,-100,4,2,1,70,0,1
79586,-100,4,2,2,70,0,1
80965,-100,4,2,1,70,0,1
81138,-100,4,2,2,70,0,1
82000,-100,4,2,1,70,0,1
82345,-100,4,2,2,70,0,1
84586,-100,4,2,1,70,0,1
85103,-100,4,2,2,70,0,0
87172,-100,4,2,2,60,0,0
87689,-100,4,2,2,50,0,0
88207,-100,4,2,2,40,0,0
88724,-100,4,2,2,30,0,0
89241,-100,4,2,2,20,0,0
89758,-100,4,2,2,10,0,0
90103,-100,4,2,2,5,0,0

[Colours]
Combo1 : 255,111,255
Combo2 : 255,40,40
Combo3 : 255,218,104
Combo4 : 128,255,128
Combo5 : 36,135,255

[HitObjects]
8,212,1310,6,0,P|20:156|132:108,1,160,4|0,0:0|0:0,0:0:0:0:
196,120,2344,2,0,P|236:196|212:288,1,160,2|2,0:0|0:0,0:0:0:0:
264,352,3378,6,0,P|300:364|364:348,1,80,0|2,0:0|0:0,0:0:0:0:
492,240,4413,2,0,P|456:228|392:244,1,80,2|0,0:0|0:0,0:0:0:0:
328,272,5103,1,2,0:0:0:0:
284,188,5447,2,0,P|272:123|292:12,2,160
328,272,7172,5,10,0:0:0:0:
388,88,7861,1,10,0:0:0:0:
208,24,8551,1,10,0:0:0:0:
120,196,9241,2,0,L|132:308,1,80,10|4,0:0|0:0,0:0:0:0:
172,360,9930,1,8,0:0:0:0:
276,264,10447,2,0,P|336:256|368:260,1,80,2|4,0:0|0:0,0:0:0:0:
496,280,11310,2,0,L|480:92,1,160,0|8,0:0|0:0,0:0:0:0:
408,60,12344,6,0,P|344:76|264:60,1,120,8|8,0:0|0:0,0:0:0:0:
108,132,13551,2,0,P|173:126|250:154,1,120,4|8,0:0|0:0,0:0:0:0:
296,208,14413,2,0,P|256:228|196:232,1,80,2|8,0:0|0:0,0:0:0:0:
148,296,15103,6,0,P|196:320|284:308,1,120,8|8,0:0|0:0,0:0:0:0:
400,188,16310,2,0,L|384:16,2,160,4|4|4,0:0|0:0|0:0,0:0:0:0:
340,320,18206,6,0,P|256:348|236:248,1,200,8|4,0:0|0:0,0:0:0:0:
328,100,19758,2,0,P|408:80|488:96,2,160,4|4|4,0:0|0:0|0:0,0:0:0:0:
152,180,21827,2,0,P|137:113|149:38,1,120,4|8,0:0|0:0,0:0:0:0:
308,264,23378,6,0,P|267:309|152:336,1,160,4|0,0:0|0:0,0:0:0:0:
80,324,24413,1,8,0:0:0:0:
16,252,24758,2,0,P|12:188|16:148,1,80,0|8,0:0|0:0,0:0:0:0:
88,112,25447,2,0,P|101:149|103:189,1,80,0|8,0:0|0:0,0:0:0:0:
196,220,26137,6,0,P|200:146|163:38,2,160
160,308,27861,1,8,0:0:0:0:
244,352,28206,2,0,P|288:358|348:354,1,80,8|8,0:0|0:0,0:0:0:0:
416,336,28896,6,0,P|436:264|424:164,2,160,4|0|0,0:0|0:0|0:0,0:0:0:0:
344,272,30620,2,0,L|336:184,1,80,8|8,0:0|0:0,0:0:0:0:
272,12,31654,6,0,L|264:156,1,120,4|4,0:0|0:0,0:0:0:0:
252,228,32516,1,0,0:0:0:0:
172,176,32861,2,0,P|108:160|36:160,1,120,4|8,0:0|0:0,0:0:0:0:
20,348,34068,1,8,0:0:0:0:
104,304,34413,6,0,P|176:288|288:300,1,160,4|0,0:0|0:0,0:0:0:0:
344,344,35447,1,8,0:0:0:0:
424,292,35792,2,0,P|412:224|420:120,1,160
452,44,36827,1,8,0:0:0:0:
360,12,37172,6,0,L|256:24,1,80,0|8,0:0|0:0,0:0:0:0:
200,72,37861,2,0,P|220:136|220:208,1,120,0|4,0:0|0:0,0:0:0:0:
72,308,39068,2,0,P|52:244|52:172,1,120,4|8,0:0|0:0,0:0:0:0:
92,104,39930,6,0,L|180:112,1,80,4|8,0:0|0:0,0:0:0:0:
248,172,40620,2,0,P|248:224|240:272,2,80,8|8|8,0:0|0:0|0:0,0:0:0:0:
280,80,41654,1,8,0:0:0:0:
360,28,41999,2,0,P|416:28|452:36,1,80,8|8,0:0|0:0,0:0:0:0:
504,104,42689,6,0,L|496:252,1,120,4|4,0:0|0:0,0:0:0:0:
348,344,43896,2,0,L|340:196,1,120,4|8,0:0|0:0,0:0:0:0:
284,148,44758,2,0,L|292:36,1,80,8|8,0:0|0:0,0:0:0:0:
208,16,45447,6,0,P|184:80|76:108,1,160,4|0,0:0|0:0,0:0:0:0:
8,92,46482,2,0,L|16:272,1,160,8|8,0:0|0:0,0:0:0:0:
56,340,47516,2,0,P|112:352|160:352,1,80,0|8,0:0|0:0,0:0:0:0:
196,280,48206,2,0,P|204:200|188:96,2,160
372,356,50275,2,0,L|468:348,1,80,0|8,0:0|0:0,0:0:0:0:
472,256,50965,6,0,B|388:220|312:244|312:244|272:220|224:216,1,240,4|8,0:0|0:0,0:0:0:0:
156,264,52344,2,0,L|56:276,2,80,0|8|0,0:0|0:0|0:0,0:0:0:0:
241,218,53378,1,8,0:0:0:0:
172,152,53723,2,0,L|0:140,2,160
336,52,55792,2,0,L|508:40,2,160,8|4|0,0:0|0:0|0:0,0:0:0:0:
212,196,57861,6,0,P|124:188|84:108,1,160,4|0,0:0|0:0,0:0:0:0:
76,36,58896,2,0,P|148:20|248:24,2,160,8|8|8,0:0|0:0|0:0,0:0:0:0:
0,96,60620,2,0,L|8:192,1,80,0|8,0:0|0:0,0:0:0:0:
44,264,61310,6,0,P|112:280|184:268,1,120,0|4,0:0|0:0,0:0:0:0:
260,168,62344,2,0,P|320:156|364:160,1,80,8|0,0:0|0:0,0:0:0:0:
420,208,63034,6,0,L|404:404,2,160,0|8|8,0:0|0:0|0:0,0:0:0:0:
368,128,64758,2,0,L|360:36,2,80,0|8|0,0:0|0:0|0:0,0:0:0:0:
324,216,65792,2,0,P|268:248|172:244,1,160,8|8,0:0|0:0,0:0:0:0:
128,160,66827,6,0,P|116:96|120:12,2,120,0|4|8,0:0|0:0|0:0,0:0:0:0:
80,244,68206,2,0,L|72:380,2,120,0|4|8,0:0|0:0|0:0,0:0:0:0:
128,160,69585,1,0,0:0:0:0:
248,240,70103,6,0,P|308:260|376:264,1,120,4|8,0:0|0:0,0:0:0:0:
456,240,70965,2,0,P|470:151|444:68,1,160
376,28,71999,2,0,L|268:40,1,80,8|0,0:0|0:0,0:0:0:0:
220,96,72689,1,8,0:0:0:0:
132,60,73034,2,0,L|40:52,2,80,0|8|0,0:0|0:0|0:0,0:0:0:0:
248,144,74241,6,0,P|280:228|252:364,1,200,4|0,0:0|0:0,0:0:0:0:
124,364,75620,2,0,P|96:308|104:224,1,120,4|8,0:0|0:0,0:0:0:0:
156,176,76482,2,0,P|160:140|148:76,1,80,8|8,0:0|0:0,0:0:0:0:
100,16,77172,6,0,P|160:36|240:28,1,120,4|0,0:0|0:0,0:0:0:0:
308,12,78034,1,0,0:0:0:0:
380,72,78378,2,0,P|386:131|378:190,1,120,4|8,0:0|0:0,0:0:0:0:
328,272,79241,1,8,0:0:0:0:
148,340,79930,6,0,L|8:352,2,120,4|4|8,0:0|0:0|0:0,0:0:0:0:
328,272,81654,2,0,L|420:280,2,80,0|8|8,0:0|0:0|0:0,0:0:0:0:
240,236,82689,6,0,P|224:176|236:96,1,120,4|0,0:0|0:0,0:0:0:0:
272,32,83551,1,0,0:0:0:0:
352,84,83896,2,0,B|396:109|453:108|453:108|424:160|432:224,1,200,4|0,0:0|0:0,0:0:0:0:
448,292,85103,1,8,0:0:0:0:
368,340,85447,2,0,L|224:324,2,120,8|8|8,0:0|0:0|0:0,0:0:0:0:
256,192,86654,12,0,90103,0:0:0:0:
