osu file format v5

[General]
AudioFilename: 17 - Here I Come (Innis).mp3
AudioLeadIn: 0
PreviewTime: -1
Countdown: 1
SampleSet: Normal
StackLeniency: 0.7
Mode: 0
LetterboxInBreaks: 1

[Metadata]
Title:Here I Come
Artist:Chikayo Fukuda
Creator:Zatoichi
Version:Haze of Treason
Source:
Tags:

[Difficulty]
HPDrainRate:6
CircleSize:5
OverallDifficulty:4
SliderMultiplier:1.3
SliderTickRate:1

[Events]
//Background and Video events
0,0,"Grabbed Frame 4.png"
//Break Periods
2,54301,79273
2,139872,151352
//Storyboard Layer 0 (Background)
//Storyboard Layer 1 (Failing)
//Storyboard Layer 2 (Passing)
//Storyboard Layer 3 (Foreground)
//Storyboard Sound Samples
//Background Colour Transformations
3,100,163,162,255

[TimingPoints]
17173,461.538461538462,4,2,0,80,1,0
39331,-100,4,1,2,40,0,0
42101,-100,4,1,2,60,0,0
43024,-100,4,1,2,40,0,0
45793,-100,4,1,2,60,0,0
46716,-100,4,1,2,80,0,0
50408,-100,4,1,0,60,0,0
54101,-100,4,1,2,60,0,0
54788,770.712909441233,4,1,0,100,1,0
67127,750,4,1,0,100,1,0
80596,461.538461538462,4,2,0,80,1,0
124903,-100,4,1,2,40,0,0
127672,-100,4,1,2,60,0,0
128596,-100,4,1,2,40,0,0
131365,-100,4,1,2,60,0,0
132288,-100,4,1,2,80,0,0
135980,-100,4,1,0,60,0,0
139672,-100,4,1,2,60,0,0
152672,750,4,1,2,60,1,0
166172,461.538461538462,4,1,0,60,1,0

[Colours]
Combo1 : 32,32,32
Combo2 : 66,165,160
Combo3 : 39,97,94

[HitObjects]
288,352,17173,6,0,B|496:352,2,195,0|0|0
224,224,19019,2,0,B|16:224,2,195,0|0|0
336,160,20865,5,0
320,96,21096,1,2
272,144,21326,1,0
256,80,21557,1,2
256,144,21788,1,2
256,272,22249,1,4
176,160,22711,5,0
192,96,22942,1,2
240,144,23173,1,0
256,80,23403,1,2
256,144,23634,1,2
256,272,24096,1,4
368,336,24557,6,0,B|416:240|367:145,2,195,0|0|8
144,336,26403,2,0,B|96:240|145:145,2,195,0|0|8
224,224,28249,5,0
160,192,28480,1,2
160,128,28711,1,0
224,96,28942,1,2
224,160,29173,1,2
256,32,29634,1,4
288,224,30096,5,0
352,192,30326,1,2
352,128,30557,1,0
288,96,30788,1,2
288,160,31019,1,2
256,32,31480,1,4
352,128,31942,6,0,B|256:96,2,97.5,2|2|0
368,192,32865,2,0,B|448:128,2,97.5,2|2|0
304,176,33788,2,0,B|320:288,2,97.5,2|2|0
352,128,34711,1,0
256,32,35173,1,8
160,128,35634,6,0,B|256:96,2,97.5,0|8|0
144,192,36557,2,0,B|64:128,2,97.5,0|8|0
208,176,37480,2,0,B|192:288,2,97.5,0|8|0
160,128,38403,1,4
256,32,38865,1,4
256,160,39326,5,4
320,176,39557,1,0
384,192,39788,2,4,B|384:112,2,65,0|0|4
384,256,40480,1,0
352,320,40711,2,0,L|344:360|304:352,1,65
288,304,41173,1,4
320,240,41403,2,0,L|256:224,2,65
384,256,42096,1,4
384,128,42557,1,4
256,160,43019,5,4
192,176,43249,1,0
128,192,43480,2,4,B|128:112,2,65,0|0|4
128,256,44173,1,0
160,320,44403,2,0,L|168:360|208:352,1,65
224,304,44865,1,4
192,240,45096,2,0,L|256:224,2,65
128,256,45788,1,4
128,128,46249,1,4
256,192,46711,12,4,48096
256,192,48557,12,4,49942
64,224,50403,5,0
128,224,50634,1,0
192,224,50865,1,2
224,96,51326,1,0
256,32,51557,1,0
288,96,51788,1,2
320,224,52249,1,0
384,224,52480,1,0
448,224,52711,1,2
386,338,53173,2,2,B|114:338,1,260,2|0
160,224,80596,6,0,C|176:192|208:176|224:144|252:121,1,130,2|8
256,64,81288,1,0
264,96,81403,1,8
271,129,81519,2,0,C|288:144|304:176|336:192|352:224,1,130,2|8
320,288,82211,1,0
256,320,82442,1,2
256,320,82557,1,0
256,320,82672,1,8
256,256,82903,1,2
192,288,83134,1,8
192,288,83249,1,0
192,288,83365,2,0,C|144:264|165:216,2,97.5,2|8|0
160,224,84288,6,0,C|145:186|193:162,2,97.5,8|2|8
224,223,85211,2,0,C|240:185|192:161,1,97.5,2|8
191,160,85672,1,8
224,96,85903,1,2
160,96,86134,1,2
192,32,86365,1,8
256,32,86596,1,8
256,32,86711,1,2
256,32,86826,5,0
320,32,87057,1,8
352,96,87288,1,2
352,96,87403,1,0
352,96,87519,1,2
288,96,87749,1,8
320,160,87980,1,0
288,224,88211,2,8,C|320:160,2,65
320,288,88903,1,0
352,224,89134,2,8,C|320:160,1,65
384,128,89596,5,0
416,192,89826,2,8,C|352:224,1,65
320,288,90288,2,8,C|352:224,2,65
256,256,90980,1,0
256,288,91096,1,8
256,320,91211,1,8
192,288,91442,1,0
160,224,91672,6,0,C|176:192|203:175,1,65,8|2
256,160,92134,1,8
311,176,92365,2,0,C|336:192|352:224,2,65,2|2|8
304,112,93057,1,8
208,112,93288,1,2
256,192,93519,12,10,94903
80,160,95134,5,0
80,160,95365,2,0,C|96:128|120:112|144:128|160:160,1,130,0|0
192,96,96057,1,0
192,96,96172,1,0
192,96,96288,1,4
224,160,96519,1,0
256,224,96749,1,4
288,160,96980,1,0
320,96,97211,1,4
320,96,97326,1,0
320,96,97442,1,0
352,159,97672,2,0,C|368:128|392:112|416:128|432:160,1,130,0|0
432,160,98364,5,0
448,224,98596,1,0
392,256,98826,1,0
336,224,99057,1,0
288,272,99288,1,0
256,192,99519,1,0
224,272,99749,1,0
176,224,99980,1,0
120,256,100211,1,0
64,224,100442,1,0
80,160,100672,1,0
160,160,100903,2,0,C|192:176|208:144|240:128|271:102,1,130
256,114,101596,1,0
352,160,101826,2,0,C|320:176|304:144|272:128|241:102,1,130
224,32,102749,6,0,B|16:32,2,195,0|0|0
288,160,104595,2,0,B|496:160,2,195,0|0|0
176,224,106441,5,0
192,288,106672,1,2
240,240,106902,1,0
256,304,107133,1,2
256,240,107364,1,2
256,112,107825,1,4
336,224,108287,5,0
320,288,108518,1,2
272,240,108749,1,0
256,304,108979,1,2
256,240,109210,1,2
256,112,109672,1,4
144,48,110133,6,0,B|96:144|145:239,2,195,0|0|8
368,48,111979,2,0,B|416:144|367:239,2,195,0|0|8
288,160,113825,5,0
352,192,114056,1,2
352,256,114287,1,0
288,288,114518,1,2
288,224,114749,1,2
256,352,115210,1,4
224,160,115672,5,0
160,192,115902,1,2
160,256,116133,1,0
224,288,116364,1,2
224,224,116595,1,2
256,352,117056,1,4
160,256,117518,6,0,B|256:288,2,97.5,2|2|0
144,192,118441,2,0,B|64:256,2,97.5,2|2|0
208,208,119364,2,0,B|192:96,2,97.5,2|2|0
160,256,120287,1,0
256,352,120749,1,8
352,256,121210,6,0,B|256:288,2,97.5,0|8|0
368,192,122133,2,0,B|448:256,2,97.5,0|8|0
304,208,123056,2,0,B|320:96,2,97.5,0|8|0
352,256,123979,1,4
256,352,124441,1,4
256,224,124902,5,4
192,208,125133,1,0
128,192,125364,2,4,B|128:272,2,65,0|0|4
128,128,126056,1,0
160,64,126287,2,0,L|168:24|208:32,1,65
224,80,126749,1,4
192,144,126979,2,0,L|256:160,2,65
128,128,127672,1,4
128,256,128133,1,4
256,224,128595,5,4
320,208,128825,1,0
384,192,129056,2,4,B|384:272,2,65,0|0|4
384,128,129749,1,0
352,64,129979,2,0,L|344:24|304:32,1,65
288,80,130441,1,4
320,144,130672,2,0,L|256:160,2,65
384,128,131364,1,4
384,256,131825,1,4
256,192,132287,12,4,133672
256,192,134133,12,4,135518
448,160,135979,5,0
384,160,136210,1,0
320,160,136441,1,2
288,288,136902,1,0
256,352,137133,1,0
224,288,137364,1,2
192,160,137825,1,0
128,160,138056,1,0
64,160,138287,1,2
126,46,138749,2,2,B|398:46,1,260,2|0
128,352,152672,5,4
192,352,152922,1,0
192,352,153047,1,8
256,288,153422,1,2
320,352,153797,1,0
336,320,153922,1,8
368,320,154047,1,8
384,352,154172,5,4
432,304,154422,1,0
416,272,154547,1,2
352,256,154797,1,0
352,224,154922,1,4
288,224,155172,1,0
224,224,155422,1,0
160,224,155672,5,4
192,160,155922,1,0
192,160,156047,1,8
176,96,156297,1,8
208,96,156422,1,2
256,64,156672,1,0
256,128,156922,1,8
288,144,157047,1,8
320,160,157172,1,2
352,176,157297,1,8
384,192,157422,1,2
352,208,157547,1,8
320,224,157672,1,2
288,240,157797,1,8
256,256,157922,1,4
176,192,158297,1,8
176,192,158422,1,0
176,192,158547,1,8
176,192,158672,5,0
128,240,158922,1,0
128,240,159047,1,2
128,336,159422,1,4
224,320,159797,1,0
224,288,159922,1,8
224,256,160047,1,0
224,224,160172,5,8
288,224,160422,1,0
288,224,160547,1,2
288,320,160922,1,4
344,288,161172,5,0
384,336,161422,1,0
440,304,161672,1,2
400,256,161922,1,8
360,208,162172,1,2
304,240,162422,1,4
248,272,162672,1,8
248,208,162922,1,8
304,176,163172,1,2
304,112,163422,1,8
248,144,163672,1,2
192,176,163922,1,8
192,240,164172,1,2
136,208,164422,1,2
256,192,164672,12,0,165797
352,160,166172,5,0
256,192,166402,1,0
256,192,166518,1,0
160,160,166748,1,0
160,160,166864,1,0
224,80,167095,1,0
256,32,167210,1,0
288,80,167325,1,0
304,176,167556,1,0
208,176,167787,1,0
128,224,168018,5,0
136,272,168133,1,0
168,312,168248,1,0
208,344,168364,1,0
256,360,168479,1,0
304,344,168595,1,0
344,312,168710,1,0
376,272,168825,1,0
384,224,168941,1,0
288,224,169172,1,2
256,320,169402,1,0
224,224,169633,1,2
304,288,169864,5,0
336,192,170095,2,0,C|352:160|336:128,1,65
304,96,170441,1,0
256,64,170556,1,0
208,96,170672,1,0
172,134,170787,2,0,C|160:160|176:192,1,65
208,288,171248,1,0
256,208,171479,1,0
224,112,171710,6,0,C|256:96|288:112,1,65
208,176,172172,1,0
288,224,172402,2,0,C|256:240|224:224,1,65
304,176,172864,1,0
256,256,173095,2,0,C|256:336,2,65
288,352,173787,5,0
384,272,174018,1,0
480,352,174248,1,0
384,272,174479,1,0
320,160,174710,1,0
448,160,174941,1,0
384,48,175172,5,0
320,48,175287,1,0
256,48,175402,1,0
128,48,175633,1,0
64,160,175864,1,0
128,160,175979,1,0
192,160,176095,1,0
128,272,176325,1,0
32,352,176556,1,0
128,272,176787,1,0
224,352,177018,1,0
256,224,177248,1,0
256,96,177479,5,0
192,208,177710,2,0,C|256:224|320:208,1,130
208,272,178402,2,0,C|256:320,1,65
304,272,178748,1,0
256,320,178864,1,0
256,256,178979,1,0
256,192,179095,5,0
384,192,179325,1,0
320,80,179556,1,0
192,80,179787,1,0
304,144,180018,1,0
256,32,180248,1,0
208,144,180479,1,0
256,256,180710,1,0
128,192,180941,1,0
