osu file format v5

[General]
AudioFilename: ichigo complete.mp3
AudioLeadIn: 0
PreviewTime: -1
Countdown: 1
SampleSet: Soft
StackLeniency: 0.7
Mode: 0
LetterboxInBreaks: 1

[Metadata]
Title:Ichigo Complete
Artist:Chika,Miu,Matsuri,Ana
Creator:youngster
Version:Normal
Source:Ichigo Mashimaro
Tags:anime

[Difficulty]
HPDrainRate:3
CircleSize:4
OverallDifficulty:5
SliderMultiplier:1.4
SliderTickRate:1

[Events]
//Background and Video events
1,0,"ichigo complete.avi"
0,0,"IchigoMashimaro018.jpg"
//Break Periods
2,7736,12711
2,43173,48711
//Storyboard Layer 0 (Background)
//Storyboard Layer 1 (Failing)
//Storyboard Layer 2 (Passing)
//Storyboard Layer 3 (Foreground)
//Storyboard Sound Samples
//Background Colour Transformations
3,100,163,162,255

[TimingPoints]
129,375,4,2,0,100,1

[HitObjects]
176,56,1910,1,0
264,120,2285,1,0
320,160,2473,1,0
416,216,2848,2,0,B|392:288|320:312,1,140,0|8
208,312,3598,5,0
136,224,3973,1,8
72,136,4348,2,0,B|176:136,1,70,0|8
216,112,5286,5,0
328,112,5661,1,8
408,192,6035,1,0
408,192,6223,2,0,B|296:312,1,140,0|8
200,296,6973,1,0
224,248,7160,1,0
256,144,7535,1,10
144,88,13910,5,0
256,88,14285,1,8
368,88,14660,1,0
440,168,15035,1,8
440,168,15222,1,0
368,192,15597,5,0
328,192,15785,1,0
296,192,15972,1,0
256,128,16347,1,0
232,104,16535,1,0
144,96,16910,6,0,B|88:160|152:232,1,140,0|8
184,256,17472,1,0
256,336,17847,1,8
256,280,18222,5,0
256,248,18410,1,0
256,216,18597,1,0
256,184,18785,1,8
256,152,18972,1,8
256,88,19347,1,8
256,88,19535,1,10
416,48,20285,5,8
328,120,20660,1,0
416,192,21035,1,8
376,224,21222,1,0
192,248,21972,6,0,B|104:248|88:152,1,140,8|0
192,32,22910,1,8
256,120,23285,1,8
176,192,24973,5,8
256,192,25348,1,8
336,192,25723,1,8
96,48,26285,5,8
184,120,26660,1,0
96,192,27035,1,8
136,224,27222,1,0
320,248,27972,6,0,B|408:248|424:152,1,140,8|0
320,32,28910,1,8
256,120,29285,1,8
256,232,29660,1,0
256,232,29847,1,0
256,232,30035,1,0
256,232,30222,1,0
336,192,30973,5,10
256,112,31348,1,10
216,152,31535,1,10
176,192,31723,1,10
416,48,32285,5,8
328,120,32660,1,0
416,192,33035,1,8
376,224,33222,1,0
192,248,33972,6,0,B|104:248|88:152,1,140,8|0
192,32,34910,1,8
256,120,35285,1,8
176,192,36973,5,8
216,232,37160,1,8
256,192,37348,1,8
296,232,37535,1,8
336,192,37723,1,8
96,48,38285,5,8
184,120,38660,1,0
96,192,39035,1,8
136,224,39222,1,0
320,248,39972,6,0,B|408:248|424:152,1,140,8|0
320,32,40910,1,8
256,120,41285,1,8
184,208,41660,1,0
352,176,42222,2,0,B|352:224,2,35
288,176,42597,2,0,B|216:176,2,70,0|0|12
56,72,49910,5,0
120,160,50285,1,8
192,72,50660,1,0
264,160,51035,1,8
328,72,51410,5,0
400,160,51785,1,8
328,248,52160,1,0
272,248,52347,1,0
216,248,52535,1,8
120,184,52910,5,2
120,72,53285,1,2
232,72,53660,2,0,B|272:72|288:120,2,70,0|0|8
200,136,54222,5,2
288,200,54597,1,10
456,200,55160,2,0,B|456:256|408:272,2,70,0|0|8
256,120,57222,5,8
312,160,57409,1,8
312,224,57597,1,8
256,264,57784,1,8
200,224,57972,1,8
120,160,58347,1,6
328,72,58910,6,0,B|416:72|432:168,3,140,0|8|0|8
264,192,60597,1,0
208,192,60784,1,0
136,280,61160,2,0,B|48:264|40:152,1,140
256,120,62285,5,0
368,120,62660,2,0,B|368:208|272:232,1,140
232,224,63222,2,0,B|157:207|157:119,2,140
256,176,64160,1,0
256,88,64910,5,0
352,144,65285,1,0
448,192,65660,2,0,B|448:272,2,70
256,312,66410,5,0
160,256,66785,1,0
64,192,67160,1,0
64,72,67722,5,8
112,40,67910,1,8
160,72,68097,1,8
184,168,68472,5,8
224,200,68660,1,8
272,168,68847,1,8
320,264,69222,2,0,B|400:264|424:168,1,140,0|8
424,128,69785,2,0,B|424:48|328:24,1,140,0|8
256,104,70535,5,14
184,72,70910,6,0,B|96:72|80:168,3,140,0|8|0|8
248,192,72597,1,0
304,192,72784,1,0
360,192,72972,2,0,B|448:176|456:64,1,140,8|0
448,40,73535,1,8
256,120,74285,5,8
144,120,74660,2,0,B|144:208|240:232,1,140,0|8
279,224,75222,2,0,B|355:207|355:119,2,140,0|8|0
256,88,76347,1,8
256,88,76535,1,8
256,88,76910,5,0
160,144,77285,1,8
64,208,77660,2,0,B|64:288,2,70,0|0|8
256,312,78410,5,0
352,256,78785,1,8
448,200,79160,2,0,B|448:130,2,70,0|0|8
256,72,79910,2,0,B|176:72|152:160,1,140,0|8
256,192,80660,5,0
224,232,81035,1,0
192,264,81222,2,0,B|112:264|88:168,1,140
88,120,81972,2,0,B|88:48,3,70
176,56,82910,5,10
256,128,83285,1,10
336,200,83660,1,10
112,192,84222,1,10
192,264,84597,1,10
280,336,84972,1,10
280,336,85159,1,10
448,336,85910,5,10
448,224,86285,2,10,B|448:144,2,70
112,224,87222,2,10,B|112:144,2,70
208,152,87972,1,10
256,112,88160,1,10
