osu file format v14

[General]
AudioFilename: game size.mp3
AudioLeadIn: 0
PreviewTime: 46912
Countdown: 0
SampleSet: Normal
StackLeniency: 0.7
Mode: 1
LetterboxInBreaks: 0
WidescreenStoryboard: 0

[Editor]
DistanceSpacing: 2
BeatDivisor: 1
GridSize: 32
TimelineZoom: 1.099999

[Metadata]
Title:Koiseyo Otome! (Game Size)
TitleUnicode:恋せよ乙女! (Game Size)
Artist:Chihiro Yonekura
ArtistUnicode:米倉千尋
Creator:JUDYDANNY
Version:Muzukashii
Source:サノバウィッチ
Tags:Taiko SABBAT OF THE WITCH Riryka Famishin 井ノ原 智 Inohara Satoru Angel Note yuzu soft ゆずソフト visual novel ビジュアルノベル eroge opening オリジナルサウンドトラック Original Soundtrack
BeatmapID:628267
BeatmapSetID:277223

[Difficulty]
HPDrainRate:6
CircleSize:5
OverallDifficulty:5
ApproachRate:5
SliderMultiplier:1.4
SliderTickRate:1

[Events]
//Background and Video events
0,0,"bg4.jpg",0,25
//Break Periods
//Storyboard Layer 0 (Background)
//Storyboard Layer 1 (Fail)
//Storyboard Layer 2 (Pass)
//Storyboard Layer 3 (Foreground)
//Storyboard Sound Samples

[TimingPoints]
933,260.869565217391,4,1,0,100,1,0
1976,272.727272727273,4,1,0,100,1,0
12885,272.727272727273,4,1,0,100,1,8
12890,272.727272727273,4,1,0,100,1,0
47799,-100,4,1,0,100,0,1
73972,272.727272727273,4,1,0,100,1,0

[HitObjects]
256,192,1976,5,0,0:0:0:0:
256,192,2112,1,0,0:0:0:0:
256,192,2248,1,2,0:0:0:0:
256,192,2385,1,2,0:0:0:0:
256,192,2657,1,2,0:0:0:0:
224,160,2930,1,0,0:0:0:0:
224,160,3203,1,0,0:0:0:0:
224,160,3339,1,2,0:0:0:0:
224,160,3612,1,2,0:0:0:0:
224,160,3885,1,0,0:0:0:0:
224,160,4157,1,0,0:0:0:0:
224,128,4294,1,0,0:0:0:0:
224,128,4430,1,2,0:0:0:0:
224,128,4566,1,2,0:0:0:0:
224,128,4839,1,2,0:0:0:0:
224,128,5112,1,0,0:0:0:0:
224,128,5385,1,0,0:0:0:0:
224,128,5521,1,2,0:0:0:0:
224,128,5794,1,2,0:0:0:0:
224,128,6339,5,0,0:0:0:0:
224,128,6476,1,0,0:0:0:0:
224,128,6612,1,2,0:0:0:0:
224,128,6748,1,2,0:0:0:0:
224,128,7021,1,2,0:0:0:0:
224,128,7294,1,0,0:0:0:0:
224,128,7566,1,0,0:0:0:0:
224,128,7703,1,2,0:0:0:0:
224,96,7976,1,0,0:0:0:0:
224,128,8248,1,8,0:0:0:0:
224,128,8521,1,2,0:0:0:0:
224,128,8794,1,0,0:0:0:0:
224,128,9066,1,2,0:0:0:0:
224,128,9339,1,0,0:0:0:0:
224,128,9476,1,2,0:0:0:0:
195,31,9885,1,0,0:0:0:0:
195,31,10157,1,2,0:0:0:0:
195,31,10294,1,2,0:0:0:0:
195,31,10430,1,0,0:0:0:0:
192,96,10703,5,4,0:0:0:0:
192,96,11794,1,4,0:0:0:0:
192,96,12066,1,4,0:0:0:0:
192,96,12339,1,6,0:0:0:0:
192,96,12612,1,6,0:0:0:0:
192,96,12890,5,0,0:0:0:0:
192,96,13162,1,2,0:0:0:0:
192,96,13435,1,0,0:0:0:0:
192,96,13571,1,0,0:0:0:0:
192,96,13708,1,2,0:0:0:0:
192,96,13980,1,0,0:0:0:0:
192,96,14253,1,2,0:0:0:0:
192,96,14390,1,0,0:0:0:0:
192,96,14799,1,2,0:0:0:0:
192,96,15071,1,0,0:0:0:0:
192,96,15344,1,2,0:0:0:0:
192,96,15617,1,0,0:0:0:0:
192,96,15890,1,2,0:0:0:0:
224,64,16026,1,0,0:0:0:0:
192,96,16299,1,0,0:0:0:0:
192,96,16435,1,2,0:0:0:0:
192,96,16708,1,2,0:0:0:0:
192,96,17253,1,0,0:0:0:0:
192,96,17526,1,2,0:0:0:0:
192,96,17799,1,0,0:0:0:0:
192,96,17935,1,0,0:0:0:0:
192,96,18071,1,2,0:0:0:0:
192,96,18344,1,0,0:0:0:0:
192,96,18617,1,2,0:0:0:0:
192,96,18753,1,0,0:0:0:0:
192,96,19162,1,2,0:0:0:0:
192,96,19435,1,4,0:0:0:0:
192,96,19980,1,4,0:0:0:0:
192,96,20526,1,6,0:0:0:0:
192,96,21071,1,6,0:0:0:0:
192,96,21617,5,0,0:0:0:0:
192,128,21890,1,2,0:0:0:0:
192,96,22162,1,0,0:0:0:0:
192,96,22299,1,0,0:0:0:0:
192,96,22435,1,2,0:0:0:0:
192,96,22708,1,0,0:0:0:0:
192,96,22980,1,2,0:0:0:0:
192,96,23117,1,0,0:0:0:0:
192,96,23526,1,2,0:0:0:0:
192,96,23799,1,0,0:0:0:0:
192,96,24071,1,2,0:0:0:0:
192,96,24344,1,0,0:0:0:0:
192,96,24617,1,2,0:0:0:0:
192,96,24753,1,0,0:0:0:0:
192,96,25026,1,2,0:0:0:0:
193,68,25299,1,0,0:0:0:0:
192,96,25435,1,2,0:0:0:0:
160,32,25708,1,2,0:0:0:0:
192,96,25980,1,0,0:0:0:0:
480,128,26253,1,2,0:0:0:0:
224,96,26526,1,0,0:0:0:0:
192,64,26662,1,0,0:0:0:0:
192,96,26799,1,2,0:0:0:0:
192,96,27071,1,0,0:0:0:0:
192,32,27344,1,2,0:0:0:0:
320,288,27480,1,2,0:0:0:0:
192,64,27617,1,0,0:0:0:0:
192,96,27890,1,2,0:0:0:0:
192,96,28162,1,4,0:0:0:0:
192,96,28571,1,6,0:0:0:0:
192,96,28980,1,4,0:0:0:0:
192,96,29253,1,6,0:0:0:0:
192,96,29526,1,6,0:0:0:0:
192,96,29799,1,4,0:0:0:0:
192,96,30071,1,4,0:0:0:0:
192,96,30344,5,6,0:0:0:0:
192,96,30890,1,2,0:0:0:0:
192,96,31026,1,2,0:0:0:0:
192,96,31299,1,0,0:0:0:0:
192,96,31708,1,0,0:0:0:0:
192,96,31980,1,2,0:0:0:0:
192,96,32253,1,2,0:0:0:0:
192,96,32526,1,0,0:0:0:0:
192,128,33071,1,6,0:0:0:0:
192,128,33617,1,2,0:0:0:0:
192,32,34162,1,2,0:0:0:0:
178,19,34435,1,0,0:0:0:0:
192,128,34708,1,2,0:0:0:0:
160,128,35253,1,2,0:0:0:0:
160,128,35526,1,0,0:0:0:0:
160,128,35662,1,2,0:0:0:0:
160,96,36071,1,0,0:0:0:0:
160,96,36344,1,2,0:0:0:0:
160,96,36617,1,2,0:0:0:0:
160,32,36753,1,2,0:0:0:0:
160,96,36890,5,0,0:0:0:0:
160,96,37162,1,2,0:0:0:0:
160,96,37435,1,0,0:0:0:0:
160,96,37708,1,2,0:0:0:0:
160,96,37844,1,0,0:0:0:0:
160,96,38253,1,2,0:0:0:0:
160,96,38526,1,0,0:0:0:0:
64,128,38662,1,0,0:0:0:0:
160,96,38799,1,2,0:0:0:0:
160,96,39071,1,0,0:0:0:0:
160,96,39344,1,2,0:0:0:0:
160,64,39617,1,0,0:0:0:0:
160,64,39890,1,2,0:0:0:0:
160,96,40026,1,0,0:0:0:0:
160,96,40435,1,2,0:0:0:0:
160,64,40708,1,2,0:0:0:0:
160,64,40844,1,2,0:0:0:0:
160,96,40980,1,0,0:0:0:0:
160,96,41253,5,4,0:0:0:0:
160,96,41526,1,2,0:0:0:0:
192,64,41799,1,0,0:0:0:0:
160,96,42071,1,2,0:0:0:0:
160,96,42344,1,0,0:0:0:0:
160,96,42617,1,2,0:0:0:0:
160,32,42753,1,2,0:0:0:0:
160,96,42890,1,0,0:0:0:0:
160,96,43162,1,2,0:0:0:0:
160,64,43435,5,4,0:0:0:0:
160,64,43844,1,4,0:0:0:0:
160,64,44253,1,4,0:0:0:0:
160,64,44662,1,4,0:0:0:0:
160,64,45071,1,6,0:0:0:0:
160,32,45344,1,4,0:0:0:0:
160,64,45617,1,6,0:0:0:0:
160,64,46026,1,4,0:0:0:0:
160,64,46435,1,4,0:0:0:0:
160,64,46708,1,6,0:0:0:0:
160,64,46844,1,6,0:0:0:0:
160,64,47799,5,4,0:0:0:0:
160,64,48071,1,2,0:0:0:0:
160,32,48344,1,0,0:0:0:0:
160,64,48480,1,0,0:0:0:0:
160,64,48617,1,2,0:0:0:0:
160,64,48890,1,0,0:0:0:0:
160,64,49162,1,2,0:0:0:0:
160,32,49299,1,2,0:0:0:0:
160,64,49435,1,0,0:0:0:0:
160,64,49708,1,2,0:0:0:0:
160,64,49980,1,0,0:0:0:0:
160,64,50117,1,0,0:0:0:0:
160,64,50253,1,2,0:0:0:0:
160,64,50390,1,2,0:0:0:0:
160,64,50526,1,0,0:0:0:0:
160,64,50799,1,2,0:0:0:0:
160,32,51071,1,0,0:0:0:0:
160,64,51344,1,2,0:0:0:0:
192,64,51480,1,2,0:0:0:0:
160,32,51617,1,0,0:0:0:0:
160,64,51753,1,0,0:0:0:0:
160,64,51890,1,2,0:0:0:0:
160,64,52162,5,0,0:0:0:0:
160,64,52435,1,2,0:0:0:0:
160,64,52708,1,0,0:0:0:0:
160,64,52844,1,0,0:0:0:0:
160,64,52980,1,2,0:0:0:0:
160,64,53253,1,0,0:0:0:0:
160,64,53526,1,2,0:0:0:0:
160,32,53799,1,0,0:0:0:0:
160,32,53935,1,0,0:0:0:0:
160,64,54071,1,2,0:0:0:0:
160,64,54344,1,0,0:0:0:0:
134,24,54617,1,2,0:0:0:0:
160,64,54753,1,2,0:0:0:0:
160,32,54890,1,0,0:0:0:0:
160,64,55162,1,2,0:0:0:0:
160,64,55435,1,4,0:0:0:0:
160,64,55844,1,4,0:0:0:0:
160,64,56526,5,12,0:0:0:0:
96,192,56799,1,8,0:0:0:0:
96,192,57071,1,0,0:0:0:0:
160,32,57208,1,0,0:0:0:0:
96,192,57344,1,8,0:0:0:0:
96,192,57617,1,0,0:0:0:0:
160,32,57890,1,8,0:0:0:0:
160,32,58026,1,0,0:0:0:0:
160,32,58162,1,2,0:0:0:0:
160,32,58435,1,2,0:0:0:0:
96,192,58708,1,0,0:0:0:0:
160,32,58844,1,0,0:0:0:0:
96,192,58980,1,8,0:0:0:0:
160,32,59117,1,0,0:0:0:0:
96,192,59253,1,8,0:0:0:0:
96,192,59526,1,0,0:0:0:0:
96,192,59799,1,8,0:0:0:0:
192,32,60071,1,0,0:0:0:0:
160,0,60208,1,0,0:0:0:0:
160,64,60344,1,8,0:0:0:0:
160,64,60617,1,8,0:0:0:0:
160,64,60890,5,0,0:0:0:0:
160,64,61162,1,2,0:0:0:0:
160,64,61299,1,2,0:0:0:0:
160,64,61435,1,0,0:0:0:0:
160,64,61708,1,2,0:0:0:0:
160,64,61980,1,0,0:0:0:0:
160,64,62253,1,2,0:0:0:0:
160,64,62390,1,2,0:0:0:0:
160,64,62526,1,0,0:0:0:0:
160,64,62799,1,2,0:0:0:0:
160,64,63071,1,0,0:0:0:0:
160,64,63344,1,2,0:0:0:0:
160,64,63617,1,0,0:0:0:0:
147,48,63753,1,0,0:0:0:0:
160,64,63890,1,2,0:0:0:0:
160,64,64162,1,4,0:0:0:0:
160,0,64708,1,2,0:0:0:0:
150,18,64980,1,2,0:0:0:0:
128,64,65253,5,0,0:0:0:0:
160,64,65799,1,6,0:0:0:0:
160,64,66071,1,2,0:0:0:0:
160,64,66208,1,0,0:0:0:0:
192,32,66617,1,0,0:0:0:0:
160,64,66890,1,2,0:0:0:0:
160,32,67162,1,2,0:0:0:0:
160,64,67435,1,0,0:0:0:0:
160,32,67708,1,0,0:0:0:0:
160,0,67844,1,0,0:0:0:0:
160,64,67980,1,2,0:0:0:0:
160,64,68253,1,0,0:0:0:0:
160,32,68526,1,6,0:0:0:0:
192,32,69071,1,2,0:0:0:0:
160,32,69344,1,0,0:0:0:0:
160,32,69617,5,0,0:0:0:0:
160,32,69890,1,2,0:0:0:0:
160,32,70162,1,0,0:0:0:0:
192,0,70299,1,0,0:0:0:0:
160,32,70435,1,2,0:0:0:0:
160,32,70708,1,6,0:0:0:0:
160,32,70980,1,6,0:0:0:0:
160,32,71253,1,6,0:0:0:0:
160,0,71799,1,4,0:0:0:0:
160,0,72071,1,6,0:0:0:0:
160,0,72344,1,4,0:0:0:0:
160,0,72617,1,4,0:0:0:0:
160,0,72753,1,6,0:0:0:0:
160,0,73026,1,6,0:0:0:0:
160,0,73162,1,4,0:0:0:0:
160,0,73435,1,6,0:0:0:0:
256,192,73972,5,0,0:0:0:0:
256,192,74108,1,0,0:0:0:0:
256,192,74244,1,2,0:0:0:0:
256,192,74381,1,2,0:0:0:0:
256,192,74653,1,2,0:0:0:0:
224,160,74926,1,0,0:0:0:0:
224,160,75199,1,0,0:0:0:0:
224,160,75335,1,2,0:0:0:0:
224,160,75608,1,2,0:0:0:0:
224,160,75881,1,0,0:0:0:0:
224,160,76153,1,0,0:0:0:0:
224,128,76290,1,0,0:0:0:0:
224,128,76426,1,2,0:0:0:0:
224,128,76562,1,2,0:0:0:0:
224,128,76835,1,2,0:0:0:0:
224,128,77108,1,0,0:0:0:0:
224,128,77381,1,0,0:0:0:0:
224,128,77517,1,2,0:0:0:0:
224,128,77790,1,2,0:0:0:0:
224,128,78335,5,0,0:0:0:0:
224,128,78472,1,0,0:0:0:0:
224,128,78608,1,2,0:0:0:0:
224,128,78744,1,2,0:0:0:0:
224,128,79017,1,2,0:0:0:0:
224,128,79290,1,0,0:0:0:0:
224,128,79562,1,0,0:0:0:0:
224,128,79699,1,2,0:0:0:0:
224,128,79972,1,0,0:0:0:0:
192,160,80244,1,2,0:0:0:0:
224,128,80517,1,2,0:0:0:0:
224,128,80790,1,0,0:0:0:0:
224,128,81062,1,2,0:0:0:0:
224,128,81335,1,0,0:0:0:0:
224,128,81472,1,2,0:0:0:0:
224,96,81744,1,2,0:0:0:0:
224,96,81881,1,0,0:0:0:0:
224,96,82153,1,2,0:0:0:0:
224,96,82290,1,2,0:0:0:0:
224,96,82426,1,0,0:0:0:0:
224,96,82699,5,4,0:0:0:0:
224,96,83108,1,4,0:0:0:0:
192,64,83517,1,6,0:0:0:0:
224,96,83653,1,6,0:0:0:0:
