osu file format v14

[General]
AudioFilename: game size.mp3
AudioLeadIn: 0
PreviewTime: 46912
Countdown: 0
SampleSet: Normal
StackLeniency: 0.7
Mode: 1
LetterboxInBreaks: 0
WidescreenStoryboard: 0

[Editor]
DistanceSpacing: 2
BeatDivisor: 1
GridSize: 32
TimelineZoom: 1.399999

[Metadata]
Title:Koiseyo Otome! (Game Size)
TitleUnicode:恋せよ乙女! (Game Size)
Artist:Chihiro Yonekura
ArtistUnicode:米倉千尋
Creator:JUDYDANNY
Version:Futsuu
Source:サノバウィッチ
Tags:Taiko SABBAT OF THE WITCH Riryka Famishin 井ノ原 智 Inohara Satoru Angel Note yuzu soft ゆずソフト visual novel ビジュアルノベル eroge opening オリジナルサウンドトラック Original Soundtrack
BeatmapID:629395
BeatmapSetID:277223

[Difficulty]
HPDrainRate:7
CircleSize:5
OverallDifficulty:4
ApproachRate:5
SliderMultiplier:1.2
SliderTickRate:1

[Events]
//Background and Video events
0,0,"bg4.jpg",0,25
//Break Periods
//Storyboard Layer 0 (Background)
//Storyboard Layer 1 (Fail)
//Storyboard Layer 2 (Pass)
//Storyboard Layer 3 (Foreground)
//Storyboard Sound Samples

[TimingPoints]
933,260.869565217391,4,1,0,100,1,0
933,-104.602510460251,4,1,0,100,0,0
1976,272.727272727273,4,1,0,100,1,0
12885,272.727272727273,4,1,0,100,1,8
12890,272.727272727273,4,1,0,100,1,0
47799,-100,4,1,0,100,0,1
73972,272.727272727273,4,1,0,100,1,0

[HitObjects]
256,192,1976,5,0,0:0:0:0:
152,134,2521,1,8,0:0:0:0:
192,32,3066,1,0,0:0:0:0:
192,96,3339,1,2,0:0:0:0:
224,160,3612,1,0,0:0:0:0:
224,160,4157,1,0,0:0:0:0:
192,96,4703,1,2,0:0:0:0:
192,64,5248,1,0,0:0:0:0:
224,64,5521,1,2,0:0:0:0:
192,64,5794,1,2,0:0:0:0:
224,128,6339,5,0,0:0:0:0:
192,64,6885,1,2,0:0:0:0:
224,96,7430,1,0,0:0:0:0:
224,64,7703,1,2,0:0:0:0:
224,96,7976,1,0,0:0:0:0:
224,64,8248,1,8,0:0:0:0:
224,64,8521,1,0,0:0:0:0:
224,128,9066,1,10,0:0:0:0:
197,25,9339,1,0,0:0:0:0:
224,128,9476,1,8,0:0:0:0:
224,96,10157,1,8,0:0:0:0:
192,96,10703,5,4,0:0:0:0:
192,96,11794,1,4,0:0:0:0:
192,96,12066,1,4,0:0:0:0:
192,96,12339,1,6,0:0:0:0:
192,96,12612,1,6,0:0:0:0:
192,96,12890,5,0,0:0:0:0:
192,96,13435,1,0,0:0:0:0:
192,96,13980,1,0,0:0:0:0:
180,42,14390,1,0,0:0:0:0:
192,96,14799,1,8,0:0:0:0:
192,96,15071,1,0,0:0:0:0:
158,93,15617,1,0,0:0:0:0:
192,96,16162,1,0,0:0:0:0:
192,96,17253,1,8,0:0:0:0:
192,96,17799,1,8,0:0:0:0:
192,64,18344,1,8,0:0:0:0:
192,96,18753,1,0,0:0:0:0:
192,96,19162,1,2,0:0:0:0:
192,96,19435,1,4,0:0:0:0:
192,96,19980,1,4,0:0:0:0:
192,96,20526,1,6,0:0:0:0:
192,96,21071,1,6,0:0:0:0:
192,96,21617,5,0,0:0:0:0:
192,96,22162,1,0,0:0:0:0:
192,96,22708,1,0,0:0:0:0:
179,19,23117,1,0,0:0:0:0:
192,96,23526,1,2,0:0:0:0:
192,96,23799,1,0,0:0:0:0:
0,224,24344,1,0,0:0:0:0:
171,41,24890,1,2,0:0:0:0:
160,96,25435,1,2,0:0:0:0:
160,96,25708,1,2,0:0:0:0:
192,96,25980,1,0,0:0:0:0:
171,41,26526,1,2,0:0:0:0:
192,96,27071,1,0,0:0:0:0:
192,96,27617,1,2,0:0:0:0:
256,192,28162,12,0,29799,0:0:0:0:
192,96,30344,5,12,0:0:0:0:
160,64,30890,1,8,0:0:0:0:
192,96,31299,1,0,0:0:0:0:
160,32,31980,1,8,0:0:0:0:
192,96,32526,1,0,0:0:0:0:
192,128,33071,1,2,0:0:0:0:
192,128,33617,1,2,0:0:0:0:
192,128,34708,1,2,0:0:0:0:
160,64,35253,1,2,0:0:0:0:
160,128,35662,1,0,0:0:0:0:
192,96,36344,1,2,0:0:0:0:
160,96,36890,5,0,0:0:0:0:
160,96,37980,1,0,0:0:0:0:
160,96,38526,1,8,0:0:0:0:
160,96,39071,1,0,0:0:0:0:
175,43,39617,1,2,0:0:0:0:
175,43,39890,1,2,0:0:0:0:
170,44,40162,1,0,0:0:0:0:
160,96,40708,1,8,0:0:0:0:
160,96,41253,5,0,0:0:0:0:
180,33,41526,1,8,0:0:0:0:
192,64,41799,1,0,0:0:0:0:
192,64,42071,1,2,0:0:0:0:
160,96,42344,1,0,0:0:0:0:
160,96,42890,1,2,0:0:0:0:
160,64,43435,5,4,0:0:0:0:
160,64,43844,1,4,0:0:0:0:
160,64,44253,1,4,0:0:0:0:
160,64,44662,1,4,0:0:0:0:
160,64,45071,1,4,0:0:0:0:
160,64,45617,1,6,0:0:0:0:
160,64,46026,1,6,0:0:0:0:
160,64,46435,1,6,0:0:0:0:
160,64,46708,1,6,0:0:0:0:
160,64,47799,5,4,0:0:0:0:
128,64,48344,1,0,0:0:0:0:
128,64,48617,1,2,0:0:0:0:
160,32,48890,1,0,0:0:0:0:
160,64,49435,1,2,0:0:0:0:
160,64,49980,1,0,0:0:0:0:
160,32,50253,1,0,0:0:0:0:
160,64,50526,1,2,0:0:0:0:
160,32,50799,1,2,0:0:0:0:
160,32,51071,1,0,0:0:0:0:
160,32,51617,1,2,0:0:0:0:
160,0,51890,1,2,0:0:0:0:
160,64,52162,5,0,0:0:0:0:
251,226,52708,1,2,0:0:0:0:
160,0,53253,1,0,0:0:0:0:
165,18,53526,1,0,0:0:0:0:
160,64,53799,1,2,0:0:0:0:
160,64,54344,1,0,0:0:0:0:
160,32,54890,1,2,0:0:0:0:
160,64,55435,1,4,0:0:0:0:
160,64,55844,1,4,0:0:0:0:
160,64,56526,5,6,0:0:0:0:
192,64,57071,1,2,0:0:0:0:
192,64,57344,1,2,0:0:0:0:
160,64,57617,1,0,0:0:0:0:
160,64,58162,1,2,0:0:0:0:
192,64,58708,1,2,0:0:0:0:
192,32,58980,1,2,0:0:0:0:
192,64,59253,1,0,0:0:0:0:
160,64,59526,1,2,0:0:0:0:
192,64,59799,1,0,0:0:0:0:
192,32,60344,1,2,0:0:0:0:
192,0,60617,1,2,0:0:0:0:
160,64,60890,5,0,0:0:0:0:
227,158,61435,1,2,0:0:0:0:
192,32,61980,1,0,0:0:0:0:
198,28,62526,1,2,0:0:0:0:
192,32,62799,1,2,0:0:0:0:
160,64,63071,1,0,0:0:0:0:
175,3,63617,1,2,0:0:0:0:
196,22,64162,1,6,0:0:0:0:
160,64,64708,1,6,0:0:0:0:
160,64,65253,5,0,0:0:0:0:
160,64,65799,1,2,0:0:0:0:
147,68,66208,1,0,0:0:0:0:
160,64,66890,1,2,0:0:0:0:
160,64,67435,1,0,0:0:0:0:
160,64,67980,1,2,0:0:0:0:
192,32,68253,1,0,0:0:0:0:
160,32,68526,1,2,0:0:0:0:
169,16,69071,1,2,0:0:0:0:
156,56,69344,1,2,0:0:0:0:
160,32,69617,5,0,0:0:0:0:
160,0,70162,1,0,0:0:0:0:
169,16,70435,1,0,0:0:0:0:
160,32,70708,1,6,0:0:0:0:
160,32,71799,1,4,0:0:0:0:
160,32,72071,1,4,0:0:0:0:
160,32,72344,1,4,0:0:0:0:
162,20,72753,1,6,0:0:0:0:
160,96,73162,1,6,0:0:0:0:
160,32,73435,1,6,0:0:0:0:
256,192,73972,5,0,0:0:0:0:
256,192,74517,1,2,0:0:0:0:
256,96,75062,1,0,0:0:0:0:
256,160,75335,1,2,0:0:0:0:
224,160,75608,1,0,0:0:0:0:
224,160,76153,1,0,0:0:0:0:
224,160,76699,1,2,0:0:0:0:
224,96,77244,1,0,0:0:0:0:
192,64,77517,1,2,0:0:0:0:
224,128,77790,1,2,0:0:0:0:
224,128,78335,5,0,0:0:0:0:
224,128,78881,1,2,0:0:0:0:
224,96,79426,1,0,0:0:0:0:
224,96,79699,1,2,0:0:0:0:
224,96,79972,1,0,0:0:0:0:
224,128,80244,1,2,0:0:0:0:
224,64,80517,1,0,0:0:0:0:
224,128,81062,1,2,0:0:0:0:
224,128,81335,1,0,0:0:0:0:
224,128,81472,1,2,0:0:0:0:
224,96,82153,1,2,0:0:0:0:
224,96,82699,5,4,0:0:0:0:
224,96,83108,1,4,0:0:0:0:
224,96,83517,1,6,0:0:0:0:
224,96,83653,1,6,0:0:0:0:
