osu file format v14

[General]
AudioFilename: game size.mp3
AudioLeadIn: 0
PreviewTime: 46912
Countdown: 0
SampleSet: Normal
StackLeniency: 0.7
Mode: 1
LetterboxInBreaks: 0
WidescreenStoryboard: 0

[Editor]
DistanceSpacing: 2
BeatDivisor: 4
GridSize: 32
TimelineZoom: 1.700001

[Metadata]
Title:Koiseyo Otome! (Game Size)
TitleUnicode:恋せよ乙女! (Game Size)
Artist:Chihiro Yonekura
ArtistUnicode:米倉千尋
Creator:JUDYDANNY
Version:Kantan
Source:サノバウィッチ
Tags:Taiko SABBAT OF THE WITCH Riryka Famishin 井ノ原 智 Inohara Satoru Angel Note yuzu soft ゆずソフト visual novel ビジュアルノベル eroge opening オリジナルサウンドトラック Original Soundtrack
BeatmapID:628265
BeatmapSetID:277223

[Difficulty]
HPDrainRate:7.5
CircleSize:5
OverallDifficulty:3.5
ApproachRate:5
SliderMultiplier:1.2
SliderTickRate:1

[Events]
//Background and Video events
0,0,"bg4.jpg",0,25
//Break Periods
//Storyboard Layer 0 (Background)
//Storyboard Layer 1 (Fail)
//Storyboard Layer 2 (Pass)
//Storyboard Layer 3 (Foreground)
//Storyboard Sound Samples

[TimingPoints]
933,260.869565217391,4,1,0,100,1,0
933,-104.602510460251,4,1,0,100,0,0
1976,272.727272727273,4,1,0,100,1,0
12885,272.727272727273,4,1,0,100,1,8
12890,272.727272727273,4,1,0,100,1,0
47799,-100,4,1,0,100,0,1
73972,272.727272727273,4,1,0,100,1,0

[HitObjects]
256,192,1976,5,0,0:0:0:0:
224,160,3066,1,0,0:0:0:0:
224,160,4157,1,0,0:0:0:0:
224,128,5248,1,0,0:0:0:0:
192,128,5794,1,2,0:0:0:0:
224,128,6339,5,0,0:0:0:0:
224,128,7430,1,0,0:0:0:0:
224,128,8521,1,2,0:0:0:0:
224,96,9612,1,2,0:0:0:0:
192,64,10157,1,2,0:0:0:0:
192,96,10703,5,4,0:0:0:0:
192,96,11794,1,4,0:0:0:0:
192,96,12339,1,6,0:0:0:0:
192,96,12890,5,0,0:0:0:0:
192,96,13980,1,0,0:0:0:0:
192,96,15071,1,0,0:0:0:0:
152,32,15617,1,0,0:0:0:0:
192,96,16162,1,0,0:0:0:0:
192,96,17253,1,8,0:0:0:0:
192,96,18344,1,8,0:0:0:0:
192,64,19435,1,12,0:0:0:0:
192,96,20526,1,12,0:0:0:0:
172,3,21071,1,12,0:0:0:0:
192,96,21617,5,0,0:0:0:0:
160,64,22708,1,0,0:0:0:0:
192,96,23799,1,0,0:0:0:0:
160,32,24344,1,0,0:0:0:0:
160,64,24890,1,2,0:0:0:0:
160,32,25980,1,0,0:0:0:0:
192,96,27071,1,2,0:0:0:0:
192,96,27617,1,2,0:0:0:0:
256,192,28162,12,0,29799,0:0:0:0:
192,96,30344,5,6,0:0:0:0:
192,64,31299,1,0,0:0:0:0:
192,96,32526,1,0,0:0:0:0:
192,128,33071,1,2,0:0:0:0:
192,128,33617,1,2,0:0:0:0:
192,128,34708,1,2,0:0:0:0:
160,96,35662,1,0,0:0:0:0:
193,90,36344,1,8,0:0:0:0:
160,96,36890,5,0,0:0:0:0:
160,96,37980,1,0,0:0:0:0:
160,96,39071,1,0,0:0:0:0:
172,90,39617,1,0,0:0:0:0:
160,96,40162,1,2,0:0:0:0:
160,96,41253,5,0,0:0:0:0:
192,64,41799,1,0,0:0:0:0:
160,96,42344,1,2,0:0:0:0:
160,96,42890,1,2,0:0:0:0:
256,192,43435,12,0,46708,0:0:0:0:
160,64,47799,5,4,0:0:0:0:
160,64,48890,1,0,0:0:0:0:
160,64,49435,1,2,0:0:0:0:
160,64,49980,1,0,0:0:0:0:
160,64,50526,1,8,0:0:0:0:
160,32,50799,1,8,0:0:0:0:
160,32,51071,1,0,0:0:0:0:
160,64,52162,5,0,0:0:0:0:
165,43,52708,1,8,0:0:0:0:
160,64,53253,1,0,0:0:0:0:
160,64,53799,1,2,0:0:0:0:
160,64,54344,1,0,0:0:0:0:
160,64,55435,1,4,0:0:0:0:
160,64,55844,1,4,0:0:0:0:
160,64,56526,5,6,0:0:0:0:
160,64,57617,1,0,0:0:0:0:
185,43,58162,1,8,0:0:0:0:
160,64,58708,1,8,0:0:0:0:
160,64,59253,1,0,0:0:0:0:
166,18,59526,1,8,0:0:0:0:
160,64,59799,1,0,0:0:0:0:
160,64,60890,5,0,0:0:0:0:
179,30,61435,1,8,0:0:0:0:
160,64,61980,1,0,0:0:0:0:
160,64,62526,1,2,0:0:0:0:
160,64,63071,1,0,0:0:0:0:
160,64,64162,1,12,0:0:0:0:
160,64,64708,1,12,0:0:0:0:
160,64,65253,5,0,0:0:0:0:
192,1,65799,1,8,0:0:0:0:
159,23,66890,1,8,0:0:0:0:
160,32,67435,1,0,0:0:0:0:
158,4,67980,1,8,0:0:0:0:
160,32,68526,1,8,0:0:0:0:
195,28,69617,5,0,0:0:0:0:
191,17,70162,1,0,0:0:0:0:
191,17,70708,1,12,0:0:0:0:
256,192,71799,12,0,73435,0:0:0:0:
256,192,73972,5,0,0:0:0:0:
224,160,75062,1,0,0:0:0:0:
224,160,76153,1,0,0:0:0:0:
224,128,77244,1,0,0:0:0:0:
224,128,77790,1,2,0:0:0:0:
224,128,78335,5,0,0:0:0:0:
224,128,79426,1,0,0:0:0:0:
224,128,80517,1,8,0:0:0:0:
224,128,81608,1,2,0:0:0:0:
224,96,82153,1,8,0:0:0:0:
224,96,82699,5,4,0:0:0:0:
224,96,83653,1,4,0:0:0:0:
