osu file format v6

[General]
AudioFilename: Kohaku no yurikago.mp3
AudioLeadIn: 0
PreviewTime: -1
Countdown: 1
SampleSet: Soft
StackLeniency: 0.7
Mode: 0
LetterboxInBreaks: 1

[Editor]
Bookmarks: 147658,159907,164742,168287
DistanceSpacing: 0.899999976158142
BeatDivisor: 4
GridSize: 8

[Metadata]
Title:Kohaku no Yurikago
Artist:Chihiro Yonekura
Creator:alvisto
Version:Kohaku no Yurikago
Source:
Tags:Rave

[Difficulty]
HPDrainRate:6
CircleSize:4
OverallDifficulty:7
SliderMultiplier:1.4
SliderTickRate:2

[Events]
//Background and Video events
//Break Periods
2,103697,111139
//Storyboard Layer 0 (Background)
//Storyboard Layer 1 (Fail)
//Storyboard Layer 2 (Pass)
//Storyboard Layer 3 (Foreground)
//Storyboard Sound Samples
//Background Colour Transformations
3,100,163,162,255

[TimingPoints]
673,644.676050284732,4,2,1,20,1,0
10828,-100,4,2,1,51,0,0
30635,-200,4,2,1,51,0,0
31601,-100,4,2,1,51,0,0
49860,-100,4,1,0,51,0,0
51602,-200,4,2,2,51,0,0
51924,-100,4,2,1,0,0,0
52085,-100,4,2,1,79,0,0
78034,2578.70420113893,4,2,1,79,1,0
79645,644.676050284732,4,2,1,79,1,0
80612,-200,4,2,1,79,0,0
81256,-100,4,2,1,79,0,0
102369,-200,4,2,2,79,0,0
103498,-100,4,2,2,79,0,0
103659,-100,4,2,1,79,0,0
112523,-100,4,2,1,79,0,0
113329,-100,4,2,1,53,0,0
114135,-100,4,2,1,28,0,0
114941,-100,4,2,1,3,0,0
115908,-100,4,1,0,79,0,0
116552,-100,4,2,1,79,0,0
145079,-200,4,2,1,79,0,0
145724,-100,4,2,1,79,0,0
150075,-100,4,2,2,79,0,0
150237,-200,4,2,2,79,0,0
153299,-100,4,2,2,0,0,0
153379,-100,4,2,1,79,0,0
158295,-200,4,2,1,79,0,0
159907,-100,4,2,1,79,0,0
160229,-100,4,2,2,79,0,0
160551,-200,4,2,2,79,0,0

[HitObjects]
256,48,672,2,0,B|240:88|272:88|248:136,1,70,8|8
255,116,1317,1,2
232,176,1640,1,8
216,208,1801,1,0
256,256,2123,1,2
304,208,2445,1,8
288,176,2607,1,0
256,120,2929,1,8
256,56,3251,6,0,B|296:48|352:64,1,70,8|8
384,72,3896,1,2
432,112,4218,1,8
432,112,4379,1,0
456,168,4702,1,2
440,232,5024,1,8
440,232,5185,2,0,B|424:288|384:304,1,70,0|8
352,320,5830,5,8
352,320,6152,2,0,B|296:336|264:328,1,70,8|2
224,336,6797,1,8
192,352,6958,1,0
136,320,7280,1,2
80,352,7603,1,8
48,336,7764,2,0,B|32:288|56:248,1,70,0|8
48,48,8409,5,0
464,336,9053,1,0
464,48,9698,1,0
48,336,10343,1,0
256,336,10987,5,0
216,288,11310,1,0
216,288,11632,2,0,B|168:272|136:296,1,70,8|0
147,288,12115,1,8
88,272,12438,1,8
88,272,12599,1,2
56,216,12921,2,0,B|40:160|72:120,1,70,8|0
64,120,13405,1,0
80,96,13566,1,0
96,32,13888,5,0
128,24,14050,1,0
160,24,14211,2,0,B|216:24|240:48,1,70,8|0
256,56,14694,1,8
312,88,15017,1,8
312,88,15178,2,0,B|336:112|400:112,1,70,0|8
440,88,15822,5,0
440,120,15984,1,0
440,152,16145,2,0,B|480:208|400:208|448:312,1,140,0|8
392,328,17112,1,0
360,336,17273,1,8
325,339,17434,1,0
296,336,17595,1,8
264,328,17756,1,0
264,328,18079,1,8
208,296,18401,5,0
304,176,18723,1,0
152,264,19046,1,0
248,144,19368,1,8
104,216,19690,2,0,B|136:144|208:96,1,140
40,192,20657,1,8
136,72,20980,1,0
136,72,21302,1,0
192,40,21624,5,0
224,32,21786,1,0
256,32,21947,2,0,B|304:48|336:96,1,70,8|0
336,88,22430,1,8
368,144,22753,1,8
344,160,22914,1,0
296,200,23236,2,0,B|248:224|224:272,1,70,8|0
224,264,23720,1,0
208,288,23881,1,0
152,312,24203,5,0
120,320,24364,1,0
88,312,24526,1,8
64,296,24687,2,8,B|24:272|24:216,2,70,0|8|8
88,312,25493,1,0
120,320,25654,1,0
152,312,25815,1,8
176,296,25976,6,0,B|216:272|224:224,1,70
232,216,26460,2,0,B|303:174|392:229,1,140,0|8
424,232,27427,1,0
448,208,27588,1,8
464,176,27749,1,0
464,144,27910,1,8
456,112,28071,1,0
456,112,28394,1,8
416,64,28716,5,0
200,40,29038,1,0
432,128,29361,1,0
168,96,29683,1,8
416,192,30005,1,0
184,160,30328,1,0
346,201,30650,6,0,B|320:171|263:168|225:195,1,105
216,240,31939,1,0
216,240,32262,1,8
152,248,32584,1,0
120,256,32745,1,8
88,259,32906,1,0
56,256,33067,1,8
24,248,33229,6,0,B|9:207|26:168,2,70,0|8|0
40,312,34196,1,0
40,312,34357,2,0,B|73:334|135:298,1,70
136,304,34840,1,8
168,296,35001,1,0
199,291,35163,1,0
232,296,35324,1,8
264,304,35485,1,0
296,296,35646,1,8
328,290,35807,1,0
360,296,35969,1,0
392,304,36130,1,8
440,256,36452,5,0
440,256,36774,2,0,B|456:216|456:144|432:112,1,140,0|8
400,64,37741,1,0
368,72,37903,1,8
336,75,38064,1,0
304,72,38225,1,8
272,64,38386,5,0
176,80,38708,1,8
96,136,39031,1,0
184,184,39353,1,0
184,184,39514,1,0
176,80,39837,2,0,B|168:96|184:112,2,35,0|8|0
256,40,40481,1,0
256,40,40642,2,0,B|296:112|224:112|264:192,1,140,0|8
256,184,41609,1,0
255,194,41932,1,0
304,152,42254,5,0
344,104,42576,1,8
400,72,42899,1,0
464,64,43221,2,0,B|464:104,1,35
472,160,43705,1,0
472,160,43866,2,0,B|512:208|488:272|440:288|416:288,1,140,8|0
208,232,44833,5,0
168,280,45155,1,8
112,312,45478,1,0
48,320,45800,2,0,B|48:280,1,35
40,224,46284,1,0
40,224,46445,2,0,B|0:176|24:112|72:96|96:96,1,140,8|0
160,80,47412,5,0
216,56,47734,1,8
280,48,48056,1,0
280,48,48217,2,0,B|296:80|296:128|272:160,1,105
256,208,49023,1,8
224,264,49346,1,0
208,288,49507,1,0
200,320,49668,5,4
256,352,49990,1,0
312,320,50313,1,0
304,288,50474,1,0
288,264,50635,1,0
256,208,50957,1,0
256,176,51118,1,0
256,144,51280,1,0
256,80,51602,2,4,B|256:32,1,35,4|0
352,40,52247,6,0,B|416:32|432:72,1,70
440,72,52730,1,0
464,96,52891,2,0,B|496:141|483:190,1,70,8|0
488,192,53375,1,0
488,224,53536,2,0,B|488:258|452:287,2,70,0|0|8
488,192,54342,1,0
456,176,54503,1,0
424,168,54664,1,0
392,160,54825,5,0
328,152,55148,2,0,B|280:128|232:168,1,70,0|8
232,160,55631,1,0
176,184,55953,2,0,B|160:248|176:288,1,105
175,287,56759,1,8
216,336,57082,5,0
216,336,57243,1,0
216,336,57404,2,0,B|272:344|320:328,1,70
336,296,58048,1,8
400,312,58371,1,0
424,288,58532,1,8
432,256,58693,2,0,B|456:248|472:216,4,35,0|8|0|0|8
296,40,59660,5,0
176,88,59983,2,0,B|152:128|192:176,1,70
328,152,60627,2,0,B|352:192|312:240,1,70,8|0
216,248,61272,2,0,B|220:294|280:309,1,70
255,301,61917,1,8
376,328,62239,1,0
376,328,62400,1,0
376,328,62561,5,0
392,296,62723,1,0
400,264,62884,1,0
408,232,63045,2,0,B|417:189|402:143,1,70
384,96,63690,2,0,L|373:92|383:78|365:78|376:63|358:64|368:49|350:50|361:35|343:36|349:23|335:22,1,175,0|8
136,328,65140,5,0
120,296,65302,1,0
112,264,65463,1,0
104,232,65624,2,0,B|94:189|109:143,1,70
104,162,66268,1,0
128,96,66590,2,0,L|138:92|128:78|146:78|135:63|153:64|143:49|161:50|150:35,1,105,0|8
208,32,67396,5,0
240,40,67558,1,0
272,48,67719,2,0,B|319:64|312:88,1,46.6666666666667
344,112,68202,1,0
360,136,68363,1,8
376,160,68525,2,0,B|400:200|392:248,1,70,0|8
392,256,69008,1,0
384,288,69169,1,8
368,312,69330,2,0,B|352:352|304:360,1,70,0|8
256,352,69975,5,0
256,352,70136,1,0
256,352,70298,2,0,B|232:296|280:256|256:192,1,140,0|12
264,152,71265,1,4
206,125,71587,2,0,B|216:99|243:85|274:84|301:92|321:114|325:147,1,140,4|12
328,160,72393,1,8
312,192,72554,1,8
288,216,72715,1,8
256,232,72876,6,0,B|256:320,1,70,0|0
256,302,73521,1,8
200,328,73843,2,0,B|209:354|236:368|267:369|294:360|314:338|318:305,1,140
256,302,74810,1,8
256,240,75133,2,0,B|224:136|296:128|248:16,1,210,0|8
255,33,76422,1,0
255,33,76583,1,0
255,33,76744,5,0
168,72,77228,1,0
256,112,77711,1,0
256,112,78034,2,0,B|224:152|280:152|256:200,1,87.5
256,256,79967,2,0,B|256:288|256:272,5,23.3333333333333
256,272,80612,2,0,B|256:352,1,70,0|8
256,192,81417,12,0,83190
80,72,83835,5,12
136,40,84157,1,0
168,32,84318,1,0
200,24,84480,2,0,B|248:8|288:32,1,70,0|0
268,22,85124,1,8
328,32,85447,1,8
328,32,85608,1,8
416,56,86091,5,0
456,104,86414,1,12
480,160,86736,1,0
488,192,86897,1,0
488,224,87058,2,0,B|496:272|464:320,1,70
479,292,87703,1,8
456,352,88025,1,8
424,352,88186,1,8
392,352,88348,6,0,B|344:344|344:296,1,70
344,307,88992,1,12
312,256,89315,1,0
288,240,89476,1,8
264,216,89637,1,0
248,184,89798,1,8
248,152,89959,2,0,B|240:112|264:112|248:72,1,70,0|8
248,24,90604,1,8
136,80,90926,5,0
72,192,91249,1,0
136,304,91571,1,8
200,192,91893,2,0,B|272:192,1,70,4|4
280,160,92377,1,8
304,136,92538,1,8
336,128,92699,1,8
368,136,92860,1,8
392,160,93022,1,8
400,192,93183,1,8
392,224,93344,1,8
368,240,93505,1,8
336,248,93666,1,8
304,240,93827,1,8
280,216,93989,1,8
272,184,94150,1,4
256,120,94472,6,0,B|256:94,4,35,0|8|0|8|0
256,184,95439,1,8
256,248,95761,1,8
256,280,95923,1,8
256,312,96084,5,0
144,192,96406,1,0
368,192,96728,1,8
256,88,97051,6,0,B|256:64,4,35,0|8|0|8|0
256,152,98018,1,8
256,216,98340,1,8
256,248,98501,1,8
256,280,98662,5,0
80,192,98985,1,0
432,192,99307,1,8
256,88,99629,6,0,B|256:64,4,35,0|8|0|8|0
256,152,100596,1,12
256,216,100919,1,4
64,48,101241,5,8
448,48,101563,1,8
256,280,101886,1,8
256,280,102047,1,12
200,320,102369,6,0,B|223:344|265:352|296:341|319:309,1,122.5,4|0
256,192,112039,12,0,115746
256,224,116069,6,0,B|256:193,4,23.3333333333333
296,272,116713,6,0,B|336:264|336:232|392:240,1,70,4|0
456,216,117358,1,12
392,144,117680,1,0
312,88,118003,2,0,B|272:48|336:16,1,70
408,56,118647,1,8
408,56,118809,1,0
408,56,118970,1,0
216,272,119292,6,0,B|176:264|176:232|120:240,1,70
56,216,119937,1,8
120,144,120259,1,0
200,88,120582,2,0,B|240:48|176:16,1,70
104,56,121226,1,8
104,56,121388,1,0
64,88,121548,5,0
40,128,121710,1,0
32,176,121871,2,0,B|40:224|104:224,1,70
128,208,122354,1,0
168,184,122515,1,8
208,152,122677,2,0,B|257:166|278:210,1,70
304,224,123160,2,0,B|327:256|359:272,1,70
355,270,123805,1,8
256,288,124127,5,0
256,192,124449,1,0
256,96,124772,1,0
256,96,124933,2,0,B|256:48,1,35,0|8
400,96,125416,1,0
112,96,125739,1,0
456,192,126061,1,0
56,192,126384,1,8
16,168,126545,1,8
8,120,126706,1,8
32,80,126867,1,8
80,96,127028,5,0
128,112,127190,1,0
176,96,127351,1,0
224,80,127512,2,0,B|267:71|313:86,1,70
392,96,128157,2,0,L|396:107|410:97|410:115|425:104|424:122|439:112|438:130|453:119|452:137|465:131|466:145,1,175,0|8
488,232,129285,1,0
488,232,129446,1,0
448,264,129607,5,0
400,248,129768,1,0
360,264,129929,1,0
320,288,130090,2,0,B|277:298|231:283,1,70
250,288,130735,1,0
152,264,131057,2,0,L|148:254|134:264|134:246|119:257|120:239|105:249|106:231|91:242,1,105,0|8
112,144,131863,5,0
136,104,132024,1,0
160,64,132186,2,0,B|224:32|328:72,1,140,0|8
328,96,132991,1,0
352,136,133153,1,0
376,176,133314,1,8
400,216,133475,1,0
424,256,133636,1,8
440,296,133797,2,0,B|432:336|392:360,1,70,0|8
312,336,134442,5,0
264,344,134603,1,0
216,336,134764,1,0
216,248,135087,1,0
264,256,135248,1,0
312,248,135409,1,12
312,160,135731,1,0
264,168,135892,1,0
216,160,136054,2,0,B|168:144|112:144|64:168,1,140,0|8
40,192,136859,1,8
16,232,137021,1,8
8,280,137182,1,8
16,328,137343,6,0,B|88:352|176:320,1,140
152,328,138310,2,0,B|224:304|312:336,1,140
289,328,139277,1,0
288,328,139599,2,0,B|360:352|448:320,1,140
425,327,140566,1,0
472,248,140889,1,0
480,208,141050,1,0
472,160,141211,6,0,B|464:120|432:88,1,70
408,64,141695,1,0
368,40,141856,2,0,B|320:24|288:32,1,70
256,112,142500,2,0,B|240:152|264:152|256:192,1,70
257,180,143145,1,0
176,224,143467,1,0
208,256,143629,1,0
256,264,143790,1,0
304,256,143951,1,0
336,224,144112,1,0
256,184,144434,2,0,B|256:152,5,23.3333333333333
256,160,145079,2,0,B|255:58,1,70
256,192,146046,12,0,147658
224,64,148302,5,0
288,40,148625,1,0
320,32,148786,2,0,B|368:24|416:40,1,70
424,40,149270,1,0
472,80,149592,1,0
472,80,149914,1,0
448,144,150237,6,0,B|416:168|392:168,1,52.5,12|0
64,144,150881,2,0,B|96:168|120:168,1,52.5,8|0
400,232,151526,2,0,B|368:256|344:256,1,52.5,8|0
112,232,152171,2,0,B|144:256|168:256,1,52.5,8|0
256,224,152815,2,0,B|248:248|264:248|256:280,1,52.5,12|0
256,275,153460,5,8
256,336,153782,1,0
256,336,153943,2,0,B|256:368,3,35,8|0|8|0
256,371,154749,1,8
320,352,155072,5,0
352,344,155233,1,0
384,328,155394,1,0
408,304,155555,1,0
424,280,155716,2,0,B|448:248|448:208,1,70
447,215,156361,1,0
448,152,156683,5,0
440,120,156844,1,0
424,96,157006,1,0
376,48,157328,1,0
320,24,157650,1,0
256,16,157973,1,0
256,16,158134,1,0
256,16,158295,2,0,B|280:104|232:104|264:216,1,175
56,80,160551,6,0,B|88:104|112:104,1,52.5,8|0
456,80,161196,2,0,B|424:104|400:104,1,52.5,8|0
104,168,161841,2,0,B|136:192|160:192,1,52.5,8|0
408,168,162485,2,0,B|376:192|352:192,1,52.5,8|0
256,128,163130,2,0,B|224:208|288:208|256:304,1,175
257,298,164903,1,0
257,298,165064,2,0,B|258:368,1,35
256,192,165709,12,4,168287
