osu file format v14

[General]
AudioFilename: monochrome.mp3
AudioLeadIn: 0
PreviewTime: 7016
Countdown: 0
SampleSet: Normal
StackLeniency: 0.7
Mode: 1
LetterboxInBreaks: 0
WidescreenStoryboard: 0

[Editor]
DistanceSpacing: 0.9
BeatDivisor: 4
GridSize: 4
TimelineZoom: 1

[Metadata]
Title:monochrome
TitleUnicode:monochrome
Artist:Chihara Minori
ArtistUnicode:茅原実里
Creator:kosiga
Version:Taiko Oni
Source:デート・ア・ライブⅡ
Tags:誘宵 美九 izayoi miku date a live 2 chihara minori
BeatmapID:670706
BeatmapSetID:298901

[Difficulty]
HPDrainRate:5
CircleSize:4
OverallDifficulty:5
ApproachRate:5
SliderMultiplier:1.6
SliderTickRate:1

[Events]
//Background and Video events
Video,5561,"monochrome.avi",0,140
0,0,"bg.jpg",0,140
//Break Periods
//Storyboard Layer 0 (Background)
//Storyboard Layer 1 (Fail)
//Storyboard Layer 2 (Pass)
//Storyboard Layer 3 (Foreground)
//Storyboard Sound Samples

[TimingPoints]
972,447.761194029851,4,1,0,100,1,0
65001,-100,4,1,0,100,0,1
93658,-100,4,1,0,100,0,0

[HitObjects]
256,192,971,5,0,0:0:0:0:
256,192,1195,1,0,0:0:0:0:
256,192,1419,1,0,0:0:0:0:
256,192,1643,1,8,0:0:0:0:
256,192,2091,1,8,0:0:0:0:
256,192,2539,1,0,0:0:0:0:
256,192,2986,1,0,0:0:0:0:
256,192,3210,1,0,0:0:0:0:
256,192,3434,1,8,0:0:0:0:
256,192,3882,1,8,0:0:0:0:
256,192,4106,1,0,0:0:0:0:
256,192,4330,1,0,0:0:0:0:
256,192,4554,1,8,0:0:0:0:
256,192,4777,1,0,0:0:0:0:
256,192,5001,1,0,0:0:0:0:
256,192,5225,1,8,0:0:0:0:
256,192,5673,1,0,0:0:0:0:
256,192,5897,1,8,0:0:0:0:
256,192,6345,1,12,0:0:0:0:
256,192,7016,1,8,0:0:0:0:
256,192,7240,1,8,0:0:0:0:
256,192,7464,1,8,0:0:0:0:
256,192,7688,1,8,0:0:0:0:
256,192,7912,1,8,0:0:0:0:
256,192,8136,1,4,0:0:0:0:
256,192,8360,1,0,0:0:0:0:
256,192,8583,1,8,0:0:0:0:
256,192,8807,1,0,0:0:0:0:
256,192,8919,1,0,0:0:0:0:
256,192,9143,1,0,0:0:0:0:
256,192,9255,1,0,0:0:0:0:
256,192,9479,1,8,0:0:0:0:
256,192,9703,1,8,0:0:0:0:
256,192,9927,1,0,0:0:0:0:
256,192,10151,1,0,0:0:0:0:
256,192,10374,1,8,0:0:0:0:
256,192,10598,1,0,0:0:0:0:
256,192,10710,1,0,0:0:0:0:
256,192,10934,1,0,0:0:0:0:
256,192,11046,1,0,0:0:0:0:
256,192,11270,1,8,0:0:0:0:
256,192,11494,1,0,0:0:0:0:
256,192,11718,1,8,0:0:0:0:
256,192,11942,1,0,0:0:0:0:
256,192,12166,1,8,0:0:0:0:
256,192,12389,1,0,0:0:0:0:
256,192,12501,1,0,0:0:0:0:
256,192,12725,1,0,0:0:0:0:
256,192,12837,1,0,0:0:0:0:
256,192,13061,1,8,0:0:0:0:
256,192,13285,1,8,0:0:0:0:
256,192,13509,1,0,0:0:0:0:
256,192,13733,1,0,0:0:0:0:
256,192,13957,1,8,0:0:0:0:
256,192,14180,1,0,0:0:0:0:
256,192,14292,1,0,0:0:0:0:
256,192,14516,1,0,0:0:0:0:
256,192,14628,1,0,0:0:0:0:
256,192,14852,1,8,0:0:0:0:
256,192,15076,1,0,0:0:0:0:
256,192,15300,1,12,0:0:0:0:
256,192,15748,1,8,0:0:0:0:
256,192,15972,1,0,0:0:0:0:
256,192,16083,1,0,0:0:0:0:
256,192,16195,1,0,0:0:0:0:
256,192,16307,1,8,0:0:0:0:
256,192,16419,1,8,0:0:0:0:
256,192,16643,1,0,0:0:0:0:
256,192,16867,1,8,0:0:0:0:
256,192,17091,1,0,0:0:0:0:
256,192,17315,1,8,0:0:0:0:
256,192,17539,1,8,0:0:0:0:
256,192,17763,1,0,0:0:0:0:
256,192,17874,1,0,0:0:0:0:
256,192,18098,1,8,0:0:0:0:
256,192,18210,1,8,0:0:0:0:
256,192,18322,1,8,0:0:0:0:
256,192,18434,1,0,0:0:0:0:
256,192,18658,1,8,0:0:0:0:
256,192,18882,1,0,0:0:0:0:
256,192,19106,1,8,0:0:0:0:
256,192,19330,1,0,0:0:0:0:
256,192,19554,1,8,0:0:0:0:
256,192,19777,1,0,0:0:0:0:
256,192,20001,1,8,0:0:0:0:
256,192,20225,1,0,0:0:0:0:
256,192,20449,1,8,0:0:0:0:
244,304,20673,1,4,0:0:0:0:
208,228,21345,1,8,0:0:0:0:
243,189,21569,1,0,0:0:0:0:
244,189,21680,1,0,0:0:0:0:
244,189,21792,1,0,0:0:0:0:
248,144,22016,5,12,0:0:0:0:
243,189,22464,1,0,0:0:0:0:
243,189,22688,1,0,0:0:0:0:
243,189,22912,1,8,0:0:0:0:
243,189,23136,1,0,0:0:0:0:
243,189,23248,1,0,0:0:0:0:
243,189,23360,1,8,0:0:0:0:
244,189,23583,1,0,0:0:0:0:
243,189,23807,1,8,0:0:0:0:
243,189,24031,1,8,0:0:0:0:
243,189,24143,1,0,0:0:0:0:
243,189,24255,1,0,0:0:0:0:
243,189,24479,1,8,0:0:0:0:
243,189,24703,1,0,0:0:0:0:
243,189,24927,1,8,0:0:0:0:
243,189,25151,1,0,0:0:0:0:
244,189,25374,1,8,0:0:0:0:
243,189,25486,1,8,0:0:0:0:
243,189,25598,1,0,0:0:0:0:
243,189,25710,1,0,0:0:0:0:
243,189,25822,1,8,0:0:0:0:
243,189,25934,1,8,0:0:0:0:
243,189,26046,1,0,0:0:0:0:
243,189,26270,1,0,0:0:0:0:
243,189,26494,1,8,0:0:0:0:
243,189,26718,1,0,0:0:0:0:
240,192,26830,1,0,0:0:0:0:
243,189,26942,1,8,0:0:0:0:
244,189,27166,1,0,0:0:0:0:
243,189,27389,1,8,0:0:0:0:
243,189,27613,1,8,0:0:0:0:
243,189,27837,1,0,0:0:0:0:
243,189,28061,1,8,0:0:0:0:
243,189,28173,1,0,0:0:0:0:
243,189,28285,1,0,0:0:0:0:
243,189,28509,1,8,0:0:0:0:
243,189,28733,1,4,0:0:0:0:
243,189,29069,1,8,0:0:0:0:
243,189,29180,1,8,0:0:0:0:
243,189,29292,1,8,0:0:0:0:
243,189,29404,1,8,0:0:0:0:
243,189,29516,1,8,0:0:0:0:
243,189,29628,1,0,0:0:0:0:
243,189,29852,1,0,0:0:0:0:
243,189,30076,1,8,0:0:0:0:
243,189,30300,1,0,0:0:0:0:
243,189,30412,1,0,0:0:0:0:
243,189,30524,1,8,0:0:0:0:
243,189,30748,1,0,0:0:0:0:
243,189,30972,1,8,0:0:0:0:
243,189,31195,1,8,0:0:0:0:
243,189,31307,1,0,0:0:0:0:
243,189,31419,1,0,0:0:0:0:
243,189,31643,1,8,0:0:0:0:
243,189,31867,1,0,0:0:0:0:
243,189,32091,1,8,0:0:0:0:
243,189,32315,1,0,0:0:0:0:
243,189,32539,1,8,0:0:0:0:
243,189,32651,1,8,0:0:0:0:
243,189,32763,1,0,0:0:0:0:
243,189,32874,1,0,0:0:0:0:
243,189,32986,1,8,0:0:0:0:
243,189,33098,1,8,0:0:0:0:
243,189,33210,1,0,0:0:0:0:
243,189,33434,1,8,0:0:0:0:
243,189,33658,1,8,0:0:0:0:
243,189,33882,1,0,0:0:0:0:
243,189,34106,1,0,0:0:0:0:
243,189,34442,1,0,0:0:0:0:
243,189,34554,1,0,0:0:0:0:
243,189,34777,1,12,0:0:0:0:
243,189,35225,1,0,0:0:0:0:
243,189,35449,1,0,0:0:0:0:
243,189,35785,1,0,0:0:0:0:
243,189,35897,1,0,0:0:0:0:
243,189,36121,1,8,0:0:0:0:
243,189,36233,1,8,0:0:0:0:
243,189,36345,1,0,0:0:0:0:
243,189,36457,1,0,0:0:0:0:
243,189,36569,1,8,0:0:0:0:
243,189,36792,1,4,0:0:0:0:
243,189,37240,1,8,0:0:0:0:
243,189,37464,1,0,0:0:0:0:
243,189,37688,1,0,0:0:0:0:
243,189,37912,1,0,0:0:0:0:
243,189,38136,1,8,0:0:0:0:
243,189,38360,1,8,0:0:0:0:
243,189,38583,1,0,0:0:0:0:
243,189,39031,1,8,0:0:0:0:
243,189,39255,1,0,0:0:0:0:
243,189,39479,1,0,0:0:0:0:
243,189,39703,1,8,0:0:0:0:
243,189,39927,1,8,0:0:0:0:
243,189,40151,1,0,0:0:0:0:
243,189,40374,1,0,0:0:0:0:
243,189,40822,1,8,0:0:0:0:
243,189,41046,1,8,0:0:0:0:
243,189,41270,1,0,0:0:0:0:
243,189,41718,1,8,0:0:0:0:
243,189,41942,1,8,0:0:0:0:
243,189,42166,1,0,0:0:0:0:
243,189,42389,1,8,0:0:0:0:
243,189,42613,1,0,0:0:0:0:
243,189,42837,1,8,0:0:0:0:
243,189,43061,1,0,0:0:0:0:
243,189,43285,1,8,0:0:0:0:
243,189,43509,1,8,0:0:0:0:
243,189,43733,1,8,0:0:0:0:
243,189,43845,1,8,0:0:0:0:
243,189,43957,1,0,0:0:0:0:
243,189,44404,1,8,0:0:0:0:
243,189,44628,1,0,0:0:0:0:
243,189,44852,1,0,0:0:0:0:
243,189,45076,1,8,0:0:0:0:
243,189,45300,1,8,0:0:0:0:
243,189,45524,1,0,0:0:0:0:
243,189,45748,1,0,0:0:0:0:
243,189,46195,1,8,0:0:0:0:
243,189,46419,1,0,0:0:0:0:
243,189,46643,1,0,0:0:0:0:
243,189,46867,1,0,0:0:0:0:
243,189,47091,1,8,0:0:0:0:
243,189,47315,1,8,0:0:0:0:
243,189,47539,1,0,0:0:0:0:
243,189,47986,1,8,0:0:0:0:
243,189,48210,1,0,0:0:0:0:
243,189,48434,1,8,0:0:0:0:
243,189,48882,1,8,0:0:0:0:
243,189,49106,1,0,0:0:0:0:
243,189,49330,1,0,0:0:0:0:
243,189,49666,1,0,0:0:0:0:
243,189,50001,1,0,0:0:0:0:
243,189,50225,1,8,0:0:0:0:
243,189,50449,1,0,0:0:0:0:
243,189,50561,1,0,0:0:0:0:
243,189,50673,1,0,0:0:0:0:
243,189,50785,1,0,0:0:0:0:
243,189,50897,1,0,0:0:0:0:
243,189,51121,1,12,0:0:0:0:
243,189,51345,1,0,0:0:0:0:
243,189,51569,1,8,0:0:0:0:
243,189,51792,1,0,0:0:0:0:
243,189,51904,1,8,0:0:0:0:
243,189,52016,1,0,0:0:0:0:
243,189,52240,1,8,0:0:0:0:
243,189,52464,1,8,0:0:0:0:
240,192,52688,1,0,0:0:0:0:
243,189,52800,1,0,0:0:0:0:
243,189,52912,1,8,0:0:0:0:
243,189,53136,1,0,0:0:0:0:
243,189,53360,1,8,0:0:0:0:
243,189,53583,1,0,0:0:0:0:
243,189,53695,1,0,0:0:0:0:
243,189,53807,1,0,0:0:0:0:
243,189,54031,1,8,0:0:0:0:
243,189,54255,1,8,0:0:0:0:
243,189,54703,1,0,0:0:0:0:
243,189,54927,1,8,0:0:0:0:
243,189,55151,1,8,0:0:0:0:
243,189,55374,1,0,0:0:0:0:
243,189,55598,1,0,0:0:0:0:
243,189,55822,1,8,0:0:0:0:
243,189,56046,1,8,0:0:0:0:
243,189,56270,1,0,0:0:0:0:
243,189,56494,1,0,0:0:0:0:
243,189,56942,1,8,0:0:0:0:
243,189,57166,1,8,0:0:0:0:
243,189,57277,1,0,0:0:0:0:
243,189,57389,1,0,0:0:0:0:
243,189,57725,1,0,0:0:0:0:
243,189,57949,1,8,0:0:0:0:
243,189,58061,1,8,0:0:0:0:
243,189,58173,1,8,0:0:0:0:
243,189,58285,1,0,0:0:0:0:
243,189,58509,1,0,0:0:0:0:
243,189,58733,1,8,0:0:0:0:
243,189,58957,1,0,0:0:0:0:
243,189,59069,1,0,0:0:0:0:
243,189,59180,1,0,0:0:0:0:
243,189,59404,1,8,0:0:0:0:
243,189,59628,1,8,0:0:0:0:
243,189,59852,1,0,0:0:0:0:
243,189,59964,1,0,0:0:0:0:
243,189,60076,1,8,0:0:0:0:
243,189,60300,1,0,0:0:0:0:
243,189,60524,1,8,0:0:0:0:
243,189,60748,1,0,0:0:0:0:
243,189,60860,1,8,0:0:0:0:
243,189,60972,1,0,0:0:0:0:
243,189,61195,1,8,0:0:0:0:
243,189,61419,1,8,0:0:0:0:
243,189,61643,1,0,0:0:0:0:
243,189,61867,1,0,0:0:0:0:
243,189,62315,1,8,0:0:0:0:
243,189,62539,1,8,0:0:0:0:
243,189,62651,1,0,0:0:0:0:
243,189,62763,1,8,0:0:0:0:
243,189,62986,1,0,0:0:0:0:
243,189,63210,1,8,0:0:0:0:
243,189,63322,1,8,0:0:0:0:
243,189,63434,1,8,0:0:0:0:
243,189,63546,1,8,0:0:0:0:
243,189,63658,1,0,0:0:0:0:
243,189,63994,1,0,0:0:0:0:
243,189,64330,1,0,0:0:0:0:
243,189,64554,1,4,0:0:0:0:
240,192,65001,1,12,0:0:0:0:
243,189,65449,1,0,0:0:0:0:
243,189,65673,1,0,0:0:0:0:
243,189,65897,1,8,0:0:0:0:
243,189,66121,1,0,0:0:0:0:
243,189,66233,1,8,0:0:0:0:
240,192,66457,1,8,0:0:0:0:
240,192,66569,1,0,0:0:0:0:
240,192,66792,1,0,0:0:0:0:
243,189,67016,1,8,0:0:0:0:
243,189,67240,1,0,0:0:0:0:
243,189,67464,1,0,0:0:0:0:
243,189,67688,1,8,0:0:0:0:
243,189,67912,1,0,0:0:0:0:
243,189,68024,1,8,0:0:0:0:
240,192,68136,1,0,0:0:0:0:
240,192,68248,1,8,0:0:0:0:
240,192,68360,1,0,0:0:0:0:
240,192,68583,1,8,0:0:0:0:
243,189,68807,1,8,0:0:0:0:
243,189,69031,1,0,0:0:0:0:
243,189,69255,1,0,0:0:0:0:
243,189,69479,1,8,0:0:0:0:
243,189,69703,1,8,0:0:0:0:
244,188,69927,1,0,0:0:0:0:
240,192,70151,1,8,0:0:0:0:
240,192,70374,1,0,0:0:0:0:
243,189,70598,1,8,0:0:0:0:
243,189,70822,1,0,0:0:0:0:
243,189,71046,1,0,0:0:0:0:
243,189,71158,1,0,0:0:0:0:
243,189,71270,1,0,0:0:0:0:
243,189,71494,1,12,0:0:0:0:
244,188,71942,1,8,0:0:0:0:
243,189,72054,1,8,0:0:0:0:
243,189,72166,1,0,0:0:0:0:
243,189,72277,1,0,0:0:0:0:
243,189,72389,1,8,0:0:0:0:
243,189,72613,1,4,0:0:0:0:
243,189,72837,1,0,0:0:0:0:
243,189,73061,1,8,0:0:0:0:
243,189,73285,1,0,0:0:0:0:
240,192,73397,1,8,0:0:0:0:
243,189,73621,1,8,0:0:0:0:
243,189,73733,1,0,0:0:0:0:
243,189,73957,1,0,0:0:0:0:
243,189,74180,1,8,0:0:0:0:
243,189,74404,1,0,0:0:0:0:
243,189,74628,1,0,0:0:0:0:
243,189,74852,1,8,0:0:0:0:
243,189,75076,1,8,0:0:0:0:
240,192,75188,1,8,0:0:0:0:
243,189,75412,1,0,0:0:0:0:
243,189,75524,1,8,0:0:0:0:
243,189,75748,1,8,0:0:0:0:
243,189,75972,1,0,0:0:0:0:
243,189,76195,1,8,0:0:0:0:
243,189,76419,1,8,0:0:0:0:
243,189,76643,1,8,0:0:0:0:
243,189,76867,1,0,0:0:0:0:
243,189,77091,1,8,0:0:0:0:
243,189,77315,1,0,0:0:0:0:
243,189,77539,1,8,0:0:0:0:
243,189,77763,1,4,0:0:0:0:
243,189,78210,1,0,0:0:0:0:
243,189,78434,1,0,0:0:0:0:
243,189,78658,1,8,0:0:0:0:
243,189,78770,1,0,0:0:0:0:
243,189,78882,1,8,0:0:0:0:
243,189,79106,1,0,0:0:0:0:
243,189,79218,1,0,0:0:0:0:
243,189,79330,1,0,0:0:0:0:
243,189,79442,1,0,0:0:0:0:
243,189,79554,1,0,0:0:0:0:
243,189,79777,1,12,0:0:0:0:
243,189,80001,1,0,0:0:0:0:
243,189,80225,1,8,0:0:0:0:
243,189,80449,1,0,0:0:0:0:
243,189,80561,1,8,0:0:0:0:
243,189,80785,1,8,0:0:0:0:
243,189,80897,1,0,0:0:0:0:
243,189,81121,1,0,0:0:0:0:
243,189,81345,1,8,0:0:0:0:
243,189,81569,1,0,0:0:0:0:
243,189,81792,1,0,0:0:0:0:
243,189,82016,1,8,0:0:0:0:
243,189,82240,1,8,0:0:0:0:
243,189,82352,1,8,0:0:0:0:
243,189,82464,1,0,0:0:0:0:
243,189,82576,1,8,0:0:0:0:
243,189,82688,1,8,0:0:0:0:
243,189,82912,1,8,0:0:0:0:
243,189,83136,1,0,0:0:0:0:
243,189,83248,1,0,0:0:0:0:
243,189,83360,1,8,0:0:0:0:
243,189,83583,1,8,0:0:0:0:
243,189,83807,1,0,0:0:0:0:
243,189,84031,1,8,0:0:0:0:
243,189,84255,1,0,0:0:0:0:
243,189,84479,1,8,0:0:0:0:
243,189,84591,1,8,0:0:0:0:
243,189,84703,1,0,0:0:0:0:
243,189,84927,1,8,0:0:0:0:
243,189,85151,5,4,0:0:0:0:
243,189,85375,1,8,0:0:0:0:
243,189,85599,1,4,0:0:0:0:
243,189,85823,1,12,0:0:0:0:
240,192,86271,5,0,0:0:0:0:
240,192,86383,1,0,0:0:0:0:
240,192,86495,1,0,0:0:0:0:
243,189,86606,1,0,0:0:0:0:
243,189,86718,1,8,0:0:0:0:
243,189,86942,1,4,0:0:0:0:
243,189,87166,1,0,0:0:0:0:
243,189,87390,1,8,0:0:0:0:
243,189,87614,1,0,0:0:0:0:
244,188,87726,1,8,0:0:0:0:
244,188,87950,1,8,0:0:0:0:
244,188,88062,1,0,0:0:0:0:
244,188,88286,1,0,0:0:0:0:
243,189,88509,1,8,0:0:0:0:
243,189,88733,1,0,0:0:0:0:
243,189,88957,1,0,0:0:0:0:
243,189,89181,1,8,0:0:0:0:
243,189,89405,1,0,0:0:0:0:
240,192,89517,1,0,0:0:0:0:
240,192,89741,1,8,0:0:0:0:
244,188,89853,1,8,0:0:0:0:
244,188,90077,1,0,0:0:0:0:
243,189,90301,1,8,0:0:0:0:
243,189,90524,1,0,0:0:0:0:
243,189,90748,1,8,0:0:0:0:
243,189,90972,1,8,0:0:0:0:
243,189,91196,1,0,0:0:0:0:
240,192,91420,1,8,0:0:0:0:
244,188,91644,1,0,0:0:0:0:
244,188,91868,1,8,0:0:0:0:
243,189,92092,1,4,0:0:0:0:
243,189,92539,1,4,0:0:0:0:
243,189,92875,1,4,0:0:0:0:
248,188,93211,1,4,0:0:0:0:
244,188,93435,1,0,0:0:0:0:
244,188,93659,1,12,0:0:0:0:
