osu file format v14

[General]
AudioFilename: monochrome.mp3
AudioLeadIn: 0
PreviewTime: 7016
Countdown: 0
SampleSet: None
StackLeniency: 0.7
Mode: 0
LetterboxInBreaks: 0
WidescreenStoryboard: 0

[Editor]
DistanceSpacing: 1
BeatDivisor: 4
GridSize: 4
TimelineZoom: 1

[Metadata]
Title:monochrome
TitleUnicode:monochrome
Artist:Chihara Minori
ArtistUnicode:茅原実里
Creator:kosiga
Version:Easy
Source:デート・ア・ライブⅡ
Tags:誘宵 美九 izayoi miku date a live 2 chihara minori
BeatmapID:670701
BeatmapSetID:298901

[Difficulty]
HPDrainRate:2
CircleSize:2
OverallDifficulty:2
ApproachRate:3
SliderMultiplier:1.08
SliderTickRate:1

[Events]
//Background and Video events
Video,5561,"monochrome.avi"
0,0,"bg.jpg",0,0
//Break Periods
//Storyboard Layer 0 (Background)
//Storyboard Layer 1 (Fail)
//Storyboard Layer 2 (Pass)
//Storyboard Layer 3 (Foreground)
//Storyboard Sound Samples

[TimingPoints]
972,447.761194029851,4,2,1,70,1,0
8136,-100,4,2,1,70,0,0
22016,-100,4,2,1,80,0,0
37128,-100,4,2,1,70,0,0
52464,-100,4,2,0,70,0,0
52576,-100,4,2,1,70,0,0
54255,-100,4,2,0,70,0,0
54367,-100,4,2,1,70,0,0
59628,-100,4,2,0,70,0,0
59740,-100,4,2,1,70,0,0
61419,-100,4,2,0,70,0,0
61531,-100,4,2,1,70,0,0
65001,-100,4,2,1,90,0,1
93658,-100,4,2,1,90,0,0

[HitObjects]
256,192,971,12,2,6345,0:1:0:0:
256,304,8136,6,0,P|356:340|456:304,1,215.999993408203,4|0,0:0|0:0,0:0:0:0:
456,88,9927,2,0,P|356:52|256:88,1,215.999993408203,2|0,0:0|0:0,0:0:0:0:
256,304,11718,6,0,P|156:339|56:304,1,215.999993408203,2|0,0:0|0:0,0:0:0:0:
56,88,13509,2,0,P|156:53|256:88,1,215.999993408203,2|0,0:0|0:0,0:0:0:0:
276,304,15300,6,0,B|340:320|372:288|436:304,2,161.999995056153,4|2|0,0:0|0:0|0:0,0:0:0:0:
236,204,17091,2,0,B|172:188|140:220|76:204,2,161.999995056153,2|2|0,0:0|0:0|0:0,0:0:0:0:
328,148,18882,6,0,L|332:40,1,107.999996704102,4|8,0:0|0:3,0:0:0:0:
440,36,19777,2,0,L|436:144,1,107.999996704102,8|8,0:3|0:3,0:0:0:0:
396,244,20673,2,0,P|256:320|124:244,1,323.999990112305,8|4,0:3|0:1,0:0:0:0:
148,140,22464,6,0,P|148:84|140:32,1,107.999996704102,4|8,0:0|0:0,0:0:0:0:
36,64,23360,2,0,P|36:120|44:172,1,107.999996704102,0|8,0:0|0:0,0:0:0:0:
124,244,24255,2,0,P|228:268|332:232,1,215.999993408203,2|0,0:0|0:0,0:0:0:0:
396,148,25598,1,8,0:0:0:0:
492,200,26046,6,0,P|500:252|492:308,1,107.999996704102,2|8,0:0|0:0,0:0:0:0:
392,358,26942,2,0,P|384:305|392:252,1,107.999996704102,0|8,0:0|0:0,0:0:0:0:
476,184,27837,2,0,P|480:100|452:28,2,161.999995056153,2|2|8,0:0|0:0|0:0,0:0:0:0:
380,236,29628,6,0,P|328:232|272:240,1,107.999996704102,4|8,0:0|0:0,0:0:0:0:
216,332,30524,2,0,P|162:339|108:335,1,107.999996704102,0|8,0:0|0:0,0:0:0:0:
28,264,31419,2,0,P|16:160|68:60,1,215.999993408203,2|0,0:0|0:0,0:0:0:0:
168,32,32763,1,8,0:0:0:0:
256,96,33210,6,0,L|256:204,1,107.999996704102,2|8,0:0|0:0,0:0:0:0:
308,300,34106,2,0,P|384:324|460:296,2,161.999995056153,0|4|8,0:0|0:0|0:0,0:0:0:0:
236,220,35897,2,0,P|136:188|44:240,1,215.999993408203,8|4,0:3|0:0,0:0:0:0:
96,336,37240,6,0,B|168:356|236:316|312:336,1,215.999993408203,8|8,0:0|0:0,0:0:0:0:
420,340,38583,2,0,P|440:288|448:236,1,107.999996704102,2|8,0:0|0:0,0:0:0:0:
420,132,39479,2,0,P|368:120|312:124,1,107.999996704102,0|8,0:0|0:0,0:0:0:0:
256,216,40374,6,0,P|106:262|8:149,1,323.999990112305,2|8,0:0|0:0,0:0:0:0:
72,60,42166,2,0,B|152:20|224:40|232:80|304:100|384:60,1,323.999990112305,2|8,0:0|0:0,0:0:0:0:
488,36,43957,1,4,0:0:0:0:
500,144,44404,6,0,P|496:244|440:344,1,215.999993408203,8|8,0:0|0:0,0:0:0:0:
332,340,45748,2,0,P|280:328|224:332,1,107.999996704102,2|8,0:0|0:0,0:0:0:0:
120,348,46643,2,0,P|66:351|13:339,1,107.999996704102,0|8,0:0|0:0,0:0:0:0:
0,232,47539,6,0,P|83:96|235:95,1,323.999990112305,2|8,0:0|0:0,0:0:0:0:
300,180,49330,2,0,P|380:200|452:168,2,161.999995056153,2|2|8,0:0|0:0|0:0,0:0:0:0:
256,80,51121,5,4,0:0:0:0:
156,40,51569,1,8,0:0:0:0:
72,108,52016,2,0,L|64:216,1,107.999996704102,0|8,0:0|0:0,0:0:0:0:
120,308,52912,5,2,0:0:0:0:
228,324,53360,1,8,0:0:0:0:
316,260,53807,2,0,L|324:152,1,107.999996704102,0|8,0:0|0:0,0:0:0:0:
416,96,54703,6,0,P|464:192|452:300,1,215.999993408203,2|2,0:0|0:0,0:0:0:0:
352,336,56046,2,0,P|248:320|144:352,1,215.999993408203,8|8,0:0|0:0,0:0:0:0:
36,336,57389,2,0,P|24:284|24:228,1,107.999996704102,8|0,3:3|0:0,0:0:0:0:
64,128,58285,5,4,0:0:0:0:
160,76,58733,1,8,0:0:0:0:
260,120,59180,2,0,L|368:124,1,107.999996704102,0|8,0:0|0:0,0:0:0:0:
452,192,60076,5,2,0:0:0:0:
468,300,60524,1,8,0:0:0:0:
368,340,60972,2,0,L|260:344,1,107.999996704102,0|8,0:0|0:0,0:0:0:0:
168,284,61867,6,0,P|120:192|168:100,1,215.999993408203,4|2,0:0|0:0,0:0:0:0:
256,36,63210,1,8,0:0:0:0:
343,99,63658,2,0,P|391:191|344:284,1,215.999993408203,2|8,0:0|0:3,0:0:0:0:
256,348,65001,5,4,0:1:0:0:
208,252,65449,2,0,P|132:236|56:268,2,161.999995056153,2|2|10,0:1|0:0|0:0,0:0:0:0:
304,200,67240,2,0,P|380:216|456:184,2,161.999995056153,2|2|8,0:0|0:0|0:0,0:0:0:0:
208,148,69031,6,0,L|200:40,1,107.999996704102,2|8,0:0|0:0,0:0:0:0:
92,32,69927,2,0,L|100:140,1,107.999996704102,2|8,0:0|0:0,0:0:0:0:
188,200,70822,2,0,P|192:280|152:352,2,161.999995056153,2|2|8,0:0|0:0|0:0,0:0:0:0:
136,104,72613,6,0,P|228:56|320:104,1,215.999993408203,2|2,0:1|0:0,0:0:0:0:
288,208,73957,1,8,0:0:0:0:
328,308,74404,2,0,P|430:321|500:245,1,215.999993408203,2|2,0:1|0:0,0:0:0:0:
488,136,75748,1,8,0:0:0:0:
380,120,76195,5,2,0:0:0:0:
448,36,76643,1,8,0:0:0:0:
488,136,77091,2,0,P|492:216|472:296,2,161.999995056153,2|2|8,0:0|0:1|0:0,0:0:0:0:
424,48,78882,1,2,0:0:0:0:
316,32,79330,1,8,0:0:0:0:
216,76,79777,6,0,P|136:92|64:60,2,161.999995056153,4|2|8,0:0|0:0|0:0,0:0:0:0:
296,148,81569,2,0,P|376:132|448:164,2,161.999995056153,2|2|8,0:0|0:0|0:0,0:0:0:0:
200,200,83360,6,0,L|184:312,1,107.999996704102,2|8,0:0|0:0,0:0:0:0:
284,352,84255,2,0,L|392:352,1,107.999996704102,2|8,0:0|0:0,0:0:0:0:
476,284,85151,2,0,P|492:204|472:128,2,161.999995056153,2|2|8,0:0|0:0|0:0,0:0:0:0:
380,336,86942,6,0,P|284:296|180:328,1,215.999993408203,2|2,0:1|0:0,0:0:0:0:
76,352,88285,1,8,0:0:0:0:
32,252,88733,2,0,P|28:148|104:76,1,215.999993408203,2|2,0:1|0:0,0:0:0:0:
212,60,90076,1,8,0:0:0:0:
256,160,90524,6,0,L|256:272,1,107.999996704102,2|8,0:0|0:0,0:0:0:0:
352,320,91419,1,2,0:0:0:0:
444,264,91867,2,0,P|475:193|444:120,2,161.999995056153,8|8|8,0:0|0:0|0:0,0:0:0:0:
364,192,93658,5,4,0:1:0:0:
