osu file format v14

[General]
AudioFilename: Song.mp3
AudioLeadIn: 0
PreviewTime: 71726
Countdown: 0
SampleSet: Soft
StackLeniency: 0.6
Mode: 0
LetterboxInBreaks: 0
WidescreenStoryboard: 0

[Editor]
DistanceSpacing: 0.9
BeatDivisor: 4
GridSize: 4
TimelineZoom: 1.3

[Metadata]
Title:Secret Season ~Sakurairo no Koibito~
TitleUnicode:Secret Season ~桜色の恋人~
Artist:Chihara Minori
ArtistUnicode:茅原実里
Creator:DreaM117er
Version:Insane
Source:いますぐお兄ちゃんに妹だっていいたい!
Tags:imasugu onii-chan ni imouto datte iitai I wanna say that I'm not your brother right now! いま妹 Imaimo fairys sprite Grand OP 菊田 大介 きくた だいすけ Kikuta Daisuke 恋と選挙とチョコレート Koi to Senkyo to Chocolate m1223961117 Streliteela Chaoslitz Frey
BeatmapID:782081
BeatmapSetID:355201

[Difficulty]
HPDrainRate:7
CircleSize:4
OverallDifficulty:7
ApproachRate:8.7
SliderMultiplier:1.7
SliderTickRate:1

[Events]
//Background and Video events
0,0,"Background.jpg",0,0
Video,0,"VDO.flv"
//Break Periods
//Storyboard Layer 0 (Background)
//Storyboard Layer 1 (Fail)
//Storyboard Layer 2 (Pass)
//Storyboard Layer 3 (Foreground)
//Storyboard Sound Samples

[TimingPoints]
1275,387.096774193548,4,2,1,50,1,0
1275,-133.333333333333,4,2,1,50,0,0
12113,-111.111111111111,4,2,1,60,0,0
13662,-100,4,2,1,80,0,0
19081,-83.3333333333333,4,2,1,80,0,0
19468,-71.4285714285714,4,2,1,80,0,0
19855,-100,4,2,1,80,0,0
26049,-133.333333333333,4,2,1,50,0,0
29145,-111.111111111111,4,2,1,60,0,0
52371,-111.111111111111,4,2,1,70,0,0
53920,-100,4,2,1,70,0,0
66307,-133.333333333333,4,2,1,70,0,0
69404,-111.111111111111,4,2,1,70,0,0
72500,-100,4,2,1,80,0,1
84500,-100,4,2,1,80,0,0
84887,-100,4,2,1,80,0,1
97274,-100,4,2,1,80,0,0
100371,-111.111111111111,4,2,1,70,0,1
100468,-111.111111111111,4,2,1,70,0,0
107339,-100,4,2,1,5,0,0

[Colours]
Combo1 : 217,251,145
Combo2 : 253,108,170
Combo3 : 118,193,250
Combo4 : 201,92,248

[HitObjects]
56,288,1275,6,0,P|100:284|200:280,1,127.500004863739,2|0,0:1|0:0,0:0:0:0:
324,300,2049,1,2,0:1:0:0:
344,288,2436,2,0,P|345:253|351:204,1,63.7500024318696
384,152,2823,1,2,0:1:0:0:
456,192,3016,2,0,P|460:240|464:344,1,127.500004863739,2|2,0:1|0:1,0:0:0:0:
232,120,3791,2,0,P|230:88|227:56,2,63.7500024318696
172,180,4371,6,0,P|112:184|48:128,1,127.500004863739,2|0,0:1|0:0,0:0:0:0:
32,168,5145,2,0,P|38:240|40:320,1,127.500004863739,2|0,0:1|0:0,0:0:0:0:
72,372,5726,2,0,P|108:370|160:364,1,63.7500024318696,2|0,0:1|0:0,0:0:0:0:
244,304,6113,2,0,P|212:302|180:299,1,63.7500024318696,2|0,0:1|0:0,0:0:0:0:
84,232,6500,2,0,P|115:230|147:227,1,63.7500024318696,2|0,0:1|0:0,0:0:0:0:
228,224,6887,2,0,P|230:160|235:96,1,127.500004863739,2|0,0:1|0:0,0:0:0:0:
216,16,7468,5,2,0:1:0:0:
312,344,8049,1,2,0:1:0:0:
100,216,8629,1,2,0:1:0:0:
332,124,9016,5,2,0:1:0:0:
292,356,9597,1,2,0:1:0:0:
156,76,10178,1,2,0:1:0:0:
400,168,10565,6,0,P|444:168|496:84,1,127.500004863739,2|0,0:1|0:0,0:0:0:0:
500,28,11145,2,0,P|444:24|420:24,1,63.7500024318696,2|0,0:1|0:0,0:0:0:0:
312,88,11533,2,0,P|344:85|376:84,1,63.7500024318696,2|0,0:1|0:0,0:0:0:0:
400,168,11920,1,0,0:0:0:0:
296,220,12113,6,0,P|255:215|204:212,1,76.4999976654053,2|0,3:0|0:0,0:0:0:0:
132,76,12500,2,0,P|173:81|224:84,1,76.4999976654053,2|0,3:0|0:0,0:0:0:0:
130,214,12887,1,2,3:0:0:0:
95,217,12984,1,0,0:0:0:0:
61,208,13081,1,0,0:0:0:0:
37,183,13178,1,0,0:0:0:0:
29,149,13274,1,2,3:0:0:0:
36,115,13371,1,0,0:0:0:0:
57,87,13468,1,0,0:0:0:0:
90,74,13565,1,0,0:0:0:0:
132,76,13662,6,0,P|138:163|140:260,1,170,4|8,0:0|0:0,0:0:0:0:
212,356,14242,1,0,0:0:0:0:
248,216,14436,1,2,0:0:0:0:
136,284,14629,1,0,0:0:0:0:
256,352,14823,2,0,P|302:348|361:341,1,85,8|0,0:0|0:0,0:0:0:0:
136,284,15210,6,0,P|93:279|51:276,1,85,2|0,0:0|0:0,0:0:0:0:
248,216,15597,1,8,0:0:0:0:
360,332,15791,1,0,0:0:0:0:
220,296,15984,1,2,0:0:0:0:
308,144,16178,1,0,0:0:0:0:
436,280,16371,2,0,P|441:322|443:364,1,85,8|0,0:0|0:0,0:0:0:0:
248,216,16758,6,0,P|250:131|256:46,1,170,2|8,0:0|0:0,0:0:0:0:
256,46,17339,1,0,0:0:0:0:
144,20,17533,2,0,P|99:25|43:30,1,85,2|0,0:0|0:0,0:0:0:0:
4,180,17920,2,0,L|46:175|88:170,1,85,8|0,0:0|0:0,0:0:0:0:
204,128,18307,5,2,0:0:0:0:
276,268,18500,1,0,0:0:0:0:
304,288,18597,1,0,0:0:0:0:
338,295,18694,1,8,0:0:0:0:
370,290,18791,1,0,0:0:0:0:
398,271,18887,1,0,0:0:0:0:
417,242,18984,1,0,0:0:0:0:
424,207,19081,6,0,L|427:138,1,50.9999984436036,2|0,0:0|0:0,0:0:0:0:
320,84,19274,2,0,L|316:133,1,50.9999984436036
440,180,19468,6,0,L|444:96,1,59.4999981842042,8|0,0:0|0:0,0:0:0:0:
303,56,19662,2,0,L|298:114,1,59.4999981842042
336,208,19855,6,0,P|420:198|505:192,1,170,4|8,0:0|0:0,0:0:0:0:
408,344,20436,1,0,0:0:0:0:
292,304,20629,2,0,P|249:298|207:295,1,85,2|0,0:0|0:0,0:0:0:0:
40,304,21016,1,8,0:0:0:0:
144,372,21210,1,0,0:0:0:0:
168,204,21404,6,0,P|166:134|160:60,1,127.5,2|0,0:0|0:0,0:0:0:0:
144,32,21791,2,0,P|98:38|40:44,1,85,8|0,0:0|0:0,0:0:0:0:
204,112,22178,1,2,0:0:0:0:
364,40,22371,1,0,0:0:0:0:
292,168,22565,1,8,0:0:0:0:
244,32,22758,1,0,0:0:0:0:
436,96,22952,6,0,P|432:160|428:292,1,170,4|8,0:0|0:0,0:0:0:0:
312,348,23533,1,0,0:0:0:0:
312,348,23629,1,0,0:0:0:0:
312,348,23726,2,0,P|268:349|208:356,1,85,2|0,0:0|0:0,0:0:0:0:
28,248,24113,2,0,P|70:246|112:242,1,85,8|0,0:0|0:0,0:0:0:0:
236,200,24500,5,2,0:0:0:0:
312,348,24694,1,0,0:0:0:0:
364,208,24887,1,8,0:0:0:0:
216,296,25081,1,0,0:0:0:0:
400,356,25274,2,0,P|405:312|407:244,1,85,2|0,0:0|0:0,0:0:0:0:
320,72,25662,2,0,P|314:115|312:183,1,85,8|0,0:0|0:0,0:0:0:0:
432,276,26049,5,6,0:0:0:0:
443,274,26242,1,2,0:0:0:0:
455,272,26436,1,2,0:0:0:0:
467,270,26629,1,2,0:0:0:0:
479,268,27016,6,0,P|476:225|471:188,2,63.7500024318696
360,348,27597,5,6,0:0:0:0:
349,346,27791,1,2,0:0:0:0:
337,344,27984,1,2,0:0:0:0:
325,342,28178,1,2,0:0:0:0:
313,340,28565,6,0,P|253:344|177:351,1,127.500004863739
96,368,29145,6,0,P|92:316|88:280,1,76.4999976654053,4|0,0:0|0:0,0:0:0:0:
153,155,29533,2,0,P|156:193|160:232,1,76.4999976654053,2|0,0:0|0:0,0:0:0:0:
248,260,29920,1,2,0:0:0:0:
379,197,30113,2,0,P|342:191|304:188,1,76.4999976654053,0|2,0:0|0:0,0:0:0:0:
224,96,30500,6,0,P|280:92|340:16,1,152.999995330811
432,120,31081,2,0,P|469:114|507:110,1,76.4999976654053,2|0,0:0|0:0,0:0:0:0:
379,197,31468,1,2,0:0:0:0:
312,96,31662,2,0,P|313:57|319:0,1,76.4999976654053,0|2,0:0|0:0,0:0:0:0:
224,136,32049,6,0,P|231:218|236:308,1,152.999995330811
111,332,32629,2,0,P|112:294|116:256,1,76.4999976654053,2|0,0:0|0:0,0:0:0:0:
224,136,33016,1,2,0:0:0:0:
160,68,33210,1,0,0:0:0:0:
132,156,33404,1,2,0:0:0:0:
284,208,33597,6,0,P|360:200|457:192,1,152.999995330811
272,304,34178,2,0,P|221:285|187:188,1,152.999995330811,2|2,0:0|0:0,0:0:0:0:
328,88,34758,1,0,0:0:0:0:
284,208,34952,1,2,0:0:0:0:
212,100,35145,6,0,L|216:8,2,76.4999976654053,4|2|0,0:0|0:0|0:0,0:0:0:0:
96,220,35726,2,0,P|92:156|84:52,1,152.999995330811,2|2,0:0|0:0,0:0:0:0:
184,272,36307,2,0,P|187:233|192:187,1,76.4999976654053,0|2,0:0|0:0,0:0:0:0:
96,308,36694,6,0,P|28:276|9:205,1,152.999995330811
164,112,37274,2,0,P|202:115|240:119,1,76.4999976654053,2|0,0:0|0:0,0:0:0:0:
388,188,37662,1,2,0:0:0:0:
388,188,37855,2,0,P|349:191|311:195,1,76.4999976654053,0|2,0:0|0:0,0:0:0:0:
476,264,38242,6,0,P|480:187|486:111,1,152.999995330811
384,20,38823,2,0,P|387:59|390:114,1,76.4999976654053,2|0,0:0|0:0,0:0:0:0:
344,268,39210,2,0,P|305:265|267:262,1,76.4999976654053,2|0,0:0|0:0,0:0:0:0:
96,200,39597,2,0,L|134:197|172:194,1,76.4999976654053,2|0,0:0|0:0,0:0:0:0:
340,108,39984,6,0,P|264:101|174:95,1,152.999995330811,4|0,0:0|0:0,0:0:0:0:
344,268,40565,2,0,L|352:320,2,38.2499988327027,0|0|0,0:0|0:0|3:0,0:0:0:0:
428,180,40952,1,0,0:0:0:0:
256,148,41145,1,2,0:0:0:0:
252,188,41242,1,2,0:0:0:0:
248,228,41339,1,2,0:0:0:0:
244,268,41436,1,2,0:0:0:0:
240,308,41533,6,0,P|180:312|144:316,1,76.4999976654053,4|0,0:0|0:0,0:0:0:0:
4,248,41920,2,0,P|64:244|100:240,1,76.4999976654053,2|0,0:0|0:0,0:0:0:0:
156,192,42307,1,2,0:0:0:0:
105,43,42500,2,0,P|102:81|100:120,1,76.4999976654053,0|2,0:0|0:0,0:0:0:0:
248,228,42887,6,0,P|328:228|380:296,1,152.999995330811
504,210,43468,2,0,P|465:208|428:204,1,76.4999976654053,2|0,0:0|0:0,0:0:0:0:
288,312,43855,1,2,0:0:0:0:
356,144,44049,1,0,0:0:0:0:
356,144,44145,1,0,0:0:0:0:
356,144,44242,1,2,0:0:0:0:
224,208,44436,6,0,P|144:204|100:140,1,152.999995330811
36,264,45016,2,0,P|33:302|31:341,1,76.4999976654053,2|0,0:0|0:0,0:0:0:0:
219,284,45404,2,0,P|222:246|224:207,1,76.4999976654053,2|0,0:0|0:0,0:0:0:0:
107,73,45791,2,0,P|104:111|102:150,1,76.4999976654053,2|0,0:0|0:0,0:0:0:0:
219,284,46178,6,0,P|295:278|371:274,1,152.999995330811,2|2,0:0|0:0,0:0:0:0:
500,176,46758,1,0,0:0:0:0:
500,176,46855,1,0,0:0:0:0:
500,176,46952,2,0,P|461:172|423:167,1,76.4999976654053,2|0,0:0|0:0,0:0:0:0:
272,92,47339,1,2,0:0:0:0:
332,188,47533,1,0,0:0:0:0:
172,260,47726,6,0,P|168:193|160:92,1,152.999995330811,4|2,0:0|0:0,0:0:0:0:
256,24,48307,1,0,0:0:0:0:
256,24,48500,2,0,P|297:27|354:36,1,76.4999976654053,2|0,0:0|0:0,0:0:0:0:
476,136,48887,2,0,P|434:132|378:124,1,76.4999976654053,2|0,0:0|0:0,0:0:0:0:
268,236,49274,6,0,P|340:240|396:316,1,152.999995330811,2|2,0:0|0:0,0:0:0:0:
200,372,49855,2,0,P|197:333|193:295,2,76.4999976654053,0|2|0,0:0|0:0|0:0,0:0:0:0:
112,252,50436,2,0,P|114:213|118:175,1,76.4999976654053,2|0,0:0|0:0,0:0:0:0:
16,44,50823,6,0,P|23:116|28:212,1,152.999995330811,4|2,0:0|0:0,0:0:0:0:
120,88,51404,1,0,0:0:0:0:
120,88,51597,2,0,P|144:140|156:176,1,76.4999976654053,2|0,0:0|0:0,0:0:0:0:
284,56,51984,2,0,P|246:48|208:42,1,76.4999976654053,2|0,0:0|0:0,0:0:0:0:
376,164,52371,6,0,P|427:158|480:68,1,152.999995330811,4|2,0:0|0:0,0:0:0:0:
284,56,52952,2,0,P|280:112|280:156,1,76.4999976654053,4|0,0:0|0:0,0:0:0:0:
344,308,53339,1,8,0:1:0:0:
344,308,53436,1,8,0:1:0:0:
344,308,53533,1,8,0:1:0:0:
344,308,53629,1,8,0:1:0:0:
344,308,53726,1,8,0:1:0:0:
344,308,53823,1,8,0:1:0:0:
344,308,53920,6,0,P|388:303|445:299,1,85,4|0,0:0|0:0,0:0:0:0:
504,168,54307,2,0,P|460:173|403:177,1,85,8|0,0:0|0:0,0:0:0:0:
208,216,54694,2,0,P|250:218|292:223,1,85,2|0,0:0|0:0,0:0:0:0:
160,304,55081,1,8,0:0:0:0:
160,304,55274,6,0,P|157:220|152:112,1,170
272,88,55855,1,8,0:0:0:0:
172,20,56049,1,0,0:0:0:0:
68,125,56242,2,0,P|110:129|153:134,1,85,2|0,0:0|0:0,0:0:0:0:
272,88,56629,2,0,P|314:83|356:79,1,85,8|0,0:0|0:0,0:0:0:0:
404,80,56920,1,0,0:0:0:0:
404,80,57016,6,0,P|399:133|397:176,1,85,2|0,0:0|0:0,0:0:0:0:
472,284,57404,1,8,0:0:0:0:
360,356,57597,2,0,P|357:313|353:271,1,85,0|2,0:0|0:0,0:0:0:0:
397,164,57984,1,0,0:0:0:0:
397,164,58081,1,0,0:0:0:0:
397,164,58178,2,0,P|451:156|500:152,1,85,8|0,0:0|0:0,0:0:0:0:
332,256,58565,6,0,P|276:248|232:244,1,85,2|0,0:0|0:0,0:0:0:0:
104,136,58952,2,0,P|159:75|241:80,1,170,8|2,0:0|0:0,0:0:0:0:
304,160,59533,1,0,0:0:0:0:
416,40,59726,1,8,0:0:0:0:
268,72,59920,1,0,0:0:0:0:
432,204,60113,6,0,P|435:119|441:34,1,170,2|8,0:0|0:0,0:0:0:0:
304,160,60694,1,0,0:0:0:0:
304,160,60791,1,0,0:0:0:0:
304,160,60887,2,0,P|312:216|316:264,1,85,2|0,0:0|0:0,0:0:0:0:
252,368,61274,1,8,0:0:0:0:
392,304,61468,1,0,0:0:0:0:
224,248,61662,6,0,P|140:252|76:328,1,170,2|8,0:0|0:0,0:0:0:0:
293,329,62242,2,0,L|298:244|303:159,1,170
248,24,62823,1,8,0:0:0:0:
380,104,63016,1,0,0:0:0:0:
380,104,63113,1,0,0:0:0:0:
380,104,63210,6,0,P|422:107|465:109,1,85,4|0,0:0|0:0,0:0:0:0:
344,244,63597,1,8,0:0:0:0:
208,192,63791,1,0,0:0:0:0:
248,24,63984,2,0,L|251:66|254:108,1,85,2|0,0:0|0:0,0:0:0:0:
124,300,64371,2,0,P|119:257|117:215,1,85,8|0,0:0|0:0,0:0:0:0:
168,88,64758,5,2,0:0:0:0:
292,180,64952,1,0,0:0:0:0:
436,116,65145,2,0,P|429:198|424:300,1,170,8|2,0:0|0:0,0:0:0:0:
332,372,65726,1,0,0:0:0:0:
228,324,65920,2,0,L|168:316,3,42.5,2|2|2|2,0:0|0:0|0:0|0:0,0:0:0:0:
144,336,66307,6,0,P|96:344|32:272,1,127.500004863739,4|0,0:0|0:0,0:0:0:0:
216,40,67081,2,0,P|256:88|248:164,1,127.500004863739,8|0,0:1|0:0,0:0:0:0:
200,212,67662,1,0,0:0:0:0:
200,212,67855,6,0,P|142:206|73:200,1,127.500004863739,2|0,0:3|0:0,0:0:0:0:
300,72,68629,2,0,P|365:65|426:60,1,127.500004863739,8|0,0:1|0:0,0:0:0:0:
508,100,69210,1,0,0:0:0:0:
508,100,69307,1,0,0:0:0:0:
508,100,69404,6,0,P|502:153|500:192,1,76.4999976654053,4|0,0:0|0:0,0:0:0:0:
380,372,69791,2,0,P|376:329|372:288,1,76.4999976654053,8|0,0:0|0:0,0:0:0:0:
336,184,70178,1,2,0:0:0:0:
472,288,70371,1,0,0:0:0:0:
408,128,70565,1,8,0:0:0:0:
280,264,70758,1,0,0:0:0:0:
440,212,70952,5,2,0:0:0:0:
212,148,71145,1,2,0:0:0:0:
200,168,71920,2,0,P|205:209|208:252,1,76.4999976654053
188,340,72307,1,0,0:0:0:0:
188,340,72404,1,0,0:0:0:0:
188,340,72500,6,0,P|116:332|16:324,1,170,4|8,0:0|0:0,0:0:0:0:
120,224,73081,1,0,0:0:0:0:
276,296,73274,2,0,P|320:292|368:284,1,85,2|0,0:0|0:0,0:0:0:0:
468,312,73662,1,8,0:0:0:0:
441,123,73855,6,0,P|438:165|436:208,1,85,0|2,0:0|0:0,0:0:0:0:
264,216,74242,2,0,P|299:190|352:148,1,85,0|8,0:0|0:0,0:0:0:0:
212,28,74629,2,0,P|215:70|217:112,1,85,0|2,0:0|0:0,0:0:0:0:
176,288,75016,1,0,0:0:0:0:
264,216,75210,1,8,0:0:0:0:
96,132,75404,1,0,0:0:0:0:
148,312,75597,6,0,P|220:304|332:296,1,170,2|8,0:0|0:0,0:0:0:0:
88,216,76178,1,0,0:0:0:0:
88,216,76274,1,0,0:0:0:0:
88,216,76371,2,0,P|32:222|-15:225,1,85,2|0,0:0|0:0,0:0:0:0:
148,312,76758,1,8,0:0:0:0:
264,216,76952,6,0,P|348:212|416:292,1,170
500,176,77533,1,8,0:0:0:0:
500,176,77726,2,0,P|504:116|512:63,1,85,0|2,0:0|0:0,0:0:0:0:
332,32,78113,2,0,P|336:74|339:116,1,85,0|8,0:0|0:0,0:0:0:0:
216,300,78500,1,0,0:0:0:0:
216,300,78597,1,0,0:0:0:0:
216,300,78694,6,0,P|175:256|187:146,1,170,4|8,0:0|0:0,0:0:0:0:
332,32,79274,2,0,P|372:75|360:185,1,170
264,216,79855,2,0,P|218:210|160:208,1,85,8|0,0:0|0:0,0:0:0:0:
0,100,80242,6,0,P|56:96|184:84,1,170,2|8,0:0|0:0,0:0:0:0:
292,104,80823,1,0,0:0:0:0:
292,104,80920,1,0,0:0:0:0:
292,104,81016,2,0,P|298:60|300:-4,1,85,2|0,0:0|0:0,0:0:0:0:
160,164,81404,2,0,P|162:206|168:248,1,85,8|0,0:0|0:0,0:0:0:0:
324,360,81791,6,0,P|405:361|459:287,1,170,2|8,0:0|0:0,0:0:0:0:
448,160,82371,1,0,0:0:0:0:
448,160,82468,1,0,0:0:0:0:
448,160,82565,2,0,P|400:168|352:172,1,85,2|0,0:0|0:0,0:0:0:0:
184,300,82952,2,0,P|232:292|280:288,1,85,8|0,0:0|0:0,0:0:0:0:
176,108,83339,6,0,P|91:100|6:95,1,170,2|8,0:0|0:0,0:0:0:0:
156,208,83920,1,0,0:0:0:0:
280,112,84113,1,2,0:0:0:0:
92,52,84307,1,0,0:0:0:0:
156,208,84500,1,10,0:0:0:0:
168,244,84597,1,2,0:0:0:0:
174,281,84694,1,2,0:0:0:0:
179,318,84791,1,2,0:0:0:0:
178,355,84887,6,0,P|238:351|286:347,1,85,4|0,0:0|0:0,0:0:0:0:
396,268,85274,2,0,P|398:225|401:183,1,85,8|0,0:0|0:0,0:0:0:0:
285,27,85662,2,0,L|282:69|279:111,2,85,2|0|8,0:0|0:0|0:0,0:0:0:0:
112,108,86242,6,0,P|149:132|188:152,1,85,0|2,0:0|0:0,0:0:0:0:
62,296,86629,2,0,L|59:254|56:212,1,85,0|8,0:0|0:0,0:0:0:0:
179,65,87016,2,0,L|182:107|185:149,1,85,0|2,0:0|0:0,0:0:0:0:
152,308,87404,1,0,0:0:0:0:
288,248,87597,1,8,0:0:0:0:
144,212,87791,1,0,0:0:0:0:
232,356,87984,6,0,P|319:348|420:344,1,170,2|8,0:0|0:0,0:0:0:0:
504,216,88565,1,0,0:0:0:0:
504,216,88662,1,0,0:0:0:0:
504,216,88758,1,2,0:0:0:0:
376,260,88952,1,0,0:0:0:0:
276,112,89145,1,8,0:0:0:0:
416,176,89339,2,0,P|420:120|424:80,2,85,0|2|0,0:0|0:0|0:0,0:0:0:0:
264,296,89920,6,0,P|260:240|256:200,1,85,8|0,0:0|0:0,0:0:0:0:
336,40,90307,1,2,0:0:0:0:
192,156,90500,1,0,0:0:0:0:
112,20,90694,1,8,0:0:0:0:
244,48,90887,1,0,0:0:0:0:
108,176,91081,6,0,P|56:172|12:168,1,85,4|0,0:0|0:0,0:0:0:0:
160,84,91468,1,8,0:0:0:0:
264,212,91662,2,0,P|260:272|256:404,1,170
256,381,92242,1,8,0:0:0:0:
368,312,92436,1,0,0:0:0:0:
368,312,92533,1,0,0:0:0:0:
368,312,92629,6,0,P|410:308|452:305,2,85,2|0|8,0:0|0:0|0:0,0:0:0:0:
176,192,93210,2,0,P|258:199|324:140,1,170
128,88,93791,2,0,P|85:90|43:94,1,85,8|0,0:0|0:0,0:0:0:0:
228,104,94178,5,2,0:0:0:0:
296,32,94371,1,0,0:0:0:0:
196,12,94565,1,8,0:0:0:0:
328,128,94758,2,0,P|384:124|432:120,1,85,0|2,0:0|0:0,0:0:0:0:
272,292,95145,1,0,0:0:0:0:
272,292,95242,1,0,0:0:0:0:
272,292,95339,1,8,0:0:0:0:
364,248,95533,1,0,0:0:0:0:
208,180,95726,6,0,P|148:176|16:168,1,170,2|8,0:0|0:0,0:0:0:0:
180,296,96307,2,0,P|131:300|75:310,1,85,0|2,0:0|0:0,0:0:0:0:
38,169,96694,1,2,0:0:0:0:
38,169,96791,1,2,0:0:0:0:
38,169,96887,1,8,0:0:0:0:
164,280,97081,1,2,0:0:0:0:
220,88,97274,6,0,P|272:116|396:100,1,170,4|0,0:0|0:0,0:0:0:0:
500,190,97855,2,0,P|458:191|415:196,1,85
267,258,98242,2,0,P|309:259|352:264,1,85
424,320,98629,1,0,0:0:0:0:
224,344,98823,6,0,P|220:272|212:160,1,170,4|0,0:0|0:0,0:0:0:0:
284,32,99404,1,0,0:0:0:0:
284,32,99500,1,0,0:0:0:0:
284,32,99597,2,0,P|288:100|292:140,1,85,2|0,0:0|0:0,0:0:0:0:
184,260,99984,2,0,P|180:192|176:152,1,85,2|0,0:0|0:0,0:0:0:0:
388,72,100371,6,0,P|381:154|376:244,1,152.999995330811,4|0,0:0|0:0,0:0:0:0:
408,332,100952,1,0,0:0:0:0:
408,332,101049,1,0,0:0:0:0:
408,332,101145,1,8,0:0:0:0:
264,280,101339,2,0,P|204:280|116:336,1,152.999995330811
8,248,101920,5,2,0:0:0:0:
8,248,102113,2,0,P|46:245|84:243,1,76.4999976654053,2|0,0:0|0:0,0:0:0:0:
232,184,102500,1,0,0:0:0:0:
232,184,102597,1,0,0:0:0:0:
232,184,102694,2,0,P|193:182|155:179,1,76.4999976654053,8|0,0:0|0:0,0:0:0:0:
32,40,103081,1,0,0:0:0:0:
136,76,103274,1,0,0:0:0:0:
52,144,103468,5,4,0:0:0:0:
32,40,103662,2,0,P|92:36|200:28,1,152.999995330811,2|2,0:0|0:0,0:0:0:0:
371,148,104242,2,0,P|295:144|231:183,1,152.999995330811,2|2,0:0|0:0,0:0:0:0:
416,292,104823,1,4,0:0:0:0:
256,192,104920,12,0,107339,0:0:0:0:
