osu file format v14

[General]
AudioFilename: Song.mp3
AudioLeadIn: 0
PreviewTime: 71726
Countdown: 0
SampleSet: Soft
StackLeniency: 0.6
Mode: 0
LetterboxInBreaks: 0
WidescreenStoryboard: 0

[Editor]
DistanceSpacing: 1.1
BeatDivisor: 2
GridSize: 4
TimelineZoom: 1.3

[Metadata]
Title:Secret Season ~Sakurairo no Koibito~
TitleUnicode:Secret Season ~桜色の恋人~
Artist:Chihara Minori
ArtistUnicode:茅原実里
Creator:DreaM117er
Version:Easy
Source:いますぐお兄ちゃんに妹だっていいたい!
Tags:imasugu onii-chan ni imouto datte iitai I wanna say that I'm not your brother right now! いま妹 Imaimo fairys sprite Grand OP 菊田 大介 きくた だいすけ Kikuta Daisuke 恋と選挙とチョコレート Koi to Senkyo to Chocolate m1223961117 Streliteela Chaoslitz Frey
BeatmapID:792852
BeatmapSetID:355201

[Difficulty]
HPDrainRate:2
CircleSize:2.5
OverallDifficulty:2
ApproachRate:3
SliderMultiplier:0.799999999999999
SliderTickRate:1

[Events]
//Background and Video events
0,0,"Background.jpg",0,0
Video,0,"VDO.flv"
//Break Periods
//Storyboard Layer 0 (Background)
//Storyboard Layer 1 (Fail)
//Storyboard Layer 2 (Pass)
//Storyboard Layer 3 (Foreground)
//Storyboard Sound Samples

[TimingPoints]
1275,387.096774193548,4,2,1,50,1,0
12113,-100,4,2,1,60,0,0
13662,-100,4,2,1,80,0,0
26049,-100,4,2,1,50,0,0
29145,-100,4,2,1,60,0,0
52371,-100,4,2,1,70,0,0
72500,-100,4,2,1,80,0,1
84500,-100,4,2,1,80,0,0
84887,-100,4,2,1,80,0,1
97274,-100,4,2,1,80,0,0
100371,-100,4,2,1,70,0,1
100468,-100,4,2,1,70,0,0
107339,-100,4,2,1,5,0,0

[Colours]
Combo1 : 217,251,145
Combo2 : 253,108,170
Combo3 : 118,193,250
Combo4 : 201,92,248

[HitObjects]
416,44,1275,6,0,P|456:40|516:36,2,79.9999999999999,2|0|2,0:1|0:0|0:1,0:0:0:0:
340,84,2436,1,0,0:0:0:0:
388,156,2823,2,0,P|438:162|520:168,2,120,2|2|0,0:1|0:1|0:0,0:0:0:0:
300,164,4371,1,2,0:1:0:0:
252,92,4758,6,0,P|250:52|247:12,2,79.9999999999999,0|2|0,0:0|0:1|0:0,0:0:0:0:
212,168,5920,2,0,P|206:231|204:304,1,120,2|2,0:1|0:1,0:0:0:0:
212,376,6887,1,2,0:1:0:0:
340,348,7468,6,0,P|412:340|484:336,2,120,2|2|2,0:1|0:1|0:1,0:0:0:0:
264,304,9016,2,0,P|205:297|164:254,2,120,2|2|2,0:1|0:1|0:1,0:0:0:0:
340,260,10565,2,0,P|345:198|348:132,2,120,2|2|0,0:1|0:1|0:0,0:0:0:0:
340,348,12113,5,2,3:0:0:0:
264,304,12500,1,2,3:0:0:0:
188,348,12887,1,2,3:0:0:0:
112,304,13274,1,2,3:0:0:0:
28,332,13662,6,0,L|26:286|24:240,1,79.9999999999999,4|8,0:0|0:0,0:0:0:0:
92,196,14436,2,0,L|95:156|98:116,1,79.9999999999999,2|8,0:0|0:0,0:0:0:0:
84,28,15210,2,0,P|44:24|4:19,2,79.9999999999999,2|8|2,0:0|0:0|0:0,0:0:0:0:
168,60,16371,1,8,0:0:0:0:
256,44,16758,6,0,L|296:41|336:38,1,79.9999999999999,2|8,0:0|0:0,0:0:0:0:
416,80,17533,2,0,P|455:83|495:86,2,79.9999999999999,2|8|2,0:0|0:0|0:0,0:0:0:0:
352,140,18694,2,0,P|274:130|209:175,1,160,8|8,0:0|0:0,0:0:0:0:
180,260,19855,5,4,0:0:0:0:
96,236,20242,2,0,P|100:196|103:156,2,79.9999999999999,8|2|8,0:0|0:0|0:0,0:0:0:0:
12,268,21404,2,0,P|10:192|2:88,1,160,2|2,0:0|0:0,0:0:0:0:
38,27,22565,1,8,0:0:0:0:
116,68,22952,6,0,P|156:71|200:75,1,79.9999999999999,4|8,0:0|0:0,0:0:0:0:
280,44,23726,2,0,L|320:40|360:36,1,79.9999999999999,2|8,0:0|0:0,0:0:0:0:
440,76,24500,2,0,P|437:115|433:155,1,79.9999999999999,2|8,0:0|0:0,0:0:0:0:
400,240,25274,1,2,0:0:0:0:
412,328,25662,1,8,0:0:0:0:
328,360,26049,6,0,P|256:356|200:352,1,120,6|2,0:0|0:0,0:0:0:0:
120,344,27016,1,0,0:0:0:0:
32,244,27597,2,0,P|28:176|24:104,1,120,6|2,0:0|0:0,0:0:0:0:
72,52,28565,2,0,P|116:76|188:68,1,120,0|4,0:0|0:0,0:0:0:0:
260,24,29533,5,2,0:0:0:0:
340,64,29920,2,0,P|400:60|436:60,1,79.9999999999999,2|2,0:0|0:0,0:0:0:0:
496,104,30694,2,0,P|491:150|488:208,1,79.9999999999999,2|2,0:0|0:0,0:0:0:0:
468,268,31468,1,2,0:0:0:0:
392,224,31855,1,2,0:0:0:0:
320,276,32242,6,0,P|315:320|312:364,1,79.9999999999999,2|2,0:0|0:0,0:0:0:0:
224,368,33016,2,0,P|167:314|80:308,1,160,2|2,0:0|0:0,0:0:0:0:
8,340,34178,1,2,0:0:0:0:
16,252,34565,2,0,P|12:188|8:152,1,79.9999999999999,2|2,0:0|0:0,0:0:0:0:
52,96,35339,6,0,P|48:56|46:16,2,79.9999999999999,2|2|2,0:0|0:0|0:0,0:0:0:0:
100,172,36500,1,2,0:0:0:0:
172,120,36887,2,0,P|224:112|324:184,1,160,2|2,0:0|0:0,0:0:0:0:
356,240,38049,1,2,0:0:0:0:
440,212,38436,6,0,P|442:172|446:132,2,79.9999999999999,2|2|2,0:0|0:0|0:0,0:0:0:0:
460,300,39597,1,2,0:0:0:0:
396,360,39984,2,0,P|316:352|236:347,1,160,4|0,0:0|3:0,0:0:0:0:
148,344,41145,1,2,0:0:0:0:
60,356,41533,6,0,P|52:312|56:252,1,79.9999999999999,4|2,0:0|0:0,0:0:0:0:
88,196,42307,2,0,P|90:156|76:96,1,79.9999999999999,2|2,0:0|0:0,0:0:0:0:
48,36,43081,2,0,P|136:26|221:21,1,160,2|2,0:0|0:0,0:0:0:0:
292,44,44242,1,2,0:0:0:0:
324,128,44629,6,0,P|320:167|319:207,2,79.9999999999999,2|2|2,0:0|0:0|0:0,0:0:0:0:
380,60,45791,1,2,0:0:0:0:
448,116,46178,2,0,P|452:204|456:300,1,160,2|2,0:0|0:0,0:0:0:0:
424,360,47339,1,2,0:0:0:0:
344,320,47726,6,0,P|296:312|196:368,1,160,4|2,0:0|0:0,0:0:0:0:
120,328,48887,1,2,0:0:0:0:
32,344,49274,2,0,P|32:304|36:264,1,79.9999999999999,2|2,0:0|0:0,0:0:0:0:
100,200,50049,2,0,P|99:160|95:120,1,79.9999999999999,2|2,0:0|0:0,0:0:0:0:
80,32,50823,6,0,L|40:29|0:26,2,79.9999999999999,4|2|2,0:0|0:0|0:0,0:0:0:0:
164,64,51984,1,2,0:0:0:0:
252,80,52371,2,0,P|316:76|392:68,1,120,4|4,0:0|0:0,0:0:0:0:
460,56,53339,1,8,0:1:0:0:
504,180,53920,6,0,P|502:220|499:260,1,79.9999999999999,4|8,0:0|0:0,0:0:0:0:
448,332,54694,2,0,P|380:328|348:328,1,79.9999999999999,2|8,0:0|0:0,0:0:0:0:
288,364,55468,2,0,P|217:328|124:332,1,160,2|2,0:0|0:0,0:0:0:0:
60,368,56629,1,8,0:0:0:0:
12,292,57016,6,0,P|9:252|5:212,1,79.9999999999999,2|8,0:0|0:0,0:0:0:0:
88,176,57791,2,0,P|91:216|95:256,1,79.9999999999999,2|8,0:0|0:0,0:0:0:0:
184,256,58565,2,0,P|187:177|192:76,1,160,2|2,0:0|0:0,0:0:0:0:
236,20,59726,1,8,0:0:0:0:
308,72,60113,6,0,P|348:80|387:76,1,79.9999999999999,2|8,0:0|0:0,0:0:0:0:
472,52,60887,2,0,L|480:156,1,79.9999999999999,2|8,0:0|0:0,0:0:0:0:
472,220,61662,2,0,P|407:263|332:244,1,160,2|2,0:0|0:0,0:0:0:0:
272,180,62823,1,8,0:0:0:0:
200,232,63210,6,0,P|204:274|208:320,1,79.9999999999999,4|8,0:0|0:0,0:0:0:0:
124,344,63984,2,0,P|119:301|116:256,1,79.9999999999999,2|8,0:0|0:0,0:0:0:0:
128,176,64758,1,2,0:0:0:0:
84,100,65145,2,0,P|20:92|-12:80,2,79.9999999999999,8|2|2,0:0|0:0|0:0,0:0:0:0:
152,44,66307,6,0,P|228:36|336:32,1,160,4|8,0:0|0:1,0:0:0:0:
472,104,67855,2,0,P|466:191|464:283,1,160,2|8,0:3|0:1,0:0:0:0:
440,348,69016,1,0,0:0:0:0:
356,316,69404,6,0,P|316:312|276:309,1,79.9999999999999,4|8,0:0|0:0,0:0:0:0:
196,348,70178,2,0,P|156:350|104:356,1,79.9999999999999,2|8,0:0|0:0,0:0:0:0:
36,316,70952,1,2,0:0:0:0:
36,316,72500,6,0,P|32:264|28:220,1,79.9999999999999,4|8,0:0|0:0,0:0:0:0:
76,160,73274,2,0,P|72:120|69:80,1,79.9999999999999,2|8,0:0|0:0,0:0:0:0:
132,20,74049,2,0,P|184:24|308:40,1,160,2|2,0:0|0:0,0:0:0:0:
348,104,75210,1,8,0:0:0:0:
436,88,75597,6,0,L|439:48|442:8,2,79.9999999999999,2|8|2,0:0|0:0|0:0,0:0:0:0:
412,172,76758,1,8,0:0:0:0:
428,260,77145,2,0,P|376:264|340:268,1,79.9999999999999,2|8,0:0|0:0,0:0:0:0:
284,328,77920,2,0,P|244:323|204:321,1,79.9999999999999,2|8,0:0|0:0,0:0:0:0:
116,328,78694,6,0,P|67:347|-14:315,2,120,4|0|8,0:0|0:0|0:0,0:0:0:0:
156,248,80242,2,0,P|152:188|148:108,2,120,2|0|8,0:0|0:0|0:0,0:0:0:0:
204,321,81791,6,0,P|260:324|296:328,1,79.9999999999999,2|8,0:0|0:0,0:0:0:0:
364,292,82565,1,2,0:0:0:0:
428,352,82952,1,8,0:0:0:0:
500,300,83339,2,0,L|503:260|506:220,1,79.9999999999999,2|8,0:0|0:0,0:0:0:0:
452,152,84113,2,0,P|454:112|458:72,1,79.9999999999999,2|10,0:0|0:0,0:0:0:0:
396,8,84887,6,0,P|336:12|308:16,1,79.9999999999999,4|8,0:0|0:0,0:0:0:0:
244,64,85662,2,0,P|204:62|164:57,1,79.9999999999999,2|8,0:0|0:0,0:0:0:0:
84,92,86436,2,0,P|37:155|46:233,1,160,2|2,0:0|0:0,0:0:0:0:
100,304,87597,1,8,0:0:0:0:
184,276,87984,6,0,P|181:236|177:196,2,79.9999999999999,2|8|2,0:0|0:0|0:0,0:0:0:0:
220,356,89145,1,8,0:0:0:0:
304,324,89533,2,0,P|347:319|399:318,1,79.9999999999999,2|8,0:0|0:0,0:0:0:0:
472,332,90307,2,0,P|476:268|480:228,1,79.9999999999999,2|8,0:0|0:0,0:0:0:0:
456,168,91081,6,0,P|408:172|308:88,1,160,4|2,0:0|0:0,0:0:0:0:
288,32,92242,1,8,0:0:0:0:
208,64,92629,2,0,P|168:68|84:28,2,120,2|0|8,0:0|0:0|0:0,0:0:0:0:
280,116,94178,6,0,P|276:168|276:212,1,79.9999999999999,2|8,0:0|0:0,0:0:0:0:
240,276,94952,1,2,0:0:0:0:
160,240,95339,1,8,0:0:0:0:
76,272,95726,2,0,P|75:232|71:192,2,79.9999999999999,2|8|2,0:0|0:0|0:0,0:0:0:0:
104,356,96887,1,8,0:0:0:0:
188,324,97274,6,0,P|260:328|312:356,2,120,4|0|0,0:0|0:0|0:0,0:0:0:0:
160,240,98823,2,0,P|199:235|239:230,1,79.9999999999999,4|0,0:0|0:0,0:0:0:0:
320,260,99597,2,0,P|359:265|399:269,1,79.9999999999999,2|2,0:0|0:0,0:0:0:0:
488,272,100371,6,0,P|489:192|494:112,1,160,4|8,0:0|0:0,0:0:0:0:
348,12,101920,2,0,P|346:91|341:171,1,160,2|8,0:0|0:0,0:0:0:0:
320,260,103081,1,0,0:0:0:0:
240,220,103468,2,0,P|180:213|113:257,2,120,4|2|2,0:0|0:0|0:0,0:0:0:0:
256,192,104823,12,0,107339,0:0:0:0:
