osu file format v12

[General]
AudioFilename: Oni Ai.mp3
AudioLeadIn: 2000
PreviewTime: 55570
Countdown: 0
SampleSet: Normal
StackLeniency: 0.7
Mode: 0
LetterboxInBreaks: 0

[Editor]
DistanceSpacing: 1
BeatDivisor: 4
GridSize: 4

[Metadata]
Title:SELF PRODUCER (TV Size)
TitleUnicode:SELF PRODUCER (TV Size)
Artist:Chihara Minori
ArtistUnicode:茅原 実里
Creator:L-Len
Version:Normal
Source:Oniichan dakedo Ai sae Areba Kankeinai yo ne!
Tags:Onii-Ai opening
BeatmapID:201266
BeatmapSetID:69894

[Difficulty]
HPDrainRate:3
CircleSize:3
OverallDifficulty:4
ApproachRate:3
SliderMultiplier:1.1
SliderTickRate:1

[Events]
//Background and Video events
0,0,"bbgg.jpg",0,0
//Break Periods
2,23166,25004
//Storyboard Layer 0 (Background)
//Storyboard Layer 1 (Fail)
//Storyboard Layer 2 (Pass)
//Storyboard Layer 3 (Foreground)
//Storyboard Sound Samples
//Background Colour Transformations
3,100,163,162,255

[TimingPoints]
358,434.782608695652,4,1,1,60,1,0
5570,-100,4,1,1,70,0,0
19483,-100,4,1,1,60,0,0
26657,-100,4,1,1,70,0,0
40135,-100,4,2,1,70,0,0
47309,-100,4,1,1,70,0,0
50787,-100,4,1,1,72,0,0
52526,-100,4,1,1,77,0,0
56005,-100,4,1,1,80,0,1
82092,-100,4,1,1,80,0,0

[Colours]
Combo1 : 255,128,255
Combo2 : 255,128,128
Combo3 : 255,255,128
Combo4 : 128,255,128
Combo5 : 128,255,255

[HitObjects]
132,88,358,2,0,P|116:144|128:212,1,110,4|0,0:0|0:0,0:0:0:0:
172,292,1227,1,8,0:0:0:0:
392,296,2097,6,0,P|408:240|396:172,1,110,4|0,0:0|0:0,0:0:0:0:
352,92,2966,1,8,0:0:0:0:
88,64,3836,6,0,L|88:196,1,110,4|0,0:0|0:0,0:0:0:0:
200,176,4705,2,0,L|200:304,1,110,8|0,0:0|0:0,0:0:0:0:
312,292,5575,6,8,B|400:292|400:292|448:220,2,165,2|2|2,0:0|0:0|0:0,0:0:0:0:
256,196,7314,5,4,0:0:0:0:
256,84,7749,2,0,L|128:84,1,110,8|0,0:0|0:0,0:0:0:0:
72,168,8618,1,8,0:0:0:0:
148,248,9053,2,0,P|208:248|260:208,1,110,0|8,0:0|0:0,0:0:0:0:
276,176,9705,1,0,0:0:0:0:
308,132,9923,2,0,P|348:106|408:106,1,110,0|8,0:0|0:0,0:0:0:0:
476,192,10792,6,0,L|476:328,2,110,0|8|0,0:0|0:0|0:0,0:0:0:0:
364,192,12097,1,8,0:0:0:0:
328,296,12531,2,0,P|276:312|212:292,1,110,0|8,0:0|0:0,0:0:0:0:
268,200,13401,2,0,P|215:187|163:203,1,110,0|8,0:0|0:0,0:0:0:0:
56,184,14271,6,0,B|56:116|56:116|80:60|144:56,1,165,4|4,0:0|0:0,0:0:0:0:
216,196,15575,1,8,0:0:0:0:
328,192,16010,6,0,P|388:188|436:152,1,110,4|0,0:0|0:0,0:0:0:0:
432,104,16662,2,0,P|391:76|331:72,1,110,4|0,0:0|0:0,0:0:0:0:
276,72,17314,1,8,0:0:0:0:
164,68,17749,6,0,P|108:72|60:104,1,110,4|8,0:0|0:0,0:0:0:0:
32,148,18401,1,0,0:0:0:0:
60,196,18618,2,0,P|96:220|152:228,2,82.5,4|0|0,0:0|0:0|0:0,0:0:0:0:
256,192,19488,12,4,22966,0:0:0:0:
72,48,26444,5,4,0:0:0:0:
72,160,26879,2,0,L|72:272,2,110,0|0|8,0:0|0:0|0:0,0:0:0:0:
160,96,28184,2,0,P|216:80|272:96,1,110,0|0,0:0|0:0,0:0:0:0:
216,192,29053,2,0,P|273:201|312:232,1,110,0|8,0:0|0:0,0:0:0:0:
408,288,29923,5,0,0:0:0:0:
480,208,30357,1,0,0:0:0:0:
424,112,30792,2,0,P|364:56|272:56,2,165
348,188,32531,2,4,P|300:216|272:264,1,110
216,356,33401,6,0,P|163:372|112:356,2,110,4|0|0,0:0|0:0|0:0,0:0:0:0:
168,256,34705,1,8,0:0:0:0:
200,152,35140,2,0,P|240:112|296:104,1,110
288,216,36010,2,0,P|248:256|192:264,1,110,0|8,0:0|0:0,0:0:0:0:
112,192,36879,5,0,0:0:0:0:
192,120,37314,2,0,L|304:120,1,110
408,160,38184,1,8,0:0:0:0:
408,104,38401,2,0,P|368:40|280:24,1,165
280,136,39488,2,0,L|280:256,1,110,4|0,0:0|0:0,0:0:0:0:
176,288,40357,6,0,P|128:192|184:88,1,220,4|8,0:0|0:0,0:0:0:0:
256,24,41662,1,2,0:0:0:0:
339,96,42097,2,0,P|384:192|336:288,1,220,4|8,0:0|0:0,0:0:0:0:
256,364,43401,1,0,1:0:0:0:
148,344,43836,6,0,P|60:288|36:176,1,220,4|8,0:0|0:0,0:0:0:0:
92,84,45140,2,0,L|208:84,1,110,2|4,0:0|0:0,0:0:0:0:
312,88,46010,1,2,0:0:0:0:
396,156,46444,2,0,P|423:203|414:271,1,110,0|0,1:0|1:0,0:0:0:0:
352,344,47314,6,0,P|300:360|240:336,1,110,4|8,0:0|0:0,0:0:0:0:
196,248,48184,2,0,P|248:232|308:256,1,110,0|8,0:0|0:0,0:0:0:0:
344,148,49053,6,0,P|256:92|168:156,1,220
104,236,50357,1,8,0:0:0:0:
152,336,50792,5,4,0:0:0:0:
256,360,51227,1,0,0:0:0:0:
360,336,51662,1,0,0:0:0:0:
408,236,52097,1,0,0:0:0:0:
408,128,52531,6,0,P|400:72|368:32,1,110,4|0,0:0|0:0,0:0:0:0:
292,112,53401,2,0,P|300:168|332:208,1,110,4|0,0:0|0:0,0:0:0:0:
176,264,54488,6,0,P|112:312|47:257,1,165,4|4,0:0|0:0,0:0:0:0:
116,180,55575,1,0,0:0:0:0:
208,150,56010,6,0,P|256:136|312:152,1,110,4|8,0:0|0:0,0:0:0:0:
364,244,56879,2,0,L|300:340,1,110,0|8,0:0|0:0,0:0:0:0:
256,364,57531,1,0,0:0:0:0:
208,336,57749,2,0,L|148:240,1,110,0|8,0:0|0:0,0:0:0:0:
176,136,58618,2,0,P|212:92|268:80,1,110,0|8,0:0|0:0,0:0:0:0:
368,48,59488,6,0,P|416:80|432:136,1,110,0|8,0:0|0:0,0:0:0:0:
328,152,60357,2,0,P|345:199|393:231,1,110,0|8,0:0|0:0,0:0:0:0:
496,200,61227,6,0,P|480:304|376:340,1,220
272,340,62531,1,8,0:0:0:0:
160,344,62966,6,0,B|68:364|68:196|160:216,1,220,4|0,0:0|0:0,0:0:0:0:
252,280,64271,1,8,0:0:0:0:
340,344,64705,6,0,B|432:364|432:196|340:216,1,220,4|0,0:0|0:0,0:0:0:0:
252,280,66010,1,8,0:0:0:0:
144,280,66444,6,0,L|32:280,2,110,4|8|0,0:0|0:0|0:0,0:0:0:0:
136,168,67749,1,8,0:0:0:0:
32,128,68184,6,0,P|64:80|128:60,1,110,0|8,0:0|0:0,0:0:0:0:
220,76,69053,1,0,0:0:0:0:
316,128,69488,1,8,0:0:0:0:
420,92,69923,6,0,P|428:200|352:280,1,220,4|0,0:0|0:0,0:0:0:0:
248,292,71227,1,8,0:0:0:0:
148,244,71662,2,0,P|111:200|97:148,1,110,0|8,0:0|0:0,2:0:0:0:
140,48,72531,2,0,P|179:83|233:99,1,110,0|8,0:0|0:0,0:0:0:0:
344,112,73401,6,0,L|454:112,1,110,4|8,0:0|0:0,0:0:0:0:
504,208,74271,2,0,L|394:208,1,110,0|8,0:0|0:0,0:0:0:0:
344,304,75140,5,0,0:0:0:0:
232,304,75575,2,0,B|172:304|172:304|120:280,1,110,8|0,0:0|0:0,0:0:0:0:
72,192,76444,1,8,0:0:0:0:
184,192,76879,6,0,B|272:192|272:192|344:128,1,165,4|4,0:0|0:0,0:0:0:0:
400,288,78184,1,8,0:0:0:0:
288,288,78618,6,0,L|120:288,1,165,4|4,0:0|0:0,0:0:0:0:
208,144,79923,1,8,0:0:0:0:
120,80,80357,6,0,P|64:96|24:136,1,110,4|8,0:0|0:0,0:0:0:0:
8,184,81010,1,0,0:0:0:0:
16,240,81227,2,0,P|53:274|109:290,1,110,4|8,0:0|0:0,0:0:0:0:
256,192,82097,12,0,84705,0:0:0:0:
348,176,85575,6,0,L|236:176,1,110,0|8,0:0|0:0,0:0:0:0:
184,180,86227,1,0,0:0:0:0:
148,220,86444,2,0,P|132:276|148:324,2,110
148,108,87749,6,0,P|156:64|144:20,2,82.5
100,136,88618,1,4,0:0:0:0:
