osu file format v10

[General]
AudioFilename: SELF PRODUCER.mp3
AudioLeadIn: 2000
PreviewTime: 55884
Countdown: 0
SampleSet: Soft
StackLeniency: 0.4
Mode: 0
LetterboxInBreaks: 0

[Editor]
DistanceSpacing: 0.8
BeatDivisor: 4
GridSize: 4

[Metadata]
Title:SELF PRODUCER (TV Size)
TitleUnicode:SELF PRODUCER (TV Size)
Artist:Chihara Minori
ArtistUnicode:Chihara Minori
Creator:Fumika
Version:Quilt's Normal
Source:Onii-chan Dakedo Ai Sae Areba Kankeinai yo ne
Tags:opening Netsukawa Ryafuka Quilt nich95 Nichiyouki climbb65588 No_Gu NoGu Onii-Ai
BeatmapID:190235
BeatmapSetID:63458

[Difficulty]
HPDrainRate:4
CircleSize:4
OverallDifficulty:4
ApproachRate:4
SliderMultiplier:1.26
SliderTickRate:1

[Events]
//Background and Video events
0,0,"Kyaaa.png"
//Break Periods
2,23258,25216
//Storyboard Layer 0 (Background)
//Storyboard Layer 1 (Fail)
//Storyboard Layer 2 (Pass)
//Storyboard Layer 3 (Foreground)
//Storyboard Sound Samples
//Background Colour Transformations
3,100,163,162,255

[TimingPoints]
450,434.782608695652,4,2,1,60,1,0
1319,-100,4,2,1,50,0,0
1754,-100,4,2,1,60,0,0
3058,-100,4,2,1,50,0,0
3493,-100,4,2,1,60,0,0
4797,-100,4,2,1,50,0,0
5232,-100,4,2,1,60,0,0
7406,-100,4,2,1,70,0,0
14363,-100,4,2,1,50,0,0
15015,-100,4,2,1,70,0,0
16102,-100,4,2,1,50,0,0
16319,-100,4,2,1,70,0,0
16754,-100,4,2,1,50,0,0
16863,-100,4,2,1,70,0,0
23058,-100,4,2,1,50,0,0
26536,-100,4,2,1,60,0,0
40449,-100,4,2,1,40,0,0
41319,-100,4,2,1,30,0,0
41754,-100,4,2,1,40,0,0
43058,-100,4,2,1,30,0,0
43493,-100,4,2,1,40,0,0
47406,-100,4,2,1,50,0,0
52623,-100,4,2,1,60,0,0
56102,-100,4,2,1,75,0,1
68928,-100,4,2,1,65,0,1
69906,-100,4,2,1,75,0,0
70015,-100,4,2,1,75,0,1
78710,-100,4,2,1,60,0,1
78928,-100,4,2,1,75,0,1
80015,-100,4,2,1,60,0,1
80232,-100,4,2,1,75,0,1
82189,-100,4,2,1,75,0,0
83928,-100,4,2,1,60,0,0

[Colours]
Combo1 : 128,0,128
Combo2 : 128,0,255
Combo3 : 255,0,128
Combo4 : 255,236,0
Combo5 : 0,128,128
Combo6 : 251,251,251
Combo7 : 128,255,0
Combo8 : 255,128,192

[HitObjects]
316,128,450,2,0,B|256:96|196:128,2,126,4|2|8,0:0|0:0|0:0,0:0:0
392,196,1754,1,2,0:0:0
316,260,2189,2,0,B|256:292|196:260,1,126,0|2,0:0|0:0,0:0:0
120,196,3058,1,8,0:0:0
176,112,3493,1,2,0:0:0
232,196,3928,6,0,B|274:254|342:238,1,126,4|2,0:0|0:0,0:0:0
328,140,4797,2,0,B|285:81|217:97,1,126,8|2,0:0|0:0,0:0:0
120,120,5667,5,4,0:0:0
24,156,6102,2,0,B|68:216,1,63,2|0,0:0|0:0,0:0:0
88,304,6754,2,0,B|76:340|32:356,2,63,0|2|0,0:0|0:0|0:0,0:0:0
104,256,7406,6,0,B|132:192|208:200,1,126,4|2,0:0|0:0,0:0:0
288,260,8276,1,0,0:0:0
390,247,8710,1,2,0:0:0
484,212,9145,2,0,B|524:152|500:88,1,126,0|2,0:0|0:0,0:0:0
408,128,10015,2,0,B|368:188|392:252,1,126,0|2,0:0|0:0,0:0:0
400,296,10667,6,0,B|388:332|340:332,1,63
252,344,11319,1,2,0:0:0
152,328,11754,1,0,0:0:0
76,264,12189,1,2,0:0:0
32,176,12623,2,0,B|0:112|36:44,2,126,0|2|0,0:0|0:0|0:0,0:0:0
72,204,13710,2,0,B|148:204|172:276,1,126,0|2,0:0|0:0,0:0:0
172,320,14363,6,0,B|220:368|288:344,1,126,4|0,0:0|0:0,0:0:0
320,296,15015,2,0,B|356:236|428:252,1,126,4|0,0:0|0:0,0:0:0
512,308,15884,2,0,B|512:380,2,63,0|4|2,0:0|0:0|0:0,0:0:0
512,208,16754,2,0,B|512:96|400:72,1,189,4|0,0:0|0:0,0:0:0
304,60,17841,5,4,0:0:0
196,232,18710,2,0,B|148:248|104:232,2,94.5,4|0|2,0:0|0:0|0:0,0:0:0
256,192,19580,12,4,23058,0:0:0
164,128,26536,6,0,P|128:100|80:100|48:128,2,126,4|2|0,0:0|0:0|0:0,0:0:0
208,220,27841,1,2,0:0:0
252,312,28276,2,0,P|284:340|332:340|368:312,1,126,0|2,0:0|0:0,0:0:0
452,256,29145,1,0,0:0:0
476,160,29580,1,2,0:0:0
424,72,30015,6,0,P|384:16|312:32|312:32,1,126,0|2,0:0|0:0,0:0:0
272,124,30884,2,0,P|212:140|164:104,1,126,0|2,0:0|0:0,0:0:0
148,56,31536,2,0,P|146:55|72:28|36:96,1,126
16,136,32189,1,2,0:0:0
28,236,32623,6,0,P|44:304|116:320|116:320,2,126,4|4|0,0:0|0:0|0:0,0:0:0
16,136,33928,1,2,0:0:0
104,88,34363,2,0,P|80:48|36:36,2,94.5,2|2|2,0:0|0:0|0:0,0:0:0
116,136,35232,1,0,0:0:0
160,228,35667,1,2,0:0:0
224,304,36102,2,0,P|200:364,2,63,0|0|2,0:0|0:0|0:0,0:0:0
244,260,36754,1,0,0:0:0
236,160,37189,6,0,P|188:116,2,63,0|2|0,0:0|0:0|0:0,0:0:0
272,196,37841,2,0,P|316:236|384:224,1,126
412,192,38493,1,4,0:0:0
360,108,38928,2,0,P|420:88|476:116,2,126,8|0|0,0:0|0:0|0:0,0:0:0
316,136,40015,1,2,0:0:0
220,112,40449,6,0,P|108:172|128:284,1,252,4|8,0:0|0:0,0:0:0
208,336,41754,1,2,0:0:0
308,352,42189,2,0,P|376:348|396:272,2,126,0|2|8,0:0|0:0|0:0,0:0:0
208,336,43493,1,4,3:0:0
160,248,43928,6,0,P|174:177|248:164|246:165,1,126,4|2,0:0|0:0,0:0:0
348,164,44797,1,8,0:0:0
324,260,45232,1,2,0:0:0
256,332,45667,2,0,P|200:356|144:324,2,126,4|2|8,0:0|0:0|0:0,0:0:0
324,260,46971,1,8,0:0:0
420,224,47406,6,0,P|444:168|428:104,1,126,4|2,0:0|0:0,0:0:0
392,72,48058,1,2,0:0:0
344,92,48276,2,0,P|260:96|228:60,1,126,0|2,0:0|0:0,0:0:0
192,32,48928,2,0,P|132:-8|72:36|72:36,2,126,0|2|0,0:0|0:0|0:0,0:0:0
240,52,50015,2,0,P|316:72|312:152|312:152,1,126,0|2,0:0|0:0,0:0:0
308,244,50884,5,4,0:0:0
228,304,51319,1,2,0:0:0
144,248,51754,1,0,0:0:0
176,152,52189,1,2,0:0:0
276,148,52623,2,0,P|272:88|228:36,2,126,4|2|0,0:0|0:0|0:0,0:0:0
216,232,53928,1,2,0:0:0
96,324,54580,6,0,P|52:340|8:328,2,94.5,4|0|4,0:0|0:0|0:0,0:0:0
236,88,56102,5,4,0:0:0
184,176,56536,2,0,P|181:174|248:216|301:166,1,126,2|0,0:0|0:0,0:0:0
364,88,57406,1,2,0:0:0
464,72,57841,1,0,0:0:0
500,168,58276,2,0,P|504:248|444:272|444:272,1,126,2|0,0:0|0:0,0:0:0
352,312,59145,6,0,P|372:376,2,63,2|0|0,0:0|0:0|0:0,0:0:0
324,216,60015,1,2,0:0:0
268,132,60449,1,0,0:0:0
172,100,60884,1,2,0:0:0
72,108,61319,2,0,P|4:144|16:220|16:220,2,126,0|2|0,0:0|0:0|0:0,0:0:0
124,100,62406,2,0,P|184:112|240:80,1,126,2|0,0:0|0:0,0:0:0
272,44,63058,6,0,P|360:48|432:184,1,252,4|0,0:0|0:0,0:0:0
292,324,64797,2,0,P|204:320|132:184,1,252,4|0,0:0|0:0,0:0:0
312,100,66536,6,0,P|316:44|368:28|368:28,2,94.5,4|2|0,0:0|0:0|0:0,0:0:0
308,152,67406,1,0,0:0:0
324,352,68276,2,0,P|292:292|216:300|216:300,1,126,4|0,0:0|0:0,0:0:0
168,308,68928,2,0,P|52:304|48:184|48:184,1,189,4|0,0:0|0:0,0:0:0
76,88,70015,5,4,0:0:0
176,72,70449,1,2,0:0:0
216,164,70884,2,0,P|248:232|320:224|320:224,1,126,0|2,0:0|0:0,0:0:0
380,144,71754,2,0,P|348:76|276:84|276:84,1,126,0|2,0:0|0:0,0:0:0
216,164,72623,2,0,P|217:163|145:171|113:103,1,126,0|2,0:0|0:0,0:0:0
96,56,73276,6,0,P|152:24,1,63
252,20,73928,2,0,P|320:0|376:40|376:40,2,126,2|0|2,0:0|0:0|0:0,0:0:0
152,40,75232,1,0,0:0:0
76,104,75667,1,2,0:0:0
56,204,76102,1,0,0:0:0
92,300,76536,1,2,0:0:0
176,356,76971,6,0,P|276:372|348:324,1,189,4|4,0:0|0:0,0:0:0
400,132,78493,2,0,P|400:64,2,63,2|4|0,0:0|0:0|0:0,0:0:0
396,232,79363,2,0,P|364:309|273:353,1,189,4|2,0:0|0:0,0:0:0
224,344,80232,6,0,P|192:336|168:312,1,63,0|4,0:0|0:0,0:0:0
100,240,80884,1,0,0:0:0
112,140,81319,2,0,P|72:104|32:104,2,94.5
132,188,82189,6,0,P|264:332|452:156,1,504,4|0,0:0|0:0,0:0:0
452,60,84363,5,2,0:0:0
360,20,84797,1,0,0:0:0
260,20,85232,2,0,P|180:20|148:72|148:72,1,126,2|4,0:0|0:0,0:0:0
84,148,86102,5,2,0:0:0
44,240,86536,1,4,0:0:0
120,304,86971,1,2,0:0:0
208,252,87406,1,4,0:0:0
188,156,87841,2,0,P|212:88|288:84|288:84,2,126,2|0|4,0:0|0:0|0:0,0:0:0
