osu file format v5

[General]
AudioFilename: Paradise Lost.mp3
AudioLeadIn: 0
PreviewTime: 80520
Countdown: 0
SampleSet: Normal
StackLeniency: 0.2
Mode: 0
LetterboxInBreaks: 1
EditorBookmarks: 28700

[Metadata]
Title:Paradise Lost (TV Size)
Artist:Chihara Minori
Creator:DJPop
Version:Normal
Source:Ga-Rei Zero
Tags:anime paradise lost chihara minori ga rei garei zero mad strike witches

[Difficulty]
HPDrainRate:4
CircleSize:5
OverallDifficulty:4
SliderMultiplier:1.6
SliderTickRate:1

[Events]
//Background and Video events
0,0,"Paradise Lost.png"
1,-900,"Paradise Lost.avi"
//Break Periods
//Storyboard Layer 0 (Background)
//Storyboard Layer 1 (Failing)
//Storyboard Layer 2 (Passing)
//Storyboard Layer 3 (Foreground)
//Storyboard Sound Samples
//Background Colour Transformations
3,100,0,0,0

[TimingPoints]
1067,363.636363636364,4,1,0,80,1,0
46157,-200,4,1,0,80,0,0
46339,-200,4,2,0,80,0,0
56248,-200,4,2,0,50,0,0
56430,-200,4,2,0,60,0,0
56612,-200,4,2,0,70,0,0
56794,-200,4,2,0,80,0,0
56976,-200,4,2,0,90,0,0
57157,-200,4,2,0,100,0,0
57339,-200,4,1,0,80,0,0
57794,-100,4,1,0,80,0,0
79430,-100,4,1,2,80,0,0
79612,-100,4,1,2,80,0,1
80703,-100,4,1,0,80,0,1
104248,-100,4,1,0,80,0,0
114339,-100,4,1,0,80,0,1
115975,-100,4,1,0,0,0,0

[Colours]
Combo1 : 80,80,48
Combo2 : 48,80,48
Combo3 : 48,48,80
Combo4 : 80,48,48

[HitObjects]
480,32,34521,5,4
416,32,34885,1,8
352,32,35248,1,0
288,32,35612,1,8
256,32,35794,1,4
256,96,36157,5,0
256,128,36339,1,8
256,160,36521,1,4
256,224,36885,1,0
256,256,37067,1,8
256,320,37430,5,4
192,320,37794,1,8
128,320,38157,1,0
64,320,38521,1,8
32,320,38703,6,0,C|32:160,1,160,4|8
32,128,39248,1,8
32,96,39430,2,0,C|192:96,1,160,4|8
224,96,39976,1,4
224,160,40339,5,4
224,224,40703,1,8
288,224,41067,1,0
352,224,41430,1,8
384,224,41612,1,4
384,160,41976,5,0
384,128,42157,1,8
384,96,42339,1,4
448,96,42703,1,0
480,96,42885,1,8
480,32,43248,6,0,C|320:32,2,160,4|8|0
480,96,44339,1,8
480,128,44521,1,4
480,192,44885,5,8
480,224,45066,1,4
480,288,45430,1,8
480,320,45612,2,0,B|416:368|369:360|320:368|256:320,1,240,4|4
256,256,46521,5,0
192,256,46885,1,0
192,256,47066,1,0
192,320,47430,1,0
128,320,47794,5,0
128,320,47976,1,0
128,320,48157,2,0,B|71:320|32:256,1,120
32,192,49066,5,2
96,192,49430,1,0
96,128,49794,1,0
160,128,50157,1,0
160,128,50339,1,0
160,64,50703,5,0
160,64,50885,1,0
160,64,51066,2,0,B|191:-9|256:32,1,120
320,32,51976,5,2
320,96,52339,1,0
384,96,52703,1,0
384,160,53066,1,0
384,160,53248,1,0
448,160,53612,5,0
448,160,53794,1,0
448,160,53976,2,0,B|405:224|480:256,1,120
480,320,54885,6,0,B|448:366|416:320,1,80,2|0
352,320,55612,1,0
288,320,55976,1,0
256,320,56157,6,0,B|256:361,6,40,0|2|2|2|2|2|2
256,320,57430,1,0
192,320,57794,5,4
192,256,58157,1,8
128,256,58521,1,0
64,256,58885,1,8
64,224,59067,1,0
64,160,59430,5,0
96,160,59612,1,8
128,160,59794,1,0
128,96,60157,1,0
128,64,60339,1,8
192,64,60703,5,0
256,64,61066,1,8
256,128,61430,1,0
256,192,61794,1,8
288,192,61976,6,0,C|448:192,1,160
480,192,62521,1,8
480,224,62703,2,0,B|494:320|384:320,1,160
352,320,63248,1,8
288,320,63612,5,0
288,256,63976,1,8
224,256,64339,1,0
224,320,64703,1,8
224,352,64885,1,0
160,352,65248,5,0
128,352,65430,1,8
64,352,65794,1,0
64,288,66157,1,8
64,256,66339,1,0
64,224,66521,6,0,C|64:64,3,160,0|8|0|8
128,64,67976,5,2
128,64,68157,1,2
128,64,68339,1,10
128,64,68521,1,2
192,64,68885,2,0,B|240:78|256:32,1,80,10|8
320,32,69430,5,4
384,32,69794,1,8
384,96,70157,1,0
320,96,70521,1,8
320,160,70885,6,0,B|256:160|266:210|256:256|320:256,1,160,0|8
384,256,71612,1,0
384,192,71976,1,8
448,192,72339,5,0
448,256,72703,1,8
448,320,73067,1,0
384,320,73431,1,8
320,320,73794,6,0,C|160:320,3,160,0|8|0|8
160,256,75248,5,4
160,192,75612,1,8
224,192,75976,1,0
224,128,76339,1,8
224,96,76521,1,0
224,32,76885,6,0,B|306:32,2,80,0|8|0
160,32,77612,2,0,B|113:17|96:64,1,80,0|8
32,64,78157,6,0,C|32:224,1,160,0|8
32,256,78703,1,0
32,288,78885,1,0
32,352,79248,1,8
96,352,79612,5,6
256,192,79703,12,0,80703
416,32,81066,5,4
480,32,81429,1,8
480,96,81793,1,0
480,160,82157,1,8
448,160,82339,1,0
448,224,82703,5,0
416,224,82884,1,8
384,224,83067,1,0
384,288,83430,1,0
384,320,83611,1,8
320,320,83975,6,0,C|160:320,3,160,0|8|0|8
160,256,85430,6,0,B|208:188|256:256,2,120,0|8|8
128,256,86157,2,0,B|18:256|32:160,1,160,4|8
32,96,86884,5,4
96,96,87248,1,8
96,32,87611,1,0
160,32,87975,1,8
224,32,88339,6,0,B|251:128|160:160,2,160,0|8|0
288,32,89429,1,8
352,32,89793,5,0
400,64,90067,1,8
352,96,90338,1,8
352,128,90520,1,0
304,160,90794,1,8
352,192,91066,1,8
352,224,91248,5,10
400,256,91520,1,10
352,288,91793,1,10
352,320,91976,2,0,C|192:320,1,160,4|2
192,256,92702,5,4
128,256,93066,1,8
128,192,93429,1,0
128,128,93793,1,8
160,128,93976,6,0,B|257:103|288:192,1,160,0|0
288,224,94520,1,8
288,256,94702,2,0,B|320:346|416:320,1,160
448,320,95248,1,8
448,256,95611,6,0,C|448:96,3,160,0|8|0|8
384,96,97067,6,0,B|336:96|332:64|336:32|384:32,2,120,0|8|8
384,128,97793,2,0,B|368:160|336:176|321:171|304:176|272:160|256:128,1,160,4|8
256,64,98521,6,0,B|160:50|160:160,1,160,4|8
160,192,99066,1,0
160,224,99248,2,0,B|160:335|256:320,1,160,0|8
320,320,99975,5,0
384,320,100338,1,8
448,320,100702,2,0,B|496:288|500:256|496:224|448:192,1,160,0|8
384,192,101429,6,0,B|325:143|288:64,1,160,4|8
224,64,102157,2,0,B|184:144|128:192,1,160,0|8
64,192,102884,5,10
16,224,103157,1,10
64,256,103429,2,2,B|128:352|192:359|256:352|320:256,1,320,14|10
320,224,104338,5,4
320,160,104702,1,8
352,160,104884,2,0,B|352:96|384:64|416:63|448:64|480:96|480:160,1,240,0|8
480,224,105793,5,0
416,224,106157,1,8
384,224,106338,2,0,B|286:224|289:352|192:352,1,240,0|8
128,352,107248,6,0,B|99:288|62:288|32:224,3,160,0|8|0|8
32,160,108702,5,10
80,128,108975,1,10
128,160,109248,2,2,B|160:96|224:64|256:74|288:64|352:96|384:160,1,320,6|2
384,192,110157,5,4
448,192,110520,1,8
448,224,110702,2,0,B|448:288|416:320|385:322|352:320|320:288|320:224,1,240,0|8
320,160,111611,5,0
256,160,111975,1,8
256,192,112157,2,0,B|256:256|227:288|192:288|160:288|128:256|128:192,1,240,0|8
128,128,113067,5,4
128,96,113248,1,0
128,64,113430,1,8
128,32,113612,1,10
192,32,113975,5,10
256,32,114338,1,4
256,192,114429,12,0,115975
