osu file format v12

[General]
AudioFilename: Kyoukai no Kanata.mp3
AudioLeadIn: 0
PreviewTime: 52895
Countdown: 0
SampleSet: Soft
StackLeniency: 0.7
Mode: 3
LetterboxInBreaks: 0
SpecialStyle: 0
WidescreenStoryboard: 1

[Editor]
Bookmarks: 21921,23225,25833
DistanceSpacing: 1.4
BeatDivisor: 4
GridSize: 32

[Metadata]
Title:Kyoukai no Kanata (TV Size)
TitleUnicode:境界の彼方 (TV Size)
Artist:Chihara Minori
ArtistUnicode:茅原実里
Creator:YunoFanatic
Version:Normal
Source:Kyoukai no Kanata
Tags:Beyond the Boundary opening Kuriyama Mirai Daisuke Kikuta
BeatmapID:354592
BeatmapSetID:142382

[Difficulty]
HPDrainRate:7
CircleSize:4
OverallDifficulty:7
ApproachRate:5
SliderMultiplier:1.4
SliderTickRate:1

[Events]
//Background and Video events
0,0,"kyokai no kanata.png",0,0
//Break Periods
//Storyboard Layer 0 (Background)
//Storyboard Layer 1 (Fail)
//Storyboard Layer 2 (Pass)
//Storyboard Layer 3 (Foreground)
//Storyboard Sound Samples
//Background Colour Transformations
3,100,163,162,255

[TimingPoints]
1085,324.324324324324,4,2,1,40,1,0
10170,326.086956521739,4,2,1,40,1,0
11492,324.324324324324,4,2,1,40,1,0
17021,329.67032967033,4,2,1,40,1,0
19313,326.044428987523,4,2,1,40,1,0
53221,-100,4,2,1,50,0,1
79305,-100,4,2,1,40,0,0
82614,357.142857142857,4,2,1,40,1,0
83447,555.555555555556,4,2,1,40,1,0

[HitObjects]
64,192,1085,1,0,0:0:0:0:
192,192,1085,1,0,0:0:0:0:
320,192,1409,1,0,0:0:0:0:
448,192,1733,1,0,0:0:0:0:
320,192,2057,1,0,0:0:0:0:
192,192,2382,1,0,0:0:0:0:
64,192,2382,1,0,0:0:0:0:
320,192,2706,1,0,0:0:0:0:
448,192,3030,1,0,0:0:0:0:
320,192,3355,1,0,0:0:0:0:
192,192,3679,1,0,0:0:0:0:
64,192,3679,1,0,0:0:0:0:
320,192,4003,1,0,0:0:0:0:
448,192,4328,1,0,0:0:0:0:
320,192,4652,1,0,0:0:0:0:
192,192,4976,1,0,0:0:0:0:
64,192,4976,1,0,0:0:0:0:
448,192,5301,1,0,0:0:0:0:
320,192,5625,1,0,0:0:0:0:
192,192,5949,1,0,0:0:0:0:
320,192,6274,1,0,0:0:0:0:
448,192,6274,1,0,0:0:0:0:
64,192,6598,1,0,0:0:0:0:
320,192,6922,1,0,0:0:0:0:
448,192,7247,1,0,0:0:0:0:
192,192,7571,1,0,0:0:0:0:
64,192,7571,1,0,0:0:0:0:
448,192,7895,1,0,0:0:0:0:
192,192,8220,1,0,0:0:0:0:
64,192,8544,1,0,0:0:0:0:
320,192,8868,1,0,0:0:0:0:
448,192,8868,1,0,0:0:0:0:
64,192,9193,1,0,0:0:0:0:
320,192,9517,1,0,0:0:0:0:
448,192,9841,1,0,0:0:0:0:
64,192,10170,1,0,0:0:0:0:
192,192,10170,1,0,0:0:0:0:
448,192,10496,1,0,0:0:0:0:
64,192,10822,1,0,0:0:0:0:
320,192,11148,1,0,0:0:0:0:
192,192,11492,1,4,0:0:0:0:
448,192,11492,1,2,0:0:0:0:
448,192,11816,1,2,0:0:0:0:
64,192,12140,1,0,0:0:0:0:
320,192,12140,1,2,0:0:0:0:
64,192,12464,1,2,0:0:0:0:
448,192,12789,1,2,0:0:0:0:
320,192,12789,1,0,0:0:0:0:
448,192,13113,1,2,0:0:0:0:
64,192,13437,1,2,0:0:0:0:
192,192,13437,1,0,0:0:0:0:
64,192,13762,1,2,0:0:0:0:
192,192,14086,1,2,0:0:0:0:
320,192,14086,1,4,0:0:0:0:
448,192,14410,1,0,0:0:0:0:
192,192,14735,1,10,0:0:0:0:
320,192,14897,1,10,0:0:0:0:
448,192,15059,1,10,0:0:0:0:
320,192,15221,1,10,0:0:0:0:
192,192,15383,1,10,0:0:0:0:
320,192,15546,1,10,0:0:0:0:
448,192,15708,1,10,0:0:0:0:
64,192,15870,1,10,0:0:0:0:
192,192,16032,1,10,0:0:0:0:
320,192,16194,1,4,0:3:0:0:
192,192,16356,1,4,0:3:0:0:
64,192,16519,1,4,0:3:0:0:
320,192,16681,1,6,0:0:0:0:
448,192,16681,1,0,0:0:0:0:
320,192,17021,1,8,0:0:0:0:
64,192,17185,1,0,0:0:0:0:
192,192,17350,1,8,0:0:0:0:
320,192,17350,1,0,0:0:0:0:
320,192,17680,1,8,0:0:0:0:
448,192,18010,1,8,0:0:0:0:
320,192,18339,1,8,0:0:0:0:
192,192,18669,1,8,0:0:0:0:
320,192,18669,1,0,0:0:0:0:
64,192,18999,1,8,0:0:0:0:
192,192,19313,1,8,0:0:0:0:
320,192,19476,1,10,0:0:0:0:
448,192,19639,1,10,0:0:0:0:
64,192,19802,1,10,0:0:0:0:
320,192,19965,1,10,0:0:0:0:
192,192,20128,1,10,0:0:0:0:
448,192,20291,1,10,0:0:0:0:
64,192,20454,1,10,0:0:0:0:
320,192,20617,1,10,0:0:0:0:
192,192,20780,1,10,0:0:0:0:
448,192,20943,128,0,21269:0:0:0:0:
192,192,21269,1,0,0:0:0:0:
64,192,21269,128,0,21921:0:0:0:0:
320,192,21595,1,8,0:0:0:0:
448,192,21921,1,4,0:0:0:0:
192,192,22247,1,8,0:0:0:0:
320,192,22573,1,2,0:0:0:0:
64,192,22899,1,8,0:0:0:0:
448,192,23225,1,2,0:0:0:0:
64,192,23225,1,0,0:0:0:0:
192,192,23551,1,8,0:0:0:0:
320,192,23877,1,2,0:0:0:0:
64,192,24203,1,8,0:0:0:0:
448,192,24529,1,2,0:0:0:0:
320,192,24529,1,4,0:0:0:0:
192,192,24855,1,8,0:0:0:0:
320,192,25181,1,2,0:0:0:0:
192,192,25507,1,8,0:0:0:0:
64,192,25833,1,2,0:0:0:0:
448,192,25833,1,4,0:0:0:0:
320,192,25996,1,8,0:0:0:0:
192,192,26322,1,0,0:0:0:0:
64,192,26648,1,2,0:0:0:0:
320,192,26812,1,0,0:0:0:0:
192,192,27138,1,4,0:0:0:0:
448,192,27138,1,2,0:3:0:0:
320,192,27464,1,2,0:0:0:0:
448,192,27790,1,2,0:0:0:0:
64,192,28116,1,2,0:0:0:0:
320,192,28442,1,2,0:0:0:0:
448,192,28442,1,0,0:3:0:0:
192,192,28768,1,2,0:0:0:0:
448,192,29094,1,2,0:0:0:0:
64,192,29420,1,2,0:0:0:0:
320,192,29746,1,4,0:0:0:0:
448,192,29746,1,0,0:0:0:0:
192,192,30072,1,2,0:0:0:0:
448,192,30398,1,2,0:0:0:0:
64,192,30724,1,2,0:0:0:0:
192,192,31050,1,2,0:0:0:0:
448,192,31050,1,0,0:0:0:0:
320,192,31376,1,2,0:0:0:0:
448,192,31702,1,2,0:0:0:0:
320,192,32028,1,2,0:0:0:0:
64,192,32354,1,4,0:0:0:0:
192,192,32354,1,0,0:0:0:0:
320,192,32680,1,2,0:0:0:0:
64,192,33006,1,2,0:0:0:0:
192,192,33332,1,2,0:0:0:0:
448,192,33658,1,0,0:0:0:0:
320,192,33658,1,2,0:0:0:0:
192,192,33984,1,2,0:0:0:0:
64,192,34311,1,2,0:0:0:0:
320,192,34637,1,2,0:0:0:0:
192,192,34963,1,0,0:0:0:0:
64,192,34963,1,4,0:0:0:0:
320,192,35289,1,2,0:0:0:0:
448,192,35615,1,2,0:0:0:0:
192,192,35941,1,2,0:0:0:0:
320,192,36267,1,0,0:0:0:0:
448,192,36267,1,0,0:0:0:0:
192,192,36593,1,4,0:0:0:0:
64,192,36919,1,10,0:0:0:0:
192,192,37082,1,10,0:0:0:0:
320,192,37245,1,10,0:0:0:0:
448,192,37408,1,10,0:0:0:0:
64,192,37571,1,4,0:0:0:0:
192,192,37571,1,0,0:0:0:0:
320,192,37897,1,8,0:0:0:0:
192,192,38060,1,2,0:0:0:0:
64,192,38060,1,4,0:0:0:0:
192,192,38386,1,8,0:0:0:0:
320,192,38549,1,0,0:0:0:0:
448,192,38549,1,4,0:0:0:0:
64,192,39038,1,10,0:0:0:0:
192,192,39201,1,10,0:0:0:0:
320,192,39364,1,10,0:0:0:0:
448,192,39527,1,10,0:0:0:0:
192,192,39690,1,10,0:0:0:0:
320,192,39853,1,10,0:0:0:0:
448,192,40016,1,10,0:0:0:0:
320,192,40179,1,0,0:0:0:0:
64,192,40179,1,4,0:0:0:0:
192,192,40505,1,8,0:0:0:0:
320,192,40668,1,4,0:0:0:0:
448,192,40668,1,0,0:0:0:0:
320,192,40994,1,8,0:0:0:0:
192,192,41157,1,4,0:0:0:0:
64,192,41157,1,0,0:0:0:0:
448,192,41484,1,2,0:0:0:0:
192,192,41810,1,2,0:0:0:0:
448,192,42136,1,2,0:0:0:0:
320,192,42462,1,2,0:0:0:0:
192,192,42788,1,2,0:0:0:0:
64,192,42788,1,4,0:0:0:0:
320,192,43114,1,8,0:0:0:0:
448,192,43277,1,8,0:0:0:0:
192,192,43277,1,4,0:0:0:0:
192,192,43603,1,8,0:0:0:0:
320,192,43766,1,2,0:0:0:0:
64,192,43766,1,4,0:0:0:0:
448,192,44092,1,0,0:0:0:0:
192,192,44418,1,0,0:0:0:0:
64,192,44744,1,8,0:0:0:0:
320,192,44907,1,8,0:0:0:0:
448,192,45070,1,8,0:0:0:0:
192,192,45233,1,8,0:0:0:0:
320,192,45396,1,4,0:0:0:0:
448,192,45396,1,2,0:0:0:0:
192,192,45722,1,2,0:0:0:0:
64,192,46048,1,0,0:0:0:0:
192,192,46048,1,0,0:0:0:0:
320,192,46374,1,2,0:0:0:0:
448,192,46700,1,0,0:0:0:0:
320,192,46700,1,2,0:0:0:0:
192,192,46863,1,0,0:0:0:0:
64,192,47026,1,0,0:0:0:0:
192,192,47352,1,8,0:0:0:0:
320,192,47678,1,8,0:0:0:0:
448,192,48004,1,4,0:0:0:0:
192,192,48004,1,0,0:0:0:0:
320,192,48330,1,8,0:0:0:0:
320,192,48656,1,8,0:0:0:0:
64,192,48656,1,0,0:0:0:0:
192,192,48983,1,8,0:0:0:0:
64,192,49309,1,2,0:0:0:0:
448,192,49309,1,8,0:0:0:0:
192,192,49635,1,8,0:0:0:0:
320,192,49961,1,8,0:0:0:0:
448,192,49961,1,2,0:0:0:0:
192,192,50287,1,8,0:0:0:0:
448,192,50613,1,0,0:0:0:0:
64,192,50613,1,4,0:0:0:0:
320,192,50939,1,8,0:0:0:0:
64,192,51265,1,0,0:0:0:0:
192,192,51265,1,8,0:0:0:0:
320,192,51591,1,8,0:0:0:0:
64,192,51917,1,10,0:0:0:0:
192,192,52080,1,10,0:0:0:0:
448,192,52243,1,10,0:0:0:0:
320,192,52406,1,10,0:0:0:0:
192,192,52569,1,10,0:0:0:0:
320,192,52732,1,10,0:0:0:0:
192,192,52895,1,10,0:0:0:0:
320,192,53058,1,10,0:0:0:0:
448,192,53221,1,4,0:0:0:0:
64,192,53221,1,0,0:0:0:0:
192,192,53547,1,8,0:0:0:0:
320,192,53873,1,8,0:0:0:0:
64,192,54199,1,8,0:0:0:0:
448,192,54525,1,8,0:0:0:0:
192,192,54851,1,8,0:0:0:0:
320,192,55177,1,8,0:0:0:0:
64,192,55503,1,8,0:0:0:0:
448,192,55829,1,4,0:0:0:0:
192,192,56156,1,8,0:0:0:0:
320,192,56482,1,8,0:0:0:0:
64,192,56808,1,8,0:0:0:0:
448,192,57134,1,8,0:0:0:0:
320,192,57460,1,8,0:0:0:0:
64,192,57786,1,0,0:0:0:0:
320,192,57786,1,8,0:0:0:0:
192,192,58112,1,8,0:0:0:0:
448,192,58438,1,2,0:0:0:0:
192,192,58438,1,0,0:0:0:0:
320,192,58764,1,8,0:0:0:0:
192,192,59090,1,8,0:0:0:0:
64,192,59416,1,8,0:0:0:0:
192,192,59742,1,0,0:0:0:0:
320,192,60068,1,8,0:0:0:0:
448,192,60394,1,8,0:0:0:0:
320,192,60720,1,8,0:0:0:0:
192,192,61046,1,0,0:0:0:0:
64,192,61046,1,2,0:0:0:0:
320,192,61372,1,10,0:0:0:0:
448,192,61535,1,10,0:0:0:0:
192,192,61698,1,10,0:0:0:0:
64,192,61861,1,10,0:0:0:0:
64,192,62187,1,4,0:0:0:0:
448,192,62187,1,2,0:0:0:0:
192,192,62513,1,0,0:0:0:0:
320,192,62676,1,0,0:0:0:0:
64,192,63002,1,0,0:0:0:0:
448,192,63165,1,0,0:0:0:0:
64,192,63328,1,0,0:0:0:0:
448,192,63492,1,0,0:0:0:0:
64,192,63655,1,4,0:0:0:0:
192,192,63655,1,0,0:0:0:0:
320,192,63981,1,8,0:0:0:0:
192,192,64307,1,8,0:0:0:0:
448,192,64633,1,8,0:0:0:0:
64,192,64959,1,8,0:0:0:0:
320,192,65285,1,8,0:0:0:0:
192,192,65611,1,8,0:0:0:0:
448,192,65937,1,8,0:0:0:0:
64,192,66263,1,4,0:0:0:0:
320,192,66589,1,8,0:0:0:0:
192,192,66915,1,8,0:0:0:0:
64,192,67241,1,8,0:0:0:0:
448,192,67567,1,8,0:0:0:0:
320,192,67893,1,8,0:0:0:0:
192,192,68219,1,8,0:0:0:0:
64,192,68545,1,8,0:0:0:0:
448,192,68871,1,4,0:0:0:0:
192,192,68871,1,0,0:0:0:0:
320,192,69360,1,8,0:0:0:0:
64,192,69849,1,4,0:0:0:0:
320,192,69849,1,0,0:0:0:0:
192,192,70338,1,8,0:0:0:0:
320,192,70828,1,8,0:0:0:0:
448,192,70828,1,0,0:0:0:0:
192,192,71154,1,8,0:0:0:0:
64,192,71317,1,8,0:0:0:0:
192,192,71480,1,0,0:0:0:0:
448,192,71480,1,4,0:0:0:0:
320,192,71806,1,8,0:0:0:0:
448,192,71969,1,8,0:0:0:0:
64,192,72132,1,0,0:0:0:0:
192,192,72132,1,8,0:0:0:0:
320,192,72458,1,8,0:0:0:0:
448,192,72621,1,8,0:0:0:0:
320,192,72784,1,8,0:0:0:0:
448,192,72947,1,0,0:0:0:0:
192,192,73110,1,0,0:0:0:0:
64,192,73273,1,10,0:0:0:0:
192,192,73436,1,10,0:0:0:0:
320,192,73599,1,10,0:0:0:0:
448,192,73762,1,10,0:0:0:0:
320,192,73925,1,10,0:0:0:0:
192,192,74088,1,0,0:0:0:0:
64,192,74088,1,2,0:0:0:0:
448,192,74414,1,0,0:0:0:0:
320,192,74740,1,0,0:0:0:0:
448,192,75066,1,0,0:0:0:0:
64,192,75229,1,0,0:0:0:0:
192,192,75555,1,0,0:0:0:0:
320,192,75881,1,0,0:0:0:0:
448,192,76207,1,0,0:0:0:0:
192,192,76533,1,0,0:0:0:0:
64,192,76696,1,0,0:0:0:0:
192,192,77022,1,0,0:0:0:0:
320,192,77185,1,0,0:0:0:0:
448,192,77511,1,0,0:0:0:0:
320,192,77837,1,0,0:0:0:0:
192,192,78000,1,0,0:0:0:0:
64,192,78164,1,2,0:0:0:0:
192,192,78327,1,2,0:0:0:0:
320,192,78490,1,2,0:0:0:0:
64,192,78653,1,2,0:0:0:0:
192,192,78816,1,2,0:0:0:0:
320,192,78979,1,2,0:0:0:0:
448,192,79142,1,2,0:0:0:0:
64,192,79305,1,2,0:0:0:0:
192,192,79305,1,0,0:0:0:0:
320,192,79631,1,0,0:0:0:0:
192,192,79957,1,0,0:0:0:0:
64,192,80283,1,0,0:0:0:0:
192,192,80609,1,0,0:0:0:0:
448,192,80609,1,0,0:0:0:0:
320,192,80935,1,0,0:0:0:0:
192,192,81261,1,0,0:0:0:0:
64,192,81587,1,0,0:0:0:0:
192,192,81913,1,0,0:0:0:0:
448,192,81913,1,0,0:0:0:0:
320,192,82239,1,0,0:0:0:0:
64,192,82614,1,0,0:0:0:0:
448,192,82971,1,0,0:0:0:0:
320,192,83447,128,0,87891:0:0:0:0:
192,192,83447,1,0,0:0:0:0:
