osu file format v14

[General]
AudioFilename: Kyoukai no Kanata.mp3
AudioLeadIn: 0
PreviewTime: 53140
Countdown: 0
SampleSet: Normal
StackLeniency: 0.7
Mode: 1
LetterboxInBreaks: 0
WidescreenStoryboard: 0

[Editor]
DistanceSpacing: 0.8
BeatDivisor: 4
GridSize: 16
TimelineZoom: 1.8

[Metadata]
Title:Kyoukai no Kanata
TitleUnicode:境界の彼方
Artist:Chihara Minori
ArtistUnicode:茅原実里
Creator:PatZar
Version:Futsuu
Source:Kyoukai no Kanata
Tags:Beyond the Boundary Taiko Genocide Anime Mirai Kuriyama Akihito Kanbara
BeatmapID:696699
BeatmapSetID:311994

[Difficulty]
HPDrainRate:4
CircleSize:3
OverallDifficulty:4
ApproachRate:9
SliderMultiplier:1.2
SliderTickRate:1

[Events]
//Background and Video events
0,0,"Kyoukai no Kanata.jpg",0,90
//Break Periods
//Storyboard Layer 0 (Background)
//Storyboard Layer 1 (Fail)
//Storyboard Layer 2 (Pass)
//Storyboard Layer 3 (Foreground)
//Storyboard Sound Samples

[TimingPoints]
1085,324.324324324324,4,1,0,90,1,0
10170,326.086956521739,4,1,0,90,1,0
11492,324.324324324324,4,1,0,90,1,0
17021,329.67032967033,4,1,0,90,1,8
19313,326.05151613955,4,1,0,90,1,0
53222,-100,4,1,0,90,0,1
74089,-100,4,1,0,90,0,0
82647,357.142857142857,4,1,0,90,1,8
83447,555.555555555556,4,1,0,90,1,0

[HitObjects]
256,192,1085,5,8,0:0:0:0:
256,192,2057,1,8,0:0:0:0:
256,192,2382,1,0,0:0:0:0:
256,192,3355,1,8,0:0:0:0:
256,192,3679,1,0,0:0:0:0:
256,192,4976,1,0,0:0:0:0:
256,192,5625,1,8,0:0:0:0:
256,192,6274,1,0,0:0:0:0:
256,192,7571,1,8,0:0:0:0:
256,192,8220,1,0,0:0:0:0:
256,192,8868,1,8,0:0:0:0:
256,192,10170,1,8,0:0:0:0:
256,192,10822,1,0,0:0:0:0:
256,192,11148,1,8,0:0:0:0:
256,192,11474,1,4,0:0:0:0:
256,192,12140,1,8,0:0:0:0:
256,192,12789,1,8,0:0:0:0:
256,192,13762,1,8,0:0:0:0:
256,192,14086,1,0,0:0:0:0:
256,192,14735,1,0,0:0:0:0:
256,192,15383,1,8,0:0:0:0:
256,192,16032,1,0,0:0:0:0:
256,192,16356,1,8,0:0:0:0:
256,192,16681,1,4,0:0:0:0:
256,192,17350,1,8,0:0:0:0:
256,192,18010,1,0,0:0:0:0:
256,192,18339,1,8,0:0:0:0:
256,192,19313,1,12,0:0:0:0:
256,192,19639,1,0,0:0:0:0:
256,192,19965,1,8,0:0:0:0:
256,192,20617,1,0,0:0:0:0:
256,192,20943,1,8,0:0:0:0:
256,192,21269,1,0,0:0:0:0:
256,192,21921,1,0,0:0:0:0:
256,192,22899,1,8,0:0:0:0:
256,192,23225,1,8,0:0:0:0:
256,192,23388,1,0,0:0:0:0:
256,192,23877,1,0,0:0:0:0:
256,192,24529,1,8,0:0:0:0:
256,192,25507,1,0,0:0:0:0:
256,192,25834,1,8,0:0:0:0:
256,192,26812,1,8,0:0:0:0:
256,192,27138,1,8,0:0:0:0:
256,192,27790,1,0,0:0:0:0:
256,192,28442,1,8,0:0:0:0:
256,192,29094,1,8,0:0:0:0:
256,192,29746,1,0,0:0:0:0:
256,192,30724,1,0,0:0:0:0:
256,192,31376,1,0,0:0:0:0:
256,192,31702,1,8,0:0:0:0:
256,192,31865,1,0,0:0:0:0:
256,192,32029,1,8,0:0:0:0:
256,192,32355,1,8,0:0:0:0:
256,192,33007,1,8,0:0:0:0:
256,192,33333,1,0,0:0:0:0:
256,192,33659,1,8,0:0:0:0:
256,192,34311,1,8,0:0:0:0:
256,192,34637,1,8,0:0:0:0:
256,192,34963,1,0,0:0:0:0:
256,192,35615,1,8,0:0:0:0:
256,192,35941,1,8,0:0:0:0:
256,192,36267,1,0,0:0:0:0:
256,192,36919,1,0,0:0:0:0:
256,192,37571,1,12,0:0:0:0:
256,192,37897,1,0,0:0:0:0:
256,192,38060,1,12,0:0:0:0:
256,192,38550,1,8,0:0:0:0:
256,192,39039,1,8,0:0:0:0:
256,192,39528,1,8,0:0:0:0:
256,192,40180,1,12,0:0:0:0:
256,192,40669,1,12,0:0:0:0:
256,192,41158,1,8,0:0:0:0:
256,192,42136,1,8,0:0:0:0:
256,192,42788,1,4,0:0:0:0:
256,192,43277,1,8,0:0:0:0:
256,192,43766,1,12,0:0:0:0:
256,192,44418,1,8,0:0:0:0:
256,192,44745,1,0,0:0:0:0:
256,192,45397,1,4,0:0:0:0:
256,192,46049,1,8,0:0:0:0:
256,192,46375,1,0,0:0:0:0:
256,192,46701,1,8,0:0:0:0:
256,192,47353,1,0,0:0:0:0:
256,192,47679,1,8,0:0:0:0:
256,192,48005,1,4,0:0:0:0:
256,192,48657,1,0,0:0:0:0:
256,192,49309,1,0,0:0:0:0:
256,192,49635,1,8,0:0:0:0:
256,192,50287,1,8,0:0:0:0:
256,192,50613,1,0,0:0:0:0:
256,192,51266,1,8,0:0:0:0:
256,192,51918,12,0,52896,0:0:0:0:
256,192,53222,5,4,0:0:0:0:
256,192,53874,1,0,0:0:0:0:
256,192,54526,1,8,0:0:0:0:
256,192,55830,1,0,0:0:0:0:
256,192,56482,1,8,0:0:0:0:
256,192,57134,1,0,0:0:0:0:
256,192,57787,1,8,0:0:0:0:
256,192,58439,1,4,0:0:0:0:
256,192,59417,1,8,0:0:0:0:
256,192,59743,1,0,0:0:0:0:
256,192,60721,1,0,0:0:0:0:
256,192,61048,1,8,0:0:0:0:
256,192,61699,1,0,0:0:0:0:
256,192,62188,1,12,0:0:0:0:
256,192,63329,1,0,0:0:0:0:
256,192,63656,1,8,0:0:0:0:
256,192,64634,1,8,0:0:0:0:
256,192,64960,1,0,0:0:0:0:
256,192,65286,1,8,0:0:0:0:
256,192,66264,1,0,0:0:0:0:
256,192,66590,1,8,0:0:0:0:
256,192,67405,1,8,0:0:0:0:
256,192,67894,1,0,0:0:0:0:
256,192,68220,1,8,0:0:0:0:
256,192,68872,1,4,0:0:0:0:
256,192,69361,1,8,0:0:0:0:
256,192,69850,1,4,0:0:0:0:
256,192,70340,1,8,0:0:0:0:
256,192,71481,1,4,0:0:0:0:
256,192,72459,1,8,0:0:0:0:
256,192,72785,1,0,0:0:0:0:
256,192,74089,1,12,0:0:0:0:
256,192,74741,1,8,0:0:0:0:
256,192,75393,1,8,0:0:0:0:
256,192,75882,1,8,0:0:0:0:
256,192,76698,1,0,0:0:0:0:
256,192,77187,1,8,0:0:0:0:
256,192,78002,1,8,0:0:0:0:
256,192,79306,1,0,0:0:0:0:
256,192,79958,1,0,0:0:0:0:
256,192,80610,1,8,0:0:0:0:
256,192,81262,1,0,0:0:0:0:
256,192,81914,1,8,0:0:0:0:
256,192,82647,1,0,0:0:0:0:
256,192,83447,1,0,0:0:0:0:
256,192,84558,12,14,87891,0:0:0:0:
