osu file format v12

[General]
AudioFilename: kyoukai.mp3
AudioLeadIn: 1000
PreviewTime: 52970
Countdown: 0
SampleSet: Soft
StackLeniency: 0.7
Mode: 0
LetterboxInBreaks: 0
WidescreenStoryboard: 0

[Editor]
DistanceSpacing: 1
BeatDivisor: 4
GridSize: 4

[Metadata]
Title:Kyoukai no Kanata
TitleUnicode:境界の彼方
Artist:Chihara Minori
ArtistUnicode:茅原実里
Creator:Laurier
Version:Normal
Source:Kyoukai no Kanata
Tags:Opening beyond the boundary
BeatmapID:329517
BeatmapSetID:129077

[Difficulty]
HPDrainRate:3
CircleSize:3
OverallDifficulty:3
ApproachRate:4
SliderMultiplier:0.799999999999999
SliderTickRate:2

[Events]
//Background and Video events
0,0,"BG.jpg",0,0
//Break Periods
//Storyboard Layer 0 (Background)
//Storyboard Layer 1 (Fail)
//Storyboard Layer 2 (Pass)
//Storyboard Layer 3 (Foreground)
//Storyboard Sound Samples
//Background Colour Transformations
3,100,163,162,255

[TimingPoints]
-345,326.086956521739,4,2,3,40,1,0
959,-100,4,2,2,40,0,0
11394,-100,4,2,1,50,0,0
11720,-100,4,2,1,40,0,0
15551,-100,4,2,3,40,0,0
15714,-100,4,2,1,40,0,0
16611,-100,4,2,1,50,0,0
16937,-100,4,2,1,30,0,0
19220,-100,4,2,1,50,0,0
20850,-100,4,2,2,50,0,0
21176,-100,4,2,1,40,0,0
21828,-100,4,2,1,60,0,0
23377,-100,4,2,3,60,0,0
23540,-100,4,2,1,60,0,0
27046,-100,4,2,1,40,0,0
37725,-100,4,2,3,40,0,0
37888,-100,4,2,1,40,0,0
38866,-100,4,2,3,40,0,0
39029,-100,4,2,1,40,0,0
40334,-100,4,2,3,40,0,0
40497,-100,4,2,1,40,0,0
41475,-100,4,2,3,40,0,0
41638,-100,4,2,1,40,0,0
42943,-100,4,2,3,40,0,0
43106,-100,4,2,1,40,0,0
44084,-100,4,2,3,40,0,0
44247,-100,4,2,1,40,0,0
47915,-100,4,2,1,60,0,0
48160,-100,4,2,3,60,0,0
48323,-100,4,2,1,60,0,0
51828,-100,4,2,1,40,0,0
53133,-100,4,2,1,70,0,0
53377,-100,4,2,3,70,0,0
53540,-100,4,2,1,70,0,0
54682,-100,4,2,3,70,0,0
54845,-100,4,2,1,70,0,0
55986,-100,4,2,3,70,0,0
56149,-100,4,2,1,70,0,0
57290,-100,4,2,3,70,0,0
57453,-100,4,2,1,70,0,0
57943,-100,4,2,3,70,0,0
58106,-100,4,2,1,70,0,0
62915,-100,4,2,1,50,0,0
63568,-100,4,2,1,70,0,0
63812,-100,4,2,3,70,0,0
63975,-100,4,2,1,70,0,0
67725,-100,4,2,3,70,0,0
67888,-100,4,2,1,70,0,0
69029,-100,4,2,3,70,0,0
69193,-100,4,2,1,70,0,0
71638,-100,4,2,3,70,0,0
71801,-100,4,2,1,70,0,0
78160,-100,4,2,3,70,0,0
78323,-100,4,2,1,70,0,0
78812,-100,4,2,3,70,0,0
78975,-100,4,2,1,70,0,0
82073,-100,4,2,3,70,0,0
82236,-100,4,2,1,70,0,0
83377,-100,4,2,3,70,0,0
83540,-100,4,2,1,70,0,0
85660,-100,4,2,1,50,0,0
87046,-100,4,2,1,60,0,0
87943,-100,4,2,3,60,0,0
88106,-100,4,2,1,60,0,0
90551,-100,4,2,3,60,0,0
90714,-100,4,2,1,60,0,0
93812,-100,4,2,3,60,0,0
93975,-100,4,2,1,60,0,0
95116,-100,4,2,3,60,0,0
95279,-100,4,2,1,60,0,0
96421,-100,4,2,3,60,0,0
96584,-100,4,2,1,60,0,0
97481,-100,4,2,1,50,0,0
97725,-100,4,2,3,50,0,0
97888,-100,4,2,1,50,0,0
98866,-100,4,2,3,50,0,0
99029,-100,4,2,1,50,0,0
100334,-100,4,2,3,50,0,0
100497,-100,4,2,1,50,0,0
111828,-100,4,2,1,40,0,0
112481,-100,4,2,2,60,0,0
113133,-100,4,2,1,70,0,0
113377,-100,4,2,3,70,0,0
113540,-100,4,2,1,70,0,0
115986,-100,4,2,3,70,0,0
116149,-100,4,2,1,70,0,0
117943,-100,4,2,3,70,0,0
118106,-100,4,2,1,70,0,0
119899,-100,4,2,3,70,0,0
120062,-100,4,2,1,70,0,0
122915,-100,4,2,1,50,0,0
123568,-100,4,2,1,70,0,0
123812,-100,4,2,3,70,0,0
123975,-100,4,2,1,70,0,0
129029,-100,4,2,3,70,0,0
129193,-100,4,2,1,70,0,0
131638,-100,4,2,3,70,0,0
131801,-100,4,2,1,70,0,0
132290,-100,4,2,3,70,0,0
132453,-100,4,2,1,70,0,0
134002,-100,4,2,1,60,0,0
138323,-100,4,2,3,60,0,0
138486,-100,4,2,1,60,0,0
145008,-100,4,2,3,60,0,0
145171,-100,4,2,1,60,0,0
154953,-100,4,2,2,30,0,0
157481,-100,4,2,2,40,0,0
167915,-100,4,2,1,50,0,0
171828,-100,4,2,1,50,0,0
173703,-100,4,2,3,50,0,0
173866,-100,4,2,1,50,0,0
174519,-100,4,2,3,50,0,0
174682,-100,4,2,1,50,0,0
176964,-100,4,2,3,50,0,0
177127,-100,4,2,1,50,0,0
178350,-100,4,2,1,60,0,0
181203,-100,4,2,3,60,0,0
181366,-100,4,2,1,60,0,0
183812,-100,4,2,3,60,0,0
183975,-100,4,2,1,60,0,0
185116,-100,4,2,3,60,0,0
185279,-100,4,2,1,60,0,0
187073,-100,4,2,3,60,0,0
187236,-100,4,2,1,60,0,0
188133,-100,4,2,1,40,0,0
188785,-100,4,2,1,60,0,0
189682,-100,4,2,3,60,0,0
189845,-100,4,2,1,60,0,0
191638,-100,4,2,3,60,0,0
191801,-100,4,2,1,60,0,0
192290,-100,4,2,3,60,0,0
192453,-100,4,2,1,60,0,0
193595,-100,4,2,3,60,0,0
193758,-100,4,2,1,60,0,0
197997,-100,4,2,3,60,0,0
198160,-100,4,2,1,60,0,0
199220,-100,4,2,1,60,0,0
201828,-100,4,2,2,40,0,0
208839,-100,4,2,1,40,0,0
211040,-100,4,2,3,40,0,0
211203,-100,4,2,1,40,0,0
212263,-100,4,2,1,50,0,0
215443,-100,4,2,3,50,0,0
215606,-100,4,2,1,50,0,0
216258,-100,4,2,3,50,0,0
216421,-100,4,2,1,50,0,0
222698,-100,4,2,1,60,0,0
224002,-100,4,2,1,50,0,0
224981,-100,4,2,2,70,0,0
225307,-100,4,2,1,70,0,0
225551,-100,4,2,3,70,0,0
225714,-100,4,2,1,70,0,0
226856,-100,4,2,3,70,0,0
227019,-100,4,2,1,70,0,0
228812,-100,4,2,3,70,0,0
228975,-100,4,2,1,70,0,0
230769,-100,4,2,3,70,0,0
230932,-100,4,2,1,70,0,0
234029,-100,4,2,3,70,0,0
234193,-100,4,2,1,70,0,0
234926,-100,4,2,1,50,0,0
235415,-100,4,2,1,70,0,0
235986,-100,4,2,3,70,0,0
236149,-100,4,2,1,70,0,0
236638,-100,4,2,3,70,0,0
236801,-100,4,2,1,70,0,0
237943,-100,4,2,3,70,0,0
238106,-100,4,2,1,70,0,0
241203,-100,4,2,3,70,0,0
241366,-100,4,2,1,70,0,0
244953,-100,4,2,3,70,0,0
245116,-100,4,2,1,70,0,0
250089,-100,4,2,2,70,0,0
250741,-100,4,2,2,50,0,0
251394,-100,4,2,2,90,0,0
251638,-100,4,2,3,60,0,0
251801,-100,4,2,1,60,0,0
252290,-100,4,2,3,60,0,0
252453,-100,4,2,1,60,0,0
255551,-100,4,2,3,60,0,0
255714,-100,4,2,1,60,0,0
256856,-100,4,2,3,60,0,0
257019,-100,4,2,1,60,0,0
261828,-100,4,2,1,70,0,0
262073,-100,4,2,3,70,0,0
262236,-100,4,2,1,70,0,0
262725,-100,4,2,3,70,0,0
262888,-100,4,2,1,70,0,0
264029,-100,4,2,3,70,0,0
264193,-100,4,2,1,70,0,0
267046,-100,4,2,1,60,0,0
267290,-100,4,2,3,60,0,0
267453,-100,4,2,1,60,0,0
269899,-100,4,2,3,60,0,0
270062,-100,4,2,1,60,0,0
271203,-100,4,2,3,60,0,0
271366,-100,4,2,1,60,0,0
271856,-100,4,2,3,60,0,0
272019,-100,4,2,1,60,0,0
273160,-100,4,2,3,60,0,0
273323,-100,4,2,1,60,0,0
275116,-100,4,2,3,60,0,0
275279,-100,4,2,1,60,0,0
276421,-100,4,2,3,60,0,0
276584,-100,4,2,1,60,0,0
277481,-100,4,2,2,40,0,0
280089,357.142857142857,4,2,2,40,1,0
281160,444.444444444444,4,2,2,40,1,0
281604,571.428571428571,4,2,2,40,1,0
281604,-100,4,2,2,40,0,0
282746,895.522388059701,4,2,2,40,1,0
282746,-100,4,2,2,10,0,0
286775,-100,4,2,2,5,0,0

[Colours]
Combo1 : 255,255,255
Combo2 : 208,255,208
Combo3 : 170,170,255
Combo4 : 255,255,189

[HitObjects]
387,216,959,6,0,P|316:242|256:193,2,160,4|0|4,0:0|0:0|0:0,0:0:0:0:
329,163,2589,1,0,0:0:0:0:
263,112,2915,2,0,P|194:137|176:216,1,160,0|4,0:0|0:0,0:0:0:0:
294,322,4220,6,0,P|311:250|256:193,1,160
110,126,5524,2,0,L|192:114,1,79.9999999999999
268,103,6176,1,4,0:0:0:0:
329,52,6502,6,0,P|345:129|284:181,1,160
210,171,7481,2,0,P|194:248|255:300,1,160
403,257,8785,5,4,0:0:0:0:
295,375,9437,1,0,0:0:0:0:
139,335,10089,2,0,B|81:309|32:340|32:340|0:300,1,160
28,144,11394,6,0,L|114:123,1,79.9999999999999,4|2,0:0|0:0,0:0:0:0:
160,182,12046,1,2,0:0:0:0:
185,106,12372,1,2,0:0:0:0:
263,89,12698,2,0,P|260:128|240:163,2,79.9999999999999,2|2|2,0:0|0:0|0:0,0:0:0:0:
206,32,13676,1,2,0:0:0:0:
127,44,14002,6,0,P|97:117|144:181,1,160,4|8,0:0|0:0,0:0:0:0:
267,274,15307,2,0,P|297:201|250:137,2,160,8|8|4,0:0|0:0|0:0,0:0:0:0:
120,339,17263,5,8,0:0:0:0:
215,210,17915,1,2,0:0:0:0:
322,328,18568,1,8,0:0:0:0:
434,213,19220,6,0,P|464:138|419:76,1,160,4|2,0:0|0:0,0:0:0:0:
386,149,20198,2,0,P|349:166|305:170,1,79.9999999999999,2|0,0:0|0:0,0:0:0:0:
256,110,20850,1,4,0:0:0:0:
231,186,21176,2,0,P|211:223|199:259,1,79.9999999999999,2|8,0:0|0:0,0:0:0:0:
140,310,21828,6,0,P|122:274|127:230,2,79.9999999999999,4|8|2,0:0|0:0|0:0,0:0:0:0:
215,337,22807,1,8,0:0:0:0:
276,286,23133,2,0,P|349:253|416:285,1,160,2|2,0:0|0:0,0:0:0:0:
465,222,24111,1,8,0:0:0:0:
419,155,24437,6,0,P|399:122|389:79,1,79.9999999999999,4|8,0:0|0:0,0:0:0:0:
310,66,25089,2,0,L|225:79,1,79.9999999999999,2|8,0:0|0:0,0:0:0:0:
151,90,25741,6,0,L|153:138,2,40,2|8|0,0:0|0:0|0:0,0:0:0:0:
72,107,26394,2,0,L|77:193,1,79.9999999999999,2|2,0:0|0:0,0:0:0:0:
85,266,27046,5,4,0:0:0:0:
139,324,27372,1,0,0:0:0:0:
216,305,27698,1,0,0:0:0:0:
229,226,28024,1,0,0:0:0:0:
288,172,28350,6,0,L|332:163,2,40,2|2|0,0:0|0:0|0:0,0:0:0:0:
212,146,29002,2,0,P|199:108|196:59,1,79.9999999999999,0|0,0:0|0:0,0:0:0:0:
256,17,29654,5,2,0:0:0:0:
390,104,30307,2,0,P|386:143|373:181,1,79.9999999999999,0|0,0:0|0:0,0:0:0:0:
309,229,30959,6,0,L|261:229,2,40,2|2|0,0:0|0:0|0:0,0:0:0:0:
381,261,31611,2,0,L|369:313,1,40,2|2,0:0|0:0,0:0:0:0:
343,327,31937,2,0,L|257:327,1,79.9999999999999,0|4,0:0|0:0,0:0:0:0:
172,195,32915,5,0,0:0:0:0:
256,58,33568,2,0,P|330:28|401:56,1,160,2|2,0:0|0:0,0:0:0:0:
317,192,34872,6,0,P|243:222|172:194,2,160,2|0|2,0:0|0:0|0:0,0:0:0:0:
364,256,36502,2,0,L|353:342,1,79.9999999999999,8|8,0:0|0:0,0:0:0:0:
193,341,37481,6,0,P|136:356|75:326,1,120,4|2,0:0|0:0,0:0:0:0:
141,228,38459,2,0,P|255:199|321:289,1,240,4|8,0:0|0:0,0:0:0:0:
449,191,40089,6,0,P|469:133|453:75,1,120,4|4,0:0|0:0,0:0:0:0:
335,62,41068,2,0,P|230:111|138:39,1,240,0|8,0:0|0:0,0:0:0:0:
62,183,42698,6,0,P|86:235|71:295,1,120,4|2,0:0|0:0,0:0:0:0:
191,301,43676,2,0,P|296:252|388:324,1,240,4|8,0:0|0:0,0:0:0:0:
482,191,45307,6,0,P|492:150|496:107,2,79.9999999999999,4|2|8,0:0|0:0|0:0,0:0:0:0:
337,123,46611,1,4,0:0:0:0:
193,193,47263,2,0,P|154:198|112:191,1,79.9999999999999,8|8,0:0|0:0,0:0:0:0:
71,123,47915,6,0,P|101:195|61:266,1,160,4|2,0:0|0:0,0:0:0:0:
207,336,49220,1,2,0:0:0:0:
253,270,49546,2,0,L|334:260,2,79.9999999999999,8|2|8,0:0|0:0|0:0,0:0:0:0:
173,265,50524,5,4,0:0:0:0:
313,341,51176,1,2,0:0:0:0:
371,192,51828,2,0,P|310:140|242:95,1,160,2|2,0:0|0:0,0:0:0:0:
88,41,53133,6,0,B|68:104|106:146|106:146|77:186,1,160,4|2,0:0|0:0,0:0:0:0:
195,75,54437,2,0,P|272:49|343:77,1,160,2|2,0:0|0:0,0:0:0:0:
391,139,55415,1,8,0:0:0:0:
312,153,55741,6,0,L|298:345,1,160,4|2,0:0|0:0,0:0:0:0:
141,333,57046,2,0,P|68:348|33:277,2,160,2|2|4,0:0|0:0|0:0,0:0:0:0:
195,274,58676,6,0,L|202:195,1,79.9999999999999,8|2,0:0|0:0,0:0:0:0:
141,141,59328,2,0,P|202:183|280:153,1,160,8|8,0:0|0:0,0:0:0:0:
326,92,60307,5,2,0:0:0:0:
403,74,60633,1,8,0:0:0:0:
451,137,60959,1,4,0:0:0:0:
387,284,61611,2,0,L|394:338,1,40,2|0,0:0|0:0,0:0:0:0:
315,347,62100,6,0,L|178:340,1,120,4|8,0:0|0:0,0:0:0:0:
214,263,62915,2,0,L|113:258,1,79.9999999999999,2|8,0:0|0:0,0:0:0:0:
91,191,63568,6,0,P|70:115|122:58,1,160,4|2,0:0|0:0,0:0:0:0:
257,139,64872,2,0,P|270:174|266:217,1,79.9999999999999,2|8,0:0|0:0,0:0:0:0:
345,227,65524,2,0,P|329:260|296:288,2,79.9999999999999,2|8|4,0:0|0:0|0:0,0:0:0:0:
341,147,66502,5,8,0:0:0:0:
412,182,66828,2,0,L|434:104,1,79.9999999999999,2|8,0:0|0:0,0:0:0:0:
385,41,67481,2,0,P|311:60|228:40,1,160,2|2,0:0|0:0,0:0:0:0:
176,99,68459,1,8,0:0:0:0:
247,134,68785,6,0,P|257:195|239:255,1,120,4|2,0:0|0:0,0:0:0:0:
346,307,69763,2,0,P|336:246|354:186,1,120,8|2,0:0|0:0,0:0:0:0:
437,107,70741,5,2,0:0:0:0:
431,187,71068,1,8,0:0:0:0:
351,191,71394,2,0,P|243:162|162:257,1,240,4|8,0:0|0:0,0:0:0:0:
229,292,72698,6,0,P|200:317|153:325,1,79.9999999999999,2|8,0:0|0:0,0:0:0:0:
82,304,73350,2,0,L|81:202,1,79.9999999999999,2|8,0:0|0:0,0:0:0:0:
256,192,74002,12,2,76611,0:0:0:0:
256,194,77915,6,0,P|325:218|391:171,2,160,2|2|4,0:0|0:0|0:0,0:0:0:0:
165,61,79872,6,0,P|135:88|112:126,1,79.9999999999999,0|8,0:0|0:0,0:0:0:0:
80,194,80524,1,2,0:0:0:0:
112,350,81176,2,0,P|142:323|165:285,1,79.9999999999999,2|8,0:0|0:0,0:0:0:0:
205,222,81828,6,0,B|260:189|312:219|312:219|356:184,1,160,4|2,0:0|0:0,0:0:0:0:
412,141,82807,1,8,0:0:0:0:
422,220,83133,2,0,P|438:298|392:367,1,160,2|2,0:0|0:0,0:0:0:0:
237,357,84437,6,0,P|196:350|163:324,2,79.9999999999999,4|8|2,0:0|0:0|0:0,0:0:0:0:
302,311,85415,1,8,0:0:0:0:
256,192,85660,12,4,87046,0:0:0:0:
258,193,87698,6,0,P|286:265|256:337,1,160,2|2,0:0|0:0,0:0:0:0:
96,323,89002,2,0,P|58:308|14:302,1,79.9999999999999,2|8,0:0|0:0,0:0:0:0:
22,222,89654,2,0,P|61:215|98:201,1,79.9999999999999,2|8,0:0|0:0,0:0:0:0:
172,169,90307,6,0,B|196:108|160:61|160:61|212:37,1,160,2|2,0:0|0:0,0:0:0:0:
361,28,91611,1,2,0:0:0:0:
438,167,92263,1,2,0:0:0:0:
362,140,92589,6,0,P|322:136|280:144,2,79.9999999999999,8|2|8,0:0|0:0|0:0,0:0:0:0:
377,218,93568,2,0,B|365:284|398:325|398:325|360:364,1,160,0|2,0:0|0:0,0:0:0:0:
302,309,94546,1,8,0:0:0:0:
228,339,94872,6,0,P|152:363|81:326,1,160,2|2,0:0|0:0,0:0:0:0:
61,252,95850,1,8,0:0:0:0:
139,265,96176,2,0,L|154:100,1,160,4|2,0:0|0:0,0:0:0:0:
306,59,97481,6,0,P|357:47|414:78,1,120,4|0,0:0|0:0,0:0:0:0:
335,168,98459,2,0,P|221:192|146:98,1,240,8|8,0:0|0:0,0:0:0:0:
46,231,100089,6,0,B|61:276|45:311|45:311|59:348,1,120,4|2,0:0|0:0,0:0:0:0:
178,349,101068,2,0,P|217:355|259:351,1,79.9999999999999,8|2,0:0|0:0,0:0:0:0:
321,303,101720,5,2,0:0:0:0:
370,239,102046,1,8,0:0:0:0:
364,159,102372,1,2,0:0:0:0:
310,99,102698,6,0,P|239:73|175:120,1,160,0|8,0:0|0:0,0:0:0:0:
120,177,103676,2,0,P|97:121|119:61,2,120,4|8|8,0:0|0:0|0:0,0:0:0:0:
154,333,105307,5,4,0:0:0:0:
48,213,105959,1,8,0:0:0:0:
115,67,106611,1,2,0:0:0:0:
274,75,107263,6,0,P|348:98|423:57,1,160,8|4,0:0|0:0,0:0:0:0:
460,131,108241,1,8,0:0:0:0:
400,184,108568,2,0,P|394:221|390:266,2,79.9999999999999,2|8|2,0:0|0:0|0:0,0:0:0:0:
460,131,109546,5,8,0:0:0:0:
501,199,109872,2,0,P|497:238|491:278,1,79.9999999999999,2|8,0:0|0:0,0:0:0:0:
432,333,110524,6,0,P|363:366|284:329,1,160,4|2,0:0|0:0,0:0:0:0:
167,232,111828,2,0,P|95:201|24:234,1,160,4|4,0:0|0:0,0:0:0:0:
164,312,113133,6,0,P|232:281|238:201,1,160,4|2,0:0|0:0,0:0:0:0:
141,76,114437,2,0,P|177:88|221:84,1,79.9999999999999,2|8,0:0|0:0,0:0:0:0:
294,60,115089,2,0,P|333:56|371:68,1,79.9999999999999,2|8,0:0|0:0,0:0:0:0:
411,137,115741,6,0,P|426:209|352:242,1,160,0|2,0:0|0:0,0:0:0:0:
206,194,117046,1,2,0:0:0:0:
264,342,117698,2,0,L|293:173,1,160,2|4,0:0|0:0,0:0:0:0:
239,122,118676,5,8,0:0:0:0:
206,195,119002,1,2,0:0:0:0:
158,130,119328,1,8,0:0:0:0:
189,56,119654,6,0,P|266:43|320:98,1,160,4|2,0:0|0:0,0:0:0:0:
360,165,120633,2,0,P|396:177|438:171,1,79.9999999999999,8|4,0:0|0:0,0:0:0:0:
329,290,121611,2,0,L|302:335,1,40,2|0,0:0|0:0,0:0:0:0:
228,329,122100,6,0,L|81:313,1,120,4|8,0:0|0:0,0:0:0:0:
70,246,122915,2,0,L|64:195,2,40,2|0|8,0:0|0:0|0:0,0:0:0:0:
149,238,123568,6,0,P|209:194|192:118,1,160,4|2,0:0|0:0,0:0:0:0:
127,72,124546,1,8,0:0:0:0:
200,39,124872,6,0,P|243:36|280:38,1,79.9999999999999,0|8,0:0|0:0,0:0:0:0:
359,42,125524,2,0,P|362:85|360:122,1,79.9999999999999,2|8,0:0|0:0,0:0:0:0:
297,172,126176,5,2,0:0:0:0:
256,243,126502,1,8,0:0:0:0:
289,315,126828,1,2,0:0:0:0:
368,323,127154,1,8,0:0:0:0:
416,258,127481,6,0,P|425:226|425:171,1,79.9999999999999,2|8,0:0|0:0,0:0:0:0:
349,200,128133,2,0,P|332:171|293:132,1,79.9999999999999,2|8,0:0|0:0,0:0:0:0:
309,57,128785,6,0,P|264:91|195:88,1,120,4|2,0:0|0:0,0:0:0:0:
108,165,129763,2,2,P|166:164|214:198,1,120,6|2,0:0|0:0,0:0:0:0:
254,312,130741,5,2,0:0:0:0:
317,360,131068,1,8,0:0:0:0:
329,280,131394,2,0,B|345:216|310:171|310:171|330:126,2,160,4|2|2,0:0|0:0|0:0,0:0:0:0:
181,342,133350,6,0,L|100:338,1,79.9999999999999,2|2,0:0|0:0,0:0:0:0:
256,192,134002,12,4,136611,0:0:0:0:
258,193,137915,6,0,P|330:213|392:162,1,160,8|2,0:0|0:0,0:0:0:0:
316,134,138894,1,8,0:0:0:0:
239,110,139220,6,0,L|150:104,1,79.9999999999999,4|0,0:0|0:0,0:0:0:0:
164,184,139872,2,0,L|78:208,1,79.9999999999999,8|0,0:0|0:0,0:0:0:0:
120,278,140524,2,0,L|47:330,2,79.9999999999999,2|0|8,0:0|0:0|0:0,0:0:0:0:
266,341,141828,6,0,P|323:320|381:328,1,120,2|0,0:0|0:0,0:0:0:0:
420,325,142481,2,0,P|458:275|461:209,1,120,8|0,0:0|0:0,0:0:0:0:
430,196,143133,6,0,L|346:180,1,79.9999999999999,2|2,0:0|0:0,0:0:0:0:
337,102,143785,2,0,L|253:86,1,79.9999999999999,8|2,0:0|0:0,0:0:0:0:
186,121,144437,6,0,B|137:164|78:144|78:144|47:202|86:261,1,240,4|0,0:0|0:0,0:0:0:0:
144,315,145741,2,0,P|181:328|223:322,1,79.9999999999999,2|0,0:0|0:0,0:0:0:0:
289,280,146394,2,0,P|323:271|372:273,1,79.9999999999999,8|0,0:0|0:0,0:0:0:0:
444,250,147046,6,0,P|468:173|431:106,1,160,2|8,0:0|0:0,0:0:0:0:
282,51,148350,2,0,P|223:47|168:82,1,120,2|0,0:0|0:0,0:0:0:0:
176,116,149002,2,0,P|116:158|37:131,1,160,8|4,0:0|0:0,0:0:0:0:
65,290,150307,5,8,0:0:0:0:
204,367,150959,1,2,0:0:0:0:
271,221,151611,1,8,0:0:0:0:
366,349,152263,6,0,B|417:308|476:336|476:336|503:301,1,160,4|8,0:0|0:0,0:0:0:0:
398,179,153568,2,0,B|357:124|390:69|390:69|356:36,1,160,2|8,0:0|0:0,0:0:0:0:
256,192,154872,12,2,156176,0:0:0:0:
393,194,157481,6,0,P|323:228|256:192,1,160,4|0,0:0|0:0,0:0:0:0:
183,49,158785,1,0,0:0:0:0:
54,143,159437,2,0,P|50:186|46:228,1,79.9999999999999
110,270,160089,6,0,P|177:310|257:287,1,160
403,343,161394,2,0,P|433:271|397:204,2,160,0|0|4,0:0|0:0|0:0,0:0:0:0:
251,291,163350,5,0,0:0:0:0:
280,133,164002,1,0,0:0:0:0:
349,277,164654,1,0,0:0:0:0:
208,200,165307,6,0,B|148:225|104:184|104:184|59:217,1,160,4|0,0:0|0:0,0:0:0:0:
183,104,166611,2,0,P|257:75|332:103,1,160
360,174,167589,2,0,L|353:257,1,79.9999999999999,0|4,0:0|0:0,0:0:0:0:
288,300,168241,6,0,P|260:322|218:338,1,79.9999999999999,2|2,0:0|0:0,0:0:0:0:
153,291,168894,1,2,0:0:0:0:
217,244,169220,6,0,B|240:177|192:140|192:140|210:84,2,160,2|2|4,0:0|0:0|0:0,0:0:0:0:
147,204,170850,1,2,0:0:0:0:
149,283,171176,2,0,P|176:312|214:321,1,79.9999999999999,2|2,0:0|0:0,0:0:0:0:
294,325,171828,6,0,P|360:297|378:213,1,160,2|8,0:0|0:0,0:0:0:0:
254,116,173133,1,4,0:0:0:0:
319,162,173459,6,0,P|388:199|457:156,1,160,2|0,0:0|0:0,0:0:0:0:
387,116,174437,2,0,P|318:79|249:122,1,160,2|8,0:0|0:0,0:0:0:0:
110,190,175741,6,0,P|74:204|30:198,2,79.9999999999999,4|2|8,0:0|0:0|0:0,0:0:0:0:
148,119,176720,2,0,P|119:194|158:259,1,160,2|2,0:0|0:0,0:0:0:0:
226,296,177698,2,0,L|310:287,1,79.9999999999999,0|2,0:0|0:0,0:0:0:0:
346,218,178350,5,4,0:0:0:0:
266,210,178676,2,0,L|256:50,1,160,8|8,0:0|0:0,0:0:0:0:
333,29,179654,2,0,L|339:108,2,79.9999999999999,2|8|2,0:0|0:0|0:0,0:0:0:0:
412,21,180633,1,8,0:0:0:0:
417,100,180959,6,0,P|390:168|303:178,1,160,0|2,0:0|0:0,0:0:0:0:
257,122,181937,1,8,0:0:0:0:
195,70,182263,6,0,P|152:64|116:63,1,79.9999999999999,2|8,0:0|0:0,0:0:0:0:
113,142,182915,2,0,P|70:151|36:162,1,79.9999999999999,2|8,0:0|0:0,0:0:0:0:
41,242,183568,6,0,B|67:306|29:355|29:355|68:380,1,160,4|2,0:0|0:0,0:0:0:0:
127,329,184546,1,8,0:0:0:0:
190,280,184872,6,0,P|266:262|329:306,1,160,2|2,0:0|0:0,0:0:0:0:
390,255,185850,1,8,0:0:0:0:
330,201,186176,6,0,L|329:118,1,79.9999999999999,4|8,0:0|0:0,0:0:0:0:
352,44,186828,2,0,P|285:82|218:42,1,160,2|4,0:0|0:0,0:0:0:0:
148,81,187807,5,8,0:0:0:0:
192,147,188133,2,0,L|183:231,2,79.9999999999999,2|2|4,0:0|0:0|0:0,0:0:0:0:
112,151,189111,5,8,0:0:0:0:
97,229,189437,2,0,P|105:271|263:261,1,240,2|8,0:0|0:0,0:0:0:0:
283,190,190741,2,0,P|319:173|369:176,1,79.9999999999999,2|8,0:0|0:0,0:0:0:0:
411,233,191394,6,0,B|375:177|415:118|415:118|388:75,2,160,4|0|4,0:0|0:0|0:0,0:0:0:0:
413,312,193024,1,8,0:0:0:0:
342,349,193350,2,0,P|274:314|207:352,1,160,2|4,0:0|0:0,0:0:0:0:
106,227,194654,6,0,L|103:139,1,79.9999999999999,2|8,0:0|0:0,0:0:0:0:
181,127,195307,2,0,L|208:43,1,79.9999999999999,2|8,0:0|0:0,2:0:0:0:
283,67,195959,2,0,L|364:53,2,79.9999999999999,2|8|4,0:0|0:0|0:0,0:0:0:0:
127,31,197263,5,2,0:0:0:0:
161,187,197915,2,0,P|230:222|303:183,1,160,2|8,0:0|0:0,0:0:0:0:
256,192,199220,12,8,200524,0:0:0:0:
255,191,201828,6,0,P|208:215|141:197,1,120,4|0,0:0|0:0,0:0:0:0:
114,174,202481,2,0,P|58:169|4:201,1,120
12,239,203133,6,0,L|13:327,1,79.9999999999999
86,349,203785,2,0,P|125:342|170:338,1,79.9999999999999
243,355,204437,6,0,P|302:372|363:351,1,120,4|0,0:0|0:0,0:0:0:0:
387,330,205089,2,0,P|416:254|385:185,1,160
305,194,206068,5,0,0:0:0:0:
335,120,206394,2,0,P|372:101|421:112,2,79.9999999999999,0|0|4,0:0|0:0|0:0,0:0:0:0:
305,194,207372,6,0,P|268:224|172:109,1,240
240,149,208676,2,0,L|250:97,1,40,0|2,0:0|0:0,0:0:0:0:
260,71,209002,2,0,P|299:61|341:57,1,79.9999999999999,8|0,0:0|0:0,0:0:0:0:
418,53,209654,5,4,0:0:0:0:
464,206,210307,2,0,L|466:254,2,40,8|0|0,0:0|0:0|0:0,0:0:0:0:
436,176,210796,2,0,P|383:162|328:192,1,120,4|2,0:0|0:0,0:0:0:0:
311,270,211611,2,0,P|259:297|194:271,1,120,8|2,0:0|0:0,0:0:0:0:
177,249,212263,6,0,P|101:236|44:289,2,160,4|8|2,0:0|0:0|0:0,0:0:0:0:
250,216,213894,1,0,0:0:0:0:
190,162,214220,2,0,P|173:123|175:84,2,79.9999999999999,8|0|2,0:0|0:0|0:0,0:0:0:0:
250,216,215198,6,0,P|332:233|401:202,1,160,0|2,0:0|0:0,0:0:0:0:
452,144,216176,2,0,P|463:98|465:60,1,79.9999999999999,2|0,0:0|0:0,0:0:0:0:
392,31,216828,2,0,P|381:77|379:115,1,79.9999999999999,8|8,0:0|0:0,0:0:0:0:
311,153,217481,6,0,P|245:195|165:168,1,160,4|8,0:0|0:0,0:0:0:0:
98,140,218459,2,0,P|52:180|40:243,1,120,4|2,0:0|0:0,0:0:0:0:
120,324,219437,6,0,P|157:340|199:339,1,79.9999999999999,8|8,0:0|0:0,0:0:0:0:
247,278,220089,2,0,P|324:249|396:284,1,160,4|8,0:0|0:0,0:0:0:0:
463,135,221394,2,0,P|386:164|314:129,1,160,2|8,0:0|0:0,0:0:0:0:
267,72,222372,1,8,0:0:0:0:
244,148,222698,6,0,P|208:165|167:168,1,79.9999999999999,4|8,0:0|0:0,0:0:0:0:
100,126,223350,1,2,0:0:0:0:
56,193,223676,1,8,0:0:0:0:
118,243,224002,6,0,B|144:283|121:342|121:342|188:376|253:320,1,240,4|2,0:0|0:0,0:0:0:0:
310,273,225307,6,0,P|342:202|318:124,1,160,4|2,0:0|0:0,0:0:0:0:
257,75,226285,1,8,0:0:0:0:
242,153,226611,2,0,B|209:176|209:176|164:130|97:158,1,160,2|2,0:0|0:0,0:0:0:0:
64,229,227589,1,8,0:0:0:0:
143,230,227915,6,0,P|144:273|143:316,1,79.9999999999999,2|8,0:0|0:0,0:0:0:0:
220,330,228568,2,0,L|385:317,1,160,2|2,0:0|0:0,0:0:0:0:
446,273,229546,5,8,0:0:0:0:
460,194,229872,1,2,0:0:0:0:
405,135,230198,1,8,0:0:0:0:
325,147,230524,6,0,P|253:176|183:134,1,160,4|2,0:0|0:0,0:0:0:0:
156,63,231502,1,8,0:0:0:0:
110,128,231828,5,2,0:0:0:0:
260,73,232481,1,2,0:0:0:0:
407,135,233133,1,4,0:0:0:0:
337,279,233785,6,0,P|296:311|226:304,1,120,2|4,0:0|0:0,0:0:0:0:
178,198,234763,1,8,0:0:0:0:
256,210,235089,2,0,P|279:162|286:125,1,79.9999999999999,2|8,0:0|0:0,0:0:0:0:
229,78,235741,6,0,P|309:90|364:40,2,160,4|2|2,0:0|0:0|0:0,0:0:0:0:
166,27,237372,1,8,0:0:0:0:
154,106,237698,2,0,B|147:175|85:190|85:190|107:238,1,160,2|4,0:0|0:0,0:0:0:0:
255,275,239002,5,0,0:0:0:0:
391,191,239654,2,0,L|397:107,1,79.9999999999999,2|8,0:0|0:0,0:0:0:0:
317,121,240307,2,0,L|311:200,1,79.9999999999999,2|8,0:0|0:0,0:0:0:0:
255,258,240959,6,0,P|197:278|144:255,1,120,4|2,0:0|0:0,0:0:0:0:
52,179,241937,2,0,P|126:152|196:188,1,160,8|8,0:0|0:0,0:0:0:0:
258,138,242915,2,0,P|268:98|269:57,2,79.9999999999999,2|8|4,0:0|0:0|0:0,0:0:0:0:
208,290,244220,5,2,0:0:0:0:
324,180,244872,2,0,L|408:168,2,79.9999999999999,2|2|8,0:0|0:0|0:0,0:0:0:0:
264,229,245850,1,8,0:0:0:0:
210,288,246176,6,0,P|284:308|341:256,1,160,2|8,0:0|0:0,0:0:0:0:
395,198,247154,2,0,P|321:178|264:230,1,160,4|0,0:0|0:0,0:0:0:0:
187,206,248133,2,0,P|162:171|153:136,1,79.9999999999999,2|8,0:0|0:0,0:0:0:0:
256,192,248785,12,2,250089,0:0:0:0:
256,193,250741,6,0,L|259:277,1,79.9999999999999,4|0,0:0|0:0,0:0:0:0:
331,307,251394,6,0,P|405:329|459:269,2,160,2|2|4,0:0|0:0|0:0,0:0:0:0:
256,165,253350,1,2,0:0:0:0:
361,44,254002,5,2,0:0:0:0:
357,203,254654,1,2,0:0:0:0:
269,68,255307,2,0,P|201:47|123:94,1,160,2|2,0:0|0:0,0:0:0:0:
188,235,256611,6,0,P|254:275|329:254,1,160,6|2,0:0|0:0,0:0:0:0:
483,298,257915,2,0,P|495:256|495:206,1,79.9999999999999,2|8,0:0|0:0,0:0:0:0:
464,196,258404,2,0,P|426:168|347:160,1,120,2|8,0:0|0:0,0:0:0:0:
275,162,259220,5,4,0:0:0:0:
255,320,259872,2,0,P|216:335|172:335,1,79.9999999999999,2|8,0:0|0:0,0:0:0:0:
146,311,260361,6,0,P|116:255|122:197,1,120,4|8,0:0|0:0,0:0:0:0:
158,129,261176,2,0,P|197:109|233:97,1,79.9999999999999,2|8,0:0|0:0,0:0:0:0:
270,28,261828,6,0,P|274:106|346:138,2,160,4|2|2,0:0|0:0|0:0,0:0:0:0:
343,60,263459,1,8,0:0:0:0:
411,101,263785,2,0,P|406:184|338:217,1,160,2|2,0:0|0:0,0:0:0:0:
270,246,264763,6,0,P|195:227|119:252,1,160,8|8,0:0|0:0,0:0:0:0:
50,293,265741,1,2,0:0:0:0:
103,141,266394,1,2,0:0:0:0:
247,209,267046,6,0,P|305:223|353:191,1,120,4|2,0:0|0:0,0:0:0:0:
443,113,268024,2,0,P|483:183|448:253,1,160,8|8,0:0|0:0,0:0:0:0:
393,303,269002,2,0,L|296:304,1,79.9999999999999,2|8,0:0|0:0,0:0:0:0:
237,277,269654,6,0,B|206:225|239:175|239:175|188:127|114:169,1,240,4|8,0:0|0:0,0:0:0:0:
87,241,270959,2,0,P|110:166|68:97,2,160,2|2|4,0:0|0:0|0:0,0:0:0:0:
128,309,272589,5,8,0:0:0:0:
179,248,272915,2,0,P|258:234|313:289,1,160,2|2,0:0|0:0,0:0:0:0:
383,319,273894,1,8,0:0:0:0:
378,239,274220,2,0,L|382:155,1,79.9999999999999,2|8,0:0|0:0,0:0:0:0:
434,98,274872,6,0,P|377:150|301:135,1,160,2|2,0:0|0:0,0:0:0:0:
256,68,275850,1,8,0:0:0:0:
179,90,276176,2,0,P|117:189|178:288,1,240,2|8,0:0|0:0,0:0:0:0:
251,266,277481,5,4,0:0:0:0:
392,191,278133,1,0,0:0:0:0:
324,335,278785,1,0,0:0:0:0:
298,177,279437,1,0,0:0:0:0:
418,71,280089,5,4,0:0:0:0:
261,37,280803,2,0,P|221:32|180:30,1,79.9999999999999
150,84,281604,2,0,P|137:125|132:164,1,79.9999999999999,4|0,0:0|0:0,0:0:0:0:
256,192,282746,12,0,286775,0:0:0:0:
