osu file format v12

[General]
AudioFilename: kyoukai.mp3
AudioLeadIn: 1000
PreviewTime: 52970
Countdown: 0
SampleSet: Soft
StackLeniency: 0.7
Mode: 0
LetterboxInBreaks: 0
WidescreenStoryboard: 0

[Editor]
DistanceSpacing: 1
BeatDivisor: 4
GridSize: 4

[Metadata]
Title:Kyoukai no Kanata
TitleUnicode:境界の彼方
Artist:Chihara Minori
ArtistUnicode:茅原実里
Creator:Laurier
Version:Insane
Source:Kyoukai no Kanata
Tags:Opening beyond the boundary
BeatmapID:326400
BeatmapSetID:129077

[Difficulty]
HPDrainRate:7
CircleSize:4
OverallDifficulty:7
ApproachRate:9
SliderMultiplier:1.8
SliderTickRate:2

[Events]
//Background and Video events
0,0,"BG.jpg",0,0
//Break Periods
//Storyboard Layer 0 (Background)
//Storyboard Layer 1 (Fail)
//Storyboard Layer 2 (Pass)
//Storyboard Layer 3 (Foreground)
//Storyboard Sound Samples
//Background Colour Transformations
3,100,163,162,255

[TimingPoints]
-345,326.086956521739,4,2,1,40,1,0
959,-200,4,2,2,40,0,0
11394,-133.333333333333,4,2,1,50,0,0
11720,-133.333333333333,4,2,1,40,0,0
14654,-133.333333333333,4,2,1,20,0,0
14981,-133.333333333333,4,2,1,30,0,0
15307,-133.333333333333,4,2,1,40,0,0
16611,-133.333333333333,4,2,1,50,0,0
16937,-133.333333333333,4,2,1,30,0,0
19220,-133.333333333333,4,2,1,50,0,0
20850,-133.333333333333,4,2,2,50,0,0
21176,-133.333333333333,4,2,1,40,0,0
21828,-100,4,2,1,60,0,0
27046,-133.333333333333,4,2,1,40,0,0
47915,-133.333333333333,4,2,1,60,0,0
51828,-133.333333333333,4,2,1,40,0,0
52481,-133.333333333333,4,2,2,50,0,0
52807,-133.333333333333,4,2,1,50,0,0
53133,-100,4,2,1,70,0,0
62915,-100,4,2,1,50,0,0
63568,-100,4,2,1,70,0,0
85660,-100,4,2,1,50,0,0
86394,-100,4,2,2,60,0,0
87046,-100,4,2,1,60,0,0
97481,-133.333333333333,4,2,1,50,0,0
111828,-133.333333333333,4,2,1,40,0,0
112481,-133.333333333333,4,2,2,60,0,0
113133,-100,4,2,1,70,0,0
122915,-100,4,2,1,50,0,0
123568,-100,4,2,1,70,0,0
134002,-133.333333333333,4,2,1,60,0,0
154953,-133.333333333333,4,2,2,30,0,0
157481,-200,4,2,2,40,0,0
167915,-133.333333333333,4,2,1,50,0,0
171176,-133.333333333333,4,2,1,40,0,0
171828,-133.333333333333,4,2,1,50,0,0
177290,-133.333333333333,4,2,1,40,0,0
178024,-133.333333333333,4,2,2,60,0,0
178350,-100,4,2,1,60,0,0
188133,-100,4,2,1,40,0,0
188785,-100,4,2,1,60,0,0
199220,-133.333333333333,4,2,1,60,0,0
201665,-133.333333333333,4,2,1,50,0,0
201828,-200,4,2,2,40,0,0
208839,-200,4,2,1,40,0,0
212263,-133.333333333333,4,2,1,50,0,0
222698,-133.333333333333,4,2,1,60,0,0
224002,-133.333333333333,4,2,1,50,0,0
224654,-133.333333333333,4,2,2,50,0,0
224981,-133.333333333333,4,2,2,70,0,0
225307,-100,4,2,1,70,0,0
234926,-100,4,2,1,50,0,0
235415,-100,4,2,1,70,0,0
250415,-100,4,2,1,50,0,0
250741,-100,4,2,2,50,0,0
251394,-100,4,2,2,90,0,0
251720,-100,4,2,1,60,0,0
261828,-100,4,2,1,70,0,0
267046,-100,4,2,1,60,0,0
277481,-200,4,2,2,40,0,0
280089,357.142857142857,4,2,2,40,1,0
281160,444.444444444444,4,2,2,40,1,0
281604,571.428571428571,4,2,2,40,1,0
281604,-200,4,2,2,40,0,0
282746,895.522388059701,4,2,2,40,1,0
282969,-100,4,2,2,10,0,0
286775,-200,4,2,2,5,0,0

[Colours]
Combo1 : 255,255,255
Combo2 : 208,255,208
Combo3 : 170,170,255
Combo4 : 255,255,189

[HitObjects]
407,189,633,1,0,0:0:0:0:
407,189,796,1,0,0:0:0:0:
407,189,959,6,0,L|310:184,1,90,4|0,0:0|0:0,0:0:0:0:
218,172,1611,2,0,P|209:127|220:86,2,90
267,257,2589,5,0,0:0:0:0:
267,257,2915,2,0,L|167:253,1,90
78,245,3568,6,0,P|69:290|80:331,1,90,4|0,0:0|0:0,0:0:0:0:
165,282,4220,2,0,P|174:237|163:196,1,90
99,119,4872,5,0,0:0:0:0:
99,119,5198,1,0,0:0:0:0:
197,106,5524,2,0,L|206:14,2,90,0|0|4,0:0|0:0|0:0,0:0:0:0:
285,150,6502,6,0,P|292:171|303:198,1,45
461,164,6828,2,0,L|369:154,1,90
310,283,7481,6,0,L|399:273,2,90
235,347,8459,1,0,0:0:0:0:
256,195,8785,5,0,0:0:0:0:
148,303,9111,1,0,0:0:0:0:
118,180,9437,1,0,0:0:0:0:
34,233,9763,1,0,0:0:0:0:
148,303,10089,6,0,L|216:182,1,135,4|0,0:0|0:0,0:0:0:0:
166,109,10741,2,0,P|216:143|288:130,1,135
397,44,11394,5,0,0:0:0:0:
339,209,11720,1,2,0:0:0:0:
238,67,12046,1,2,0:0:0:0:
398,137,12372,1,2,0:0:0:0:
288,273,12698,6,0,L|277:124,1,135.000005149842,2|2,0:0|0:0,0:0:0:0:
391,354,13350,2,0,L|380:205,1,135.000005149842,2|2,0:0|0:0,0:0:0:0:
364,44,14002,5,2,0:0:0:0:
197,98,14328,2,0,L|125:92,1,67.5000025749208,2|0,0:0|0:0,0:0:0:0:
70,157,14654,2,0,L|39:183,3,33.7500012874604,8|8|8|8,0:0|0:0|0:0|0:0,0:0:0:0:
43,223,14981,2,0,L|25:259,3,33.7500012874604,8|8|8|8,0:0|0:0|0:0|0:0,0:0:0:0:
38,295,15307,5,0,0:0:0:0:
38,295,15388,1,0,0:0:0:0:
38,295,15470,1,0,0:0:0:0:
38,295,15551,1,8,0:0:0:0:
38,295,15633,1,8,0:0:0:0:
38,295,15714,1,0,0:0:0:0:
38,295,15796,1,0,0:0:0:0:
38,295,15877,1,8,0:0:0:0:
38,295,15959,1,8,0:0:0:0:
177,295,16122,1,2,0:0:0:0:
107,368,16285,1,2,0:0:0:0:
111,227,16448,1,2,0:0:0:0:
271,297,16611,5,4,0:0:0:0:
271,297,16937,2,0,L|280:220,1,67.5000025749208,0|2,0:0|0:0,0:0:0:0:
183,64,17263,2,0,L|195:206,2,135.000005149842,8|0|2,0:0|0:0|0:0,0:0:0:0:
271,113,18078,5,8,0:0:0:0:
106,161,18241,2,0,L|112:242,1,67.5000025749208,2|0,0:0|0:0,0:0:0:0:
271,298,18568,2,0,P|341:292|411:292,1,135.000005149842,8|0,0:0|0:0,0:0:0:0:
405,291,19057,1,0,0:0:0:0:
190,351,19220,6,0,P|154:342|123:331,1,67.5000025749208,4|0,0:0|0:0,0:0:0:0:
254,199,19546,1,2,0:0:0:0:
271,298,19709,1,2,0:0:0:0:
36,340,19872,2,0,P|45:304|56:273,1,67.5000025749208,2|2,0:0|0:0,0:0:0:0:
95,245,20116,1,0,0:0:0:0:
95,245,20198,1,2,0:0:0:0:
32,92,20361,1,2,0:0:0:0:
120,141,20524,2,0,L|197:133,1,67.5000025749208,2|2,0:0|0:0,0:0:0:0:
254,199,20850,6,0,L|286:174,1,33.7500012874604,4|0,0:0|0:0,0:0:0:0:
368,184,21013,2,0,L|387:142,1,33.7500012874604
319,99,21176,1,8,0:0:0:0:
319,99,21258,1,8,0:0:0:0:
319,99,21339,1,8,0:0:0:0:
319,99,21421,1,8,0:0:0:0:
319,99,21502,1,8,0:0:0:0:
319,99,21584,1,8,0:0:0:0:
319,99,21665,1,8,0:0:0:0:
319,99,21747,1,8,0:0:0:0:
319,99,21828,6,0,L|308:195,1,90,4|0,0:0|0:0,0:0:0:0:
398,263,22154,1,8,0:0:0:0:
211,305,22318,2,0,L|222:209,1,90,0|2,0:0|0:0,0:0:0:0:
314,341,22644,1,2,0:0:0:0:
116,352,22807,2,0,L|127:256,1,90,8|0,0:0|0:0,0:0:0:0:
28,120,23133,5,2,0:0:0:0:
217,82,23296,1,0,0:0:0:0:
112,28,23459,2,0,L|128:118,1,90,8|0,0:0|0:0,0:0:0:0:
211,306,23785,2,0,P|245:275|276:238,1,90,2|2,0:0|0:0,0:0:0:0:
217,82,24111,2,0,L|233:172,1,90,8|0,0:0|0:0,0:0:0:0:
477,191,24437,6,0,L|383:180,1,90,4|0,0:0|0:0,0:0:0:0:
509,115,24763,1,8,0:0:0:0:
441,263,24926,1,0,0:0:0:0:
325,247,25089,2,0,P|315:201|310:155,1,90,2|2,0:0|0:0,0:0:0:0:
402,13,25415,2,0,P|396:57|387:101,1,90,8|0,0:0|0:0,0:0:0:0:
217,82,25741,5,2,0:0:0:0:
325,247,25904,1,8,0:0:0:0:
312,129,26068,1,2,0:0:0:0:
218,199,26231,1,0,0:0:0:0:
405,173,26394,5,8,0:0:0:0:
237,303,26557,1,0,0:0:0:0:
312,129,26720,2,0,L|301:222,1,90,2|0,0:0|0:0,0:0:0:0:
280,357,27046,6,0,L|135:349,1,135.000005149842,4|0,0:0|0:0,0:0:0:0:
412,286,27698,2,0,L|361:340,1,67.5000025749208
420,128,28024,2,0,L|420:209,1,67.5000025749208
338,227,28350,5,2,0:0:0:0:
338,227,28513,1,2,0:0:0:0:
453,165,28676,2,0,L|453:97,1,67.5000025749208,0|0,0:0|0:0,0:0:0:0:
356,49,29002,2,0,P|293:29|226:55,1,135.000005149842
230,51,29491,1,0,0:0:0:0:
171,141,29654,6,0,P|153:111|141:77,1,67.5000025749208,2|0,0:0|0:0,0:0:0:0:
277,149,29981,2,0,P|265:180|247:209,1,67.5000025749208
90,236,30307,2,0,L|161:231,1,67.5000025749208
243,296,30633,2,0,L|314:291,1,67.5000025749208
450,228,30959,5,2,0:0:0:0:
414,308,31122,1,2,0:0:0:0:
336,210,31285,2,0,L|326:142,1,67.5000025749208
431,37,31611,2,0,L|421:105,1,67.5000025749208
306,244,31937,2,0,L|288:101,1,135.000005149842,0|4,0:0|0:0,0:0:0:0:
414,308,32589,6,0,P|380:309|341:320,1,67.5000025749208,0|0,0:0|0:0,0:0:0:0:
264,345,32915,2,0,P|230:344|191:333,1,67.5000025749208,0|2,0:0|0:0,0:0:0:0:
110,218,33241,1,0,0:0:0:0:
110,218,33568,5,2,0:0:0:0:
58,288,33731,1,2,0:0:0:0:
196,252,33894,2,0,L|190:179,1,67.5000025749208
40,154,34220,2,0,L|34:81,1,67.5000025749208,0|2,0:0|0:0,0:0:0:0:
98,26,34546,1,0,0:0:0:0:
98,26,34627,1,0,0:0:0:0:
98,26,34709,1,0,0:0:0:0:
206,79,34872,6,0,P|241:89|276:93,1,67.5000025749208,2|0,0:0|0:0,0:0:0:0:
290,178,35198,2,0,P|325:172|359:161,1,67.5000025749208,0|0,0:0|0:0,0:0:0:0:
418,224,35524,2,0,P|448:203|473:179,1,67.5000025749208,0|2,0:0|0:0,0:0:0:0:
457,31,35850,1,0,0:0:0:0:
318,288,36176,5,2,0:0:0:0:
419,224,36339,1,2,0:0:0:0:
397,368,36502,2,0,L|314:366,1,67.5000025749208,8|0,0:0|0:0,0:0:0:0:
216,278,36828,1,8,0:0:0:0:
216,278,36910,1,8,0:0:0:0:
216,278,36991,1,2,0:0:0:0:
216,278,37073,1,2,0:0:0:0:
216,278,37154,1,2,0:0:0:0:
216,278,37236,1,2,0:0:0:0:
216,278,37318,1,2,0:0:0:0:
216,278,37399,1,2,0:0:0:0:
216,278,37481,6,0,L|350:244,1,135.000005149842,4|0,0:0|0:0,0:0:0:0:
203,190,37970,2,0,P|170:194|131:195,1,67.5000025749208,4|0,0:0|0:0,0:0:0:0:
135,195,38296,1,2,0:0:0:0:
33,354,38459,2,0,P|97:335|169:349,1,135.000005149842,4|0,0:0|0:0,0:0:0:0:
44,240,38948,5,0,0:0:0:0:
135,195,39111,2,0,L|141:120,1,67.5000025749208
55,25,39437,2,0,L|50:92,1,67.5000025749208,0|2,0:0|0:0,0:0:0:0:
135,195,39763,2,0,L|130:262,1,67.5000025749208,0|2,0:0|0:0,0:0:0:0:
256,336,40089,6,0,P|321:345|365:298,1,135.000005149842,4|0,0:0|0:0,0:0:0:0:
286,131,40578,2,0,L|290:208,1,67.5000025749208,4|0,0:0|0:0,0:0:0:0:
298,278,40904,1,0,0:0:0:0:
451,344,41068,2,0,L|459:203,1,135.000005149842,4|0,0:0|0:0,0:0:0:0:
286,131,41557,5,0,0:0:0:0:
363,258,41720,2,0,P|331:272|299:278,1,67.5000025749208
214,345,42046,2,0,P|200:313|194:281,1,67.5000025749208
286,131,42372,2,0,P|300:163|306:195,1,67.5000025749208
118,245,42698,6,0,P|168:202|237:209,1,135.000005149842,4|0,0:0|0:0,0:0:0:0:
363,259,43187,2,0,P|381:229|390:196,1,67.5000025749208,4|0,0:0|0:0,0:0:0:0:
389,197,43513,1,0,0:0:0:0:
432,352,43676,2,0,L|297:334,1,135.000005149842,4|0,0:0|0:0,0:0:0:0:
298,334,44165,5,0,0:0:0:0:
312,189,44328,2,0,L|319:119,1,67.5000025749208,0|2,0:0|0:0,0:0:0:0:
223,235,44654,2,0,L|230:165,1,67.5000025749208,0|2,0:0|0:0,0:0:0:0:
136,283,44981,2,0,L|143:213,1,67.5000025749208,0|2,0:0|0:0,0:0:0:0:
163,58,45307,6,0,P|99:44|34:67,1,135.000005149842,4|2,0:0|0:0,0:0:0:0:
223,235,45959,2,0,P|287:249|352:226,1,135.000005149842,8|0,0:0|0:0,0:0:0:0:
351,226,46448,1,2,0:0:0:0:
207,333,46611,5,0,0:0:0:0:
282,165,46774,1,8,0:0:0:0:
382,339,46937,2,0,L|308:324,1,67.5000025749208,0|2,0:0|0:0,0:0:0:0:
148,267,47263,6,0,P|148:200|197:158,1,135.000005149842,8|8,0:0|0:0,0:0:0:0:
351,226,47752,1,0,0:0:0:0:
351,226,47834,1,0,0:0:0:0:
351,226,47915,6,0,L|277:251,1,67.5000025749208,4|0,0:0|0:0,0:0:0:0:
141,334,48241,2,0,L|149:263,1,67.5000025749208,8|0,0:0|0:0,0:0:0:0:
283,165,48568,1,2,0:0:0:0:
283,165,48731,1,2,0:0:0:0:
312,328,48894,2,0,L|237:352,1,67.5000025749208,8|0,0:0|0:0,0:0:0:0:
416,308,49220,5,2,0:0:0:0:
351,226,49383,1,2,0:0:0:0:
463,126,49546,2,0,L|447:204,1,67.5000025749208,8|0,0:0|0:0,0:0:0:0:
351,226,49872,2,0,P|289:251|223:233,1,135.000005149842,2|8,0:0|0:0,0:0:0:0:
147,309,50361,1,0,0:0:0:0:
281,373,50524,6,0,P|316:364|347:358,1,67.5000025749208,4|0,0:0|0:0,0:0:0:0:
147,308,50850,2,0,P|114:314|82:323,1,67.5000025749208,2|0,0:0|0:0,0:0:0:0:
351,226,51176,1,2,0:0:0:0:
236,167,51339,1,2,0:0:0:0:
243,295,51502,1,2,0:0:0:0:
331,125,51665,1,2,0:0:0:0:
433,291,51828,5,8,0:0:0:0:
418,304,51909,1,8,0:0:0:0:
401,315,51991,1,8,0:0:0:0:
382,323,52072,1,8,0:0:0:0:
362,327,52154,1,8,0:0:0:0:
342,328,52235,1,8,0:0:0:0:
322,325,52317,1,8,0:0:0:0:
303,318,52398,1,8,0:0:0:0:
285,308,52481,6,0,L|276:260,1,33.7500012874604,4|0,0:0|0:0,0:0:0:0:
331,126,52644,2,0,L|340:174,1,33.7500012874604,0|0,0:0|0:0,0:0:0:0:
263,202,52807,2,0,L|253:153,1,33.7500012874604,2|0,0:0|0:0,0:0:0:0:
308,19,52970,2,0,L|317:67,1,33.7500012874604,0|0,0:0|0:0,0:0:0:0:
263,202,53133,6,0,L|168:192,1,90,4|0,0:0|0:0,0:0:0:0:
44,78,53459,1,8,0:0:0:0:
89,248,53622,1,0,0:0:0:0:
221,113,53785,2,0,L|126:103,1,90,2|2,0:0|0:0,0:0:0:0:
0,258,54111,2,0,L|89:248,1,90,8|0,0:0|0:0,0:0:0:0:
347,181,54437,6,0,P|345:224|318:265,1,90,2|0,0:0|0:0,0:0:0:0:
224,126,54763,2,0,P|252:157|262:205,1,90,8|0,0:0|0:0,0:0:0:0:
234,225,55008,1,0,0:0:0:0:
234,225,55089,2,0,P|217:268|213:312,1,90,2|2,0:0|0:0,0:0:0:0:
421,245,55415,2,0,P|438:202|442:158,1,90,8|0,0:0|0:0,0:0:0:0:
289,67,55741,6,0,P|204:46|138:106,1,180,4|8,0:0|0:0,0:0:0:0:
234,225,56231,1,0,0:0:0:0:
70,175,56394,1,2,0:0:0:0:
173,311,56557,1,2,0:0:0:0:
323,230,56720,2,0,L|335:131,1,90,8|0,0:0|0:0,0:0:0:0:
81,85,57046,6,0,L|69:184,1,90,2|0,0:0|0:0,0:0:0:0:
173,311,57372,2,0,P|263:297|355:295,1,180,8|2,0:0|0:0,0:0:0:0:
351,294,57861,1,2,0:0:0:0:
255,175,58024,1,8,0:0:0:0:
255,175,58106,1,0,0:0:0:0:
255,175,58187,1,0,0:0:0:0:
89,251,58350,6,0,L|190:224,1,90,4|0,0:0|0:0,0:0:0:0:
385,185,58676,1,8,0:0:0:0:
291,100,58839,1,0,0:0:0:0:
234,284,59002,1,2,0:0:0:0:
173,173,59165,1,2,0:0:0:0:
385,185,59328,2,0,L|328:271,1,90,8|0,0:0|0:0,0:0:0:0:
442,104,59654,5,2,0:0:0:0:
385,185,59818,1,0,0:0:0:0:
234,284,59981,2,0,P|188:282|145:282,1,90,8|0,0:0|0:0,0:0:0:0:
339,370,60307,2,0,P|372:338|403:308,1,90,2|2,0:0|0:0,0:0:0:0:
291,101,60633,1,8,0:0:0:0:
299,226,60796,1,0,0:0:0:0:
475,196,60959,6,0,P|433:189|378:185,1,90,4|0,0:0|0:0,0:0:0:0:
233,284,61285,1,8,0:0:0:0:
233,284,61611,1,2,0:0:0:0:
291,101,61774,1,2,0:0:0:0:
287,337,62100,6,0,P|204:354|157:282,1,180,4|0,0:0|0:0,0:0:0:0:
233,284,62508,1,0,0:0:0:0:
233,284,62589,2,0,P|245:240|235:198,1,90,8|0,0:0|0:0,0:0:0:0:
105,128,62915,1,8,0:0:0:0:
91,145,62996,1,8,0:0:0:0:
84,166,63078,1,8,0:0:0:0:
84,189,63159,1,8,0:0:0:0:
92,209,63241,1,8,0:0:0:0:
108,226,63322,1,8,0:0:0:0:
127,236,63404,1,8,0:0:0:0:
150,239,63485,1,8,0:0:0:0:
171,234,63568,6,0,P|257:211|311:276,1,180,4|8,0:0|0:0,0:0:0:0:
233,284,63975,1,0,0:0:0:0:
233,284,64057,1,0,0:0:0:0:
343,167,64220,1,2,0:0:0:0:
311,273,64383,1,2,0:0:0:0:
298,101,64546,1,8,0:0:0:0:
390,237,64709,1,0,0:0:0:0:
171,234,64872,6,0,P|209:208|254:208,1,90,2|0,0:0|0:0,0:0:0:0:
458,284,65198,2,0,P|421:312|377:315,1,90,8|0,0:0|0:0,0:0:0:0:
171,234,65524,1,2,0:0:0:0:
281,346,65687,1,2,0:0:0:0:
390,237,65850,2,0,L|405:144,1,90,8|0,0:0|0:0,0:0:0:0:
281,346,66176,5,2,0:0:0:0:
281,346,66502,6,0,P|234:340|192:338,1,90,8|0,0:0|0:0,0:0:0:0:
64,354,66828,1,2,0:0:0:0:
131,269,66991,2,0,L|138:180,1,90,2|8,0:0|0:0,0:0:0:0:
30,47,67318,1,0,0:0:0:0:
8,152,67481,6,0,L|32:246,1,90,2|0,0:0|0:0,0:0:0:0:
166,236,67807,2,0,L|173:147,1,90,8|0,0:0|0:0,0:0:0:0:
30,95,68133,2,0,L|54:189,1,90,2|2,0:0|0:0,0:0:0:0:
202,195,68459,2,0,L|209:106,1,90,8|0,0:0|0:0,0:0:0:0:
122,40,68785,6,0,P|201:80|279:40,1,180,4|8,0:0|0:0,0:0:0:0:
396,188,69274,1,2,0:0:0:0:
396,188,69600,1,2,0:0:0:0:
354,287,69763,6,0,P|275:249|198:289,1,180,8|0,0:0|0:0,0:0:0:0:
198,289,70252,1,2,0:0:0:0:
95,322,70415,2,0,L|106:226,1,90,8|0,0:0|0:0,0:0:0:0:
277,339,70741,2,0,P|356:377|433:337,1,180,2|8,0:0|0:0,0:0:0:0:
503,226,71231,1,0,0:0:0:0:
441,75,71394,6,0,P|419:115|406:160,1,90,4|0,0:0|0:0,0:0:0:0:
298,154,71720,2,0,P|310:197|333:238,1,90,8|0,0:0|0:0,0:0:0:0:
503,226,72046,1,2,0:0:0:0:
406,157,72209,1,2,0:0:0:0:
390,306,72372,2,0,P|345:317|297:319,1,90,8|0,0:0|0:0,0:0:0:0:
148,373,72698,6,0,P|137:328|135:280,1,90,2|0,0:0|0:0,0:0:0:0:
298,154,73024,1,8,0:0:0:0:
298,154,73187,1,0,0:0:0:0:
224,307,73350,1,2,0:0:0:0:
74,190,73513,1,2,0:0:0:0:
216,64,73676,2,0,L|205:156,1,90,8|0,0:0|0:0,0:0:0:0:
224,307,74002,6,0,P|309:337|395:302,2,180,4|8|2,0:0|0:0|0:0,0:0:0:0:
298,154,74818,1,2,0:0:0:0:
74,190,74981,2,0,L|170:174,1,90,8|0,0:0|0:0,0:0:0:0:
298,154,75307,5,2,0:0:0:0:
298,154,75633,1,8,0:0:0:0:
224,307,75796,1,0,0:0:0:0:
75,190,75959,2,0,L|84:98,1,90,2|2,0:0|0:0,0:0:0:0:
157,244,76285,2,0,L|166:152,1,90,8|0,0:0|0:0,0:0:0:0:
267,89,76611,6,0,P|352:104|360:189,1,180,2|8,0:0|0:0,0:0:0:0:
157,244,77100,1,0,0:0:0:0:
297,155,77263,1,2,0:0:0:0:
224,307,77426,1,2,0:0:0:0:
79,221,77589,2,0,P|104:184|148:166,1,90,8|0,0:0|0:0,0:0:0:0:
325,233,77915,6,0,L|221:228,1,90,2|0,0:0|0:0,0:0:0:0:
339,314,78241,1,8,0:0:0:0:
297,155,78404,1,0,0:0:0:0:
134,303,78568,2,0,L|238:308,1,90,2|2,0:0|0:0,0:0:0:0:
387,159,78894,2,0,L|297:154,1,90,8|0,0:0|0:0,0:0:0:0:
79,221,79220,5,4,0:0:0:0:
79,221,79546,1,8,0:0:0:0:
184,136,79709,1,0,0:0:0:0:
98,31,79872,2,0,P|89:75|90:121,1,90,2|2,0:0|0:0,0:0:0:0:
184,136,80198,1,8,0:0:0:0:
184,136,80279,1,0,0:0:0:0:
184,136,80361,1,0,0:0:0:0:
184,136,80443,1,0,0:0:0:0:
185,136,80524,6,0,P|230:123|275:118,1,90,2|0,0:0|0:0,0:0:0:0:
361,134,80850,1,8,0:0:0:0:
166,238,81013,2,0,P|121:232|78:220,1,90,0|2,0:0|0:0,0:0:0:0:
22,312,81339,1,2,0:0:0:0:
177,348,81502,2,0,L|269:335,1,90,8|0,0:0|0:0,0:0:0:0:
422,175,81828,6,0,P|424:93|340:63,1,180,4|8,0:0|0:0,0:0:0:0:
257,190,82318,1,0,0:0:0:0:
343,316,82481,2,0,L|343:215,1,90,2|2,0:0|0:0,0:0:0:0:
262,364,82807,1,8,0:0:0:0:
427,265,82970,1,0,0:0:0:0:
268,101,83133,6,0,L|257:195,1,90,2|0,0:0|0:0,0:0:0:0:
427,265,83459,1,8,0:0:0:0:
361,134,83622,1,0,0:0:0:0:
232,269,83785,2,0,P|186:279|141:281,1,90,2|2,0:0|0:0,0:0:0:0:
105,242,84029,1,0,0:0:0:0:
105,242,84111,2,0,L|89:142,1,90,8|0,0:0|0:0,0:0:0:0:
193,6,84437,6,0,L|177:106,1,90,4|0,0:0|0:0,0:0:0:0:
105,242,84763,1,8,0:0:0:0:
224,169,84926,1,0,0:0:0:0:
17,66,85089,2,0,P|58:53|106:48,1,90,2|2,0:0|0:0,0:0:0:0:
298,102,85415,2,0,P|310:143|316:191,1,90,8|0,0:0|0:0,0:0:0:0:
289,242,85660,1,2,0:0:0:0:
289,242,85741,5,2,0:0:0:0:
289,242,85823,1,2,0:0:0:0:
289,242,85904,1,2,0:0:0:0:
289,242,85986,1,2,0:0:0:0:
289,242,86068,1,2,0:0:0:0:
289,242,86149,1,2,0:0:0:0:
289,242,86231,1,2,0:0:0:0:
289,242,86312,1,2,0:0:0:0:
289,242,86394,6,0,L|237:262,1,45,4|0,0:0|0:0,0:0:0:0:
208,184,86557,6,0,L|156:204,1,45
135,129,86720,6,0,L|83:149,1,45
59,75,86883,6,0,L|7:95,1,45
150,37,87046,6,0,P|237:58|316:21,1,180,4|8,0:0|0:0,0:0:0:0:
317,21,87535,1,0,0:0:0:0:
326,157,87698,2,0,P|299:193|289:239,1,90,2|2,0:0|0:0,0:0:0:0:
437,154,88024,2,0,P|426:110|400:74,1,90,8|0,0:0|0:0,0:0:0:0:
227,287,88350,6,0,P|310:312|369:240,1,180,2|8,0:0|0:0,0:0:0:0:
326,157,88839,1,0,0:0:0:0:
459,274,89002,1,2,0:0:0:0:
291,238,89165,1,2,0:0:0:0:
437,154,89328,2,0,L|425:251,1,90,8|0,0:0|0:0,0:0:0:0:
378,82,89654,5,2,0:0:0:0:
378,82,89981,1,8,0:0:0:0:
291,238,90144,1,0,0:0:0:0:
155,180,90307,2,0,L|249:164,1,90,2|2,0:0|0:0,0:0:0:0:
117,273,90633,2,0,L|211:257,1,90,8|0,0:0|0:0,0:0:0:0:
326,157,90959,5,2,0:0:0:0:
373,264,91122,1,0,0:0:0:0:
203,346,91285,2,0,P|198:304|206:257,1,90,8|0,0:0|0:0,0:0:0:0:
373,264,91611,1,2,0:0:0:0:
203,346,91774,1,2,0:0:0:0:
127,173,91937,2,0,P|166:152|210:142,1,90,8|0,0:0|0:0,0:0:0:0:
447,161,92263,5,2,0:0:0:0:
447,161,92589,1,8,0:0:0:0:
373,264,92752,1,0,0:0:0:0:
333,73,92915,2,0,L|245:59,1,90,2|2,0:0|0:0,0:0:0:0:
127,173,93241,2,0,L|39:187,1,90,8|0,0:0|0:0,0:0:0:0:
223,140,93568,6,0,P|262:218|232:300,1,180,2|8,0:0|0:0,0:0:0:0:
231,300,94057,1,0,0:0:0:0:
373,264,94220,2,0,P|381:218|391:171,1,90,2|2,0:0|0:0,0:0:0:0:
297,22,94546,2,0,P|306:66|313:110,1,90,8|0,0:0|0:0,0:0:0:0:
178,384,94872,6,0,P|139:306|169:224,1,180,2|8,0:0|0:0,0:0:0:0:
231,300,95361,1,0,0:0:0:0:
231,300,95443,1,0,0:0:0:0:
231,300,95524,2,0,P|276:289|325:283,1,90,2|2,0:0|0:0,0:0:0:0:
409,224,95850,2,0,P|420:268|426:317,1,90,8|0,0:0|0:0,0:0:0:0:
312,200,96176,6,0,L|330:62,1,135,2|2,0:0|0:0,0:0:0:0:
366,26,96502,2,0,L|368:122,1,90,8|0,0:0|0:0,0:0:0:0:
206,188,96828,1,2,0:0:0:0:
198,192,96991,1,2,0:0:0:0:
190,196,97154,1,2,0:0:0:0:
182,200,97318,1,2,0:0:0:0:
174,204,97481,6,0,P|242:217|311:198,1,135.000005149842,4|0,0:0|0:0,0:0:0:0:
112,149,97970,2,0,P|95:179|93:217,1,67.5000025749208,4|0,0:0|0:0,0:0:0:0:
92,211,98296,1,2,0:0:0:0:
177,74,98459,2,0,P|109:61|40:80,1,135.000005149842,4|2,0:0|0:0,0:0:0:0:
254,144,98948,5,0,0:0:0:0:
237,13,99111,1,0,0:0:0:0:
330,67,99274,1,2,0:0:0:0:
177,74,99437,2,0,P|155:139|176:203,1,135.000005149842
272,245,99926,1,2,0:0:0:0:
390,153,100089,6,0,L|235:143,1,135.000005149842,4|0,0:0|0:0,0:0:0:0:
207,263,100578,2,0,L|278:243,2,67.5000025749208,4|0|0,0:0|0:0|0:0,0:0:0:0:
327,323,101068,2,0,P|390:304|459:311,1,135.000005149842,4|2,0:0|0:0,0:0:0:0:
458,310,101557,5,0,0:0:0:0:
232,356,101720,2,0,P|199:356|163:348,1,67.5000025749208
98,194,102046,2,0,L|54:198,2,45.0000017166138,4|4|4,0:0|0:0|0:0,0:0:0:0:
217,196,102372,2,0,L|206:275,1,67.5000025749208,0|2,0:0|0:0,0:0:0:0:
53,198,102698,6,0,L|43:57,1,135.000005149842,4|0,0:0|0:0,0:0:0:0:
132,123,103187,2,0,L|137:199,1,67.5000025749208,4|0,0:0|0:0,0:0:0:0:
117,275,103513,1,0,0:0:0:0:
221,107,103676,2,0,P|285:93|359:97,1,135.000005149842,4|0,0:0|0:0,0:0:0:0:
492,150,104165,5,0,0:0:0:0:
440,79,104328,1,0,0:0:0:0:
405,159,104491,1,2,0:0:0:0:
470,277,104654,2,0,P|499:218|492:148,1,135.000005149842,0|2,0:0|0:0,0:0:0:0:
440,79,105144,1,0,0:0:0:0:
326,262,105307,6,0,L|395:241,1,67.5000025749208,4|0,0:0|0:0,0:0:0:0:
405,159,105633,1,2,0:0:0:0:
405,159,105796,1,2,0:0:0:0:
233,225,105959,2,0,L|93:207,1,135.000005149842,8|0,0:0|0:0,0:0:0:0:
99,207,106448,1,0,0:0:0:0:
312,166,106611,6,0,P|321:131|327:100,1,67.5000025749208,2|8,0:0|0:0,0:0:0:0:
233,225,106937,2,0,P|239:258|247:290,1,67.5000025749208,0|2,0:0|0:0,0:0:0:0:
464,300,107263,2,0,P|405:278|337:307,1,135.000005149842,8|2,0:0|0:0,0:0:0:0:
277,364,107752,1,0,0:0:0:0:
312,166,107915,6,0,L|306:95,1,67.5000025749208,4|0,0:0|0:0,0:0:0:0:
128,40,108241,2,0,L|134:111,1,67.5000025749208,8|0,0:0|0:0,0:0:0:0:
233,225,108568,2,0,L|227:154,1,67.5000025749208,2|2,0:0|0:0,0:0:0:0:
49,99,108894,2,0,L|55:170,1,67.5000025749208,8|0,0:0|0:0,0:0:0:0:
116,246,109220,5,2,0:0:0:0:
116,246,109383,1,2,0:0:0:0:
313,166,109546,1,8,0:0:0:0:
135,106,109709,1,0,0:0:0:0:
222,292,109872,2,0,L|236:205,1,67.5000025749208,2|2,0:0|0:0,0:0:0:0:
257,29,110198,1,8,0:0:0:0:
257,29,110524,6,0,L|333:24,1,67.5000025749208,4|0,0:0|0:0,0:0:0:0:
135,106,110850,1,2,0:0:0:0:
390,194,111176,1,2,0:0:0:0:
257,29,111502,1,2,0:0:0:0:
295,296,111828,5,8,0:0:0:0:
295,296,111910,1,8,0:0:0:0:
295,296,111991,1,8,0:0:0:0:
295,296,112073,1,8,0:0:0:0:
295,296,112154,1,8,0:0:0:0:
295,296,112236,1,8,0:0:0:0:
295,296,112318,1,8,0:0:0:0:
295,296,112399,1,8,0:0:0:0:
295,296,112481,6,0,L|248:284,1,33.7500012874604,4|0,0:0|0:0,0:0:0:0:
236,189,112644,2,0,L|189:201,1,33.7500012874604,0|0,0:0|0:0,0:0:0:0:
170,294,112807,2,0,L|123:282,1,33.7500012874604
111,187,112970,2,0,L|64:199,1,33.7500012874604,0|0,0:0|0:0,0:0:0:0:
170,294,113133,6,0,P|207:217|170:132,1,180,4|8,0:0|0:0,0:0:0:0:
172,134,113622,1,0,0:0:0:0:
295,296,113785,2,0,L|388:286,1,90,2|2,0:0|0:0,0:0:0:0:
507,193,114111,1,8,0:0:0:0:
467,312,114274,1,0,0:0:0:0:
339,195,114437,6,0,L|374:51,1,135,2|2,0:0|0:0,0:0:0:0:
416,64,114763,2,0,L|391:153,1,90,8|0,0:0|0:0,0:0:0:0:
172,134,115089,1,2,0:0:0:0:
289,66,115252,1,2,0:0:0:0:
266,226,115415,2,0,P|295:261|336:274,1,90,8|0,0:0|0:0,0:0:0:0:
499,194,115741,6,0,P|420:158|339:197,1,180,4|8,0:0|0:0,0:0:0:0:
257,355,116231,1,0,0:0:0:0:
426,334,116394,2,0,L|419:239,1,90,2|2,0:0|0:0,0:0:0:0:
266,226,116720,1,8,0:0:0:0:
499,194,116883,1,0,0:0:0:0:
426,334,117046,6,0,P|388:360|343:372,1,90,2|0,0:0|0:0,0:0:0:0:
386,193,117372,2,0,P|377:238|354:278,1,90,8|0,0:0|0:0,0:0:0:0:
170,258,117698,1,2,0:0:0:0:
257,355,117861,1,2,0:0:0:0:
266,227,118024,2,0,P|344:264|424:228,1,180,8|2,0:0|0:0,0:0:0:0:
424,228,118513,5,0,0:0:0:0:
155,356,118676,2,0,P|113:351|62:349,1,90,8|0,0:0|0:0,0:0:0:0:
80,139,119002,1,2,0:0:0:0:
21,240,119165,1,2,0:0:0:0:
170,258,119328,2,0,P|177:211|177:168,1,90,8|0,0:0|0:0,0:0:0:0:
136,58,119654,6,0,P|218:90|297:48,1,180,2|8,0:0|0:0,0:0:0:0:
386,124,120144,1,0,0:0:0:0:
274,257,120307,2,0,L|291:165,1,90,2|2,0:0|0:0,0:0:0:0:
478,246,120633,1,8,0:0:0:0:
386,124,120796,1,0,0:0:0:0:
354,273,120959,6,0,P|293:334|212:309,1,180,4|8,0:0|0:0,0:0:0:0:
212,309,121448,1,0,0:0:0:0:
466,335,121611,2,0,L|479:244,1,90,2|2,0:0|0:0,0:0:0:0:
386,124,121937,1,0,0:0:0:0:
121,168,122100,6,0,P|104:86|177:40,1,180,4|2,0:0|0:0,0:0:0:0:
245,207,122589,1,8,0:0:0:0:
174,113,122752,1,0,0:0:0:0:
51,199,122915,1,8,0:0:0:0:
69,221,122996,1,8,0:0:0:0:
91,238,123078,1,8,0:0:0:0:
117,250,123159,1,8,0:0:0:0:
146,255,123241,1,8,0:0:0:0:
174,252,123322,1,8,0:0:0:0:
201,244,123404,1,8,0:0:0:0:
225,229,123485,1,8,0:0:0:0:
245,207,123568,6,0,L|254:115,1,90,4|0,0:0|0:0,0:0:0:0:
307,280,123894,1,8,0:0:0:0:
174,113,124057,1,0,0:0:0:0:
364,38,124220,2,0,L|341:130,1,90,2|2,0:0|0:0,0:0:0:0:
174,113,124546,1,8,0:0:0:0:
446,73,124709,1,0,0:0:0:0:
273,68,124872,6,0,L|250:160,1,90,2|0,0:0|0:0,0:0:0:0:
307,280,125198,2,0,P|343:304|392:308,1,90,8|0,0:0|0:0,0:0:0:0:
462,183,125524,2,0,P|417:187|380:211,1,90,2|2,0:0|0:0,0:0:0:0:
463,348,125850,2,0,P|494:266|461:182,1,180,8|4,0:0|0:0,0:0:0:0:
370,112,126339,1,0,0:0:0:0:
307,280,126502,6,0,P|268:303|223:317,1,90,8|0,0:0|0:0,0:0:0:0:
119,267,126828,1,2,0:0:0:0:
88,153,126991,1,2,0:0:0:0:
182,83,127154,1,8,0:0:0:0:
119,267,127318,1,0,0:0:0:0:
298,181,127481,6,0,P|340:194|379:217,1,90,2|0,0:0|0:0,0:0:0:0:
196,172,127807,2,0,P|184:128|182:83,1,90,8|0,0:0|0:0,0:0:0:0:
256,18,128133,1,2,0:0:0:0:
88,153,128296,1,2,0:0:0:0:
285,269,128459,2,0,P|296:225|298:180,1,90,8|0,0:0|0:0,0:0:0:0:
180,46,128785,6,0,P|249:97|327:57,1,180,4|8,0:0|0:0,0:0:0:0:
442,191,129274,1,2,0:0:0:0:
442,191,129600,1,2,0:0:0:0:
284,270,129763,6,0,P|323:341|393:300,1,180,8|0,0:0|0:0,0:0:0:0:
442,191,130252,1,2,0:0:0:0:
284,270,130415,2,0,L|190:266,1,90,8|0,0:0|0:0,0:0:0:0:
45,166,130741,1,2,0:0:0:0:
95,281,130904,1,2,0:0:0:0:
233,168,131068,2,0,L|322:164,1,90,8|0,0:0|0:0,0:0:0:0:
489,19,131394,6,0,L|463:113,1,90,4|0,0:0|0:0,0:0:0:0:
403,293,131720,1,8,0:0:0:0:
324,165,131883,1,0,0:0:0:0:
444,52,132046,2,0,L|418:146,1,90,2|2,0:0|0:0,0:0:0:0:
490,318,132372,2,0,L|396:292,1,90,8|0,0:0|0:0,0:0:0:0:
166,189,132698,5,2,0:0:0:0:
201,337,132861,1,0,0:0:0:0:
323,245,133024,1,8,0:0:0:0:
323,245,133106,1,0,0:0:0:0:
323,245,133187,1,0,0:0:0:0:
323,245,133269,1,0,0:0:0:0:
323,245,133350,1,2,0:0:0:0:
215,256,133513,1,0,0:0:0:0:
107,267,133676,1,8,0:0:0:0:
201,337,133839,1,0,0:0:0:0:
263,186,134002,6,0,P|280:123|277:49,2,135.000005149842,4|0|0,0:0|0:0|0:0,0:0:0:0:
15,194,134981,1,0,0:0:0:0:
15,194,135307,6,0,P|50:188|90:188,1,67.5000025749208
208,251,135633,2,0,P|271:266|332:236,1,135.000005149842
479,54,136285,2,0,L|468:127,1,67.5000025749208,0|2,0:0|0:0,0:0:0:0:
455,346,136611,6,0,L|321:338,1,135.000005149842,4|0,0:0|0:0,0:0:0:0:
263,185,137263,1,0,0:0:0:0:
201,334,137589,1,0,0:0:0:0:
348,266,137915,5,0,0:0:0:0:
348,266,138404,1,2,0:0:0:0:
246,264,138568,2,0,P|213:248|194:224,2,67.5000025749208,0|2|8,0:0|0:0|0:0,0:0:0:0:
482,183,139220,6,0,P|417:169|347:185,1,135.000005149842,4|0,0:0|0:0,0:0:0:0:
243,354,139872,2,0,P|178:368|108:352,1,135.000005149842,2|0,0:0|0:0,0:0:0:0:
22,172,140524,5,2,0:0:0:0:
172,36,140850,2,0,L|155:106,1,67.5000025749208
22,172,141176,2,0,L|88:193,1,67.5000025749208,2|0,0:0|0:0,0:0:0:0:
125,285,141502,2,0,L|186:253,1,67.5000025749208
265,192,141828,6,0,L|400:182,1,135.000005149842,2|0,0:0|0:0,0:0:0:0:
399,182,142318,1,0,0:0:0:0:
297,284,142481,2,0,P|290:316|286:351,1,67.5000025749208,2|0,0:0|0:0,0:0:0:0:
265,192,142807,2,0,P|272:160|276:125,1,67.5000025749208
107,68,143133,5,2,0:0:0:0:
40,144,143296,1,0,0:0:0:0:
119,207,143459,1,2,0:0:0:0:
189,134,143622,1,0,0:0:0:0:
40,144,143785,5,0,0:0:0:0:
189,134,143948,1,0,0:0:0:0:
106,274,144111,2,0,L|121:196,1,67.5000025749208
256,60,144437,6,0,P|323:46|388:57,1,135.000005149842,4|2,0:0|0:0,0:0:0:0:
477,192,145089,1,8,0:0:0:0:
321,147,145415,2,0,P|314:179|309:218,1,67.5000025749208
452,325,145741,6,0,P|468:260|477:188,1,135.000005149842,2|0,0:0|0:0,0:0:0:0:
255,60,146394,2,0,P|239:125|230:197,1,135.000005149842,8|0,0:0|0:0,0:0:0:0:
321,326,147046,5,2,0:0:0:0:
177,250,147372,1,0,0:0:0:0:
317,170,147698,1,8,0:0:0:0:
175,90,148024,2,0,L|108:82,1,67.5000025749208
317,170,148350,6,0,L|384:162,1,67.5000025749208,2|0,0:0|0:0,0:0:0:0:
272,254,148676,2,0,L|339:246,1,67.5000025749208,0|0,0:0|0:0,0:0:0:0:
443,201,149002,2,0,P|452:138|403:94,1,135.000005149842,8|0,0:0|0:0,0:0:0:0:
317,170,149491,1,0,0:0:0:0:
349,357,149654,6,0,L|354:282,1,67.5000025749208,4|0,0:0|0:0,0:0:0:0:
233,97,149981,2,0,L|228:172,1,67.5000025749208,2|0,0:0|0:0,0:0:0:0:
434,335,150307,2,0,L|445:185,1,135.000005149842,8|0,0:0|0:0,0:0:0:0:
443,200,150796,1,0,0:0:0:0:
291,253,150959,6,0,L|215:243,1,67.5000025749208,2|0,0:0|0:0,0:0:0:0:
192,318,151285,2,0,L|116:308,1,67.5000025749208,0|0,0:0|0:0,0:0:0:0:
108,229,151611,2,0,L|98:84,1,135.000005149842,8|0,0:0|0:0,0:0:0:0:
256,131,152263,6,0,P|317:153|381:131,1,135.000005149842,4|2,0:0|0:0,0:0:0:0:
471,324,152915,2,0,P|410:302|346:324,1,135.000005149842,8|0,0:0|0:0,0:0:0:0:
346,323,153404,1,0,0:0:0:0:
482,211,153568,6,0,L|491:133,1,67.5000025749208
339,11,153894,2,0,L|330:89,1,67.5000025749208
251,228,154220,1,2,0:0:0:0:
153,274,154383,1,2,0:0:0:0:
86,189,154546,1,2,0:0:0:0:
135,93,154709,1,2,0:0:0:0:
239,120,154872,5,4,0:0:0:0:
256,192,154953,12,2,156176,0:0:0:0:
256,191,157481,5,4,0:0:0:0:
256,191,157807,1,0,0:0:0:0:
335,276,158133,2,0,L|445:264,1,90
352,99,158785,6,0,L|262:89,1,90
146,75,159437,1,0,0:0:0:0:
118,188,159763,1,0,0:0:0:0:
232,212,160089,5,4,0:0:0:0:
211,327,160415,1,0,0:0:0:0:
96,305,160741,2,0,L|2:297,1,90
211,327,161394,5,0,0:0:0:0:
211,327,161720,1,0,0:0:0:0:
175,215,162046,2,0,P|171:169|190:124,2,90,0|0|4,0:0|0:0|0:0,0:0:0:0:
410,190,163024,6,0,L|352:187,1,45
274,182,163350,2,0,L|279:291,1,90
406,100,164002,6,0,L|411:209,1,90
256,353,164654,1,0,0:0:0:0:
101,190,164981,1,0,0:0:0:0:
256,28,165307,5,4,0:0:0:0:
181,105,165633,1,0,0:0:0:0:
257,180,165959,1,0,0:0:0:0:
332,103,166285,1,0,0:0:0:0:
181,105,166611,6,0,P|172:146|175:208,1,90
256,268,167100,1,0,0:0:0:0:
302,187,167263,2,0,L|246:178,1,45
256,268,167589,1,0,0:0:0:0:
333,104,167915,5,4,0:0:0:0:
469,229,168241,2,0,P|414:267|344:265,1,135.000005149842,2|2,0:0|0:0,0:0:0:0:
181,106,168894,1,2,0:0:0:0:
256,322,169220,5,2,0:0:0:0:
333,105,169546,1,2,0:0:0:0:
107,62,169872,2,0,P|95:127|134:179,1,135.000005149842,2|2,0:0|0:0,0:0:0:0:
463,44,170524,5,2,0:0:0:0:
333,105,170687,1,0,0:0:0:0:
416,216,170850,2,0,L|421:146,1,67.5000025749208,2|0,0:0|0:0,0:0:0:0:
372,28,171176,2,0,L|336:18,3,33.7500012874604,8|8|8|8,0:0|0:0|0:0|0:0,0:0:0:0:
293,30,171502,2,0,L|250:42,3,33.7500012874604,8|8|8|8,0:0|0:0|0:0|0:0,0:0:0:0:
254,72,171828,5,2,0:0:0:0:
252,78,171910,1,0,0:0:0:0:
251,84,171991,1,0,0:0:0:0:
250,90,172073,1,0,0:0:0:0:
249,96,172154,1,2,0:0:0:0:
248,102,172236,1,0,0:0:0:0:
247,108,172318,1,0,0:0:0:0:
246,114,172399,1,0,0:0:0:0:
244,120,172481,2,0,L|248:193,1,67.5000025749208,2|2,0:0|0:0,0:0:0:0:
160,78,172807,1,2,0:0:0:0:
374,185,173133,6,0,P|321:205|244:186,1,135.000005149842,4|0,0:0|0:0,0:0:0:0:
160,78,173622,1,0,0:0:0:0:
84,190,173785,2,0,L|97:260,1,67.5000025749208,8|0,0:0|0:0,0:0:0:0:
201,279,174111,2,0,L|214:349,1,67.5000025749208,0|2,0:0|0:0,0:0:0:0:
457,247,174437,6,0,L|469:180,1,67.5000025749208,2|0,0:0|0:0,0:0:0:0:
350,25,174763,2,0,L|362:91,1,67.5000025749208,2|0,0:0|0:0,0:0:0:0:
488,285,175089,2,0,L|508:140,1,135.000005149842,8|0,0:0|0:0,0:0:0:0:
506,151,175578,1,0,0:0:0:0:
405,321,175741,6,0,L|334:317,1,67.5000025749208,4|0,0:0|0:0,0:0:0:0:
125,258,176068,1,2,0:0:0:0:
254,351,176231,1,0,0:0:0:0:
268,215,176394,2,0,L|272:142,1,67.5000025749208,8|0,0:0|0:0,0:0:0:0:
79,34,176720,2,0,L|82:101,1,67.5000025749208,4|0,0:0|0:0,0:0:0:0:
348,257,177046,6,0,L|352:184,1,67.5000025749208,2|0,0:0|0:0,0:0:0:0:
369,169,177290,1,8,0:0:0:0:
369,169,177372,1,8,0:0:0:0:
369,169,177453,1,8,0:0:0:0:
369,169,177535,1,8,0:0:0:0:
369,169,177616,1,8,0:0:0:0:
369,169,177698,1,8,0:0:0:0:
369,169,177779,1,8,0:0:0:0:
369,169,177861,1,8,0:0:0:0:
369,169,177943,1,8,0:0:0:0:
369,169,178024,6,0,L|415:153,1,33.7500012874604,2|0,0:0|0:0,0:0:0:0:
344,286,178187,2,0,L|298:302,1,33.7500012874604,0|0,0:0|0:0,0:0:0:0:
249,259,178350,6,0,P|166:234|80:277,2,180,4|8|2,0:0|0:0|0:0,0:0:0:0:
369,169,179165,1,2,0:0:0:0:
344,286,179328,1,8,0:0:0:0:
285,184,179491,1,0,0:0:0:0:
423,243,179654,6,0,P|430:287|418:333,1,90,2|0,0:0|0:0,0:0:0:0:
370,169,179981,2,0,P|412:155|459:159,1,90,8|0,0:0|0:0,0:0:0:0:
314,101,180307,1,2,0:0:0:0:
314,101,180470,1,2,0:0:0:0:
254,284,180633,2,0,L|347:285,1,90,8|0,0:0|0:0,0:0:0:0:
166,212,180959,5,2,0:0:0:0:
185,366,181122,1,0,0:0:0:0:
102,299,181285,1,8,0:0:0:0:
254,283,181448,2,0,L|262:189,1,90,0|2,0:0|0:0,0:0:0:0:
102,299,181774,1,2,0:0:0:0:
283,338,181937,2,0,L|291:244,1,90,8|0,0:0|0:0,0:0:0:0:
102,299,182263,5,2,0:0:0:0:
312,384,182426,2,0,L|320:290,1,90,2|8,0:0|0:0,0:0:0:0:
417,134,182752,1,0,0:0:0:0:
318,179,182915,2,0,P|273:186|223:188,1,90,2|2,0:0|0:0,0:0:0:0:
71,127,183241,1,8,0:0:0:0:
71,127,183568,6,0,P|54:168|55:217,1,90,4|0,0:0|0:0,0:0:0:0:
142,194,183894,2,0,P|158:235|194:268,1,90,8|0,0:0|0:0,0:0:0:0:
389,246,184220,2,0,P|406:205|405:156,1,90,2|2,0:0|0:0,0:0:0:0:
318,179,184546,2,0,P|301:137|265:104,1,90,8|0,0:0|0:0,0:0:0:0:
51,283,184872,6,0,P|126:322|193:267,2,180,2|8|2,0:0|0:0|0:0,0:0:0:0:
150,131,185687,1,2,0:0:0:0:
118,246,185850,1,8,0:0:0:0:
51,160,186013,1,0,0:0:0:0:
216,207,186176,6,0,P|237:169|244:120,1,90,4|0,0:0|0:0,0:0:0:0:
122,48,186502,2,0,P|128:92|150:131,1,90,8|0,0:0|0:0,0:0:0:0:
388,196,186828,1,2,0:0:0:0:
388,196,187154,2,0,L|363:284,1,90,8|0,0:0|0:0,0:0:0:0:
143,318,187481,5,4,0:0:0:0:
262,381,187644,1,0,0:0:0:0:
257,246,187807,1,8,0:0:0:0:
143,318,187970,1,0,0:0:0:0:
257,246,188133,1,8,0:0:0:0:
272,229,188214,1,8,0:0:0:0:
284,210,188296,1,8,0:0:0:0:
292,189,188377,1,8,0:0:0:0:
296,167,188459,1,8,0:0:0:0:
296,145,188540,1,8,0:0:0:0:
291,123,188622,1,8,0:0:0:0:
282,102,188703,1,8,0:0:0:0:
269,84,188785,6,0,L|168:75,1,90,4|0,0:0|0:0,0:0:0:0:
133,203,189111,2,0,L|43:194,1,90,8|0,0:0|0:0,0:0:0:0:
143,318,189437,1,2,0:0:0:0:
211,157,189600,1,2,0:0:0:0:
44,195,189763,2,0,L|56:289,1,90,8|0,0:0|0:0,0:0:0:0:
56,315,190008,1,0,0:0:0:0:
56,315,190089,6,0,P|102:324|149:317,1,90,2|0,0:0|0:0,0:0:0:0:
251,364,190415,2,0,P|260:318|253:271,1,90,8|0,0:0|0:0,0:0:0:0:
136,118,190741,1,2,0:0:0:0:
173,228,190904,1,2,0:0:0:0:
337,192,191068,2,0,P|383:185|433:185,1,90,8|0,0:0|0:0,0:0:0:0:
461,205,191312,1,0,0:0:0:0:
461,205,191394,6,0,L|471:113,1,90,2|0,0:0|0:0,0:0:0:0:
390,268,191720,1,8,0:0:0:0:
390,268,191801,1,0,0:0:0:0:
390,268,191883,1,0,0:0:0:0:
390,268,191964,1,0,0:0:0:0:
390,268,192046,1,2,0:0:0:0:
256,189,192209,1,2,0:0:0:0:
268,351,192372,2,0,P|289:308|300:266,1,90,8|0,0:0|0:0,0:0:0:0:
240,115,192698,6,0,P|182:177|221:255,1,180,2|8,0:0|0:0,0:0:0:0:
256,189,193106,1,0,0:0:0:0:
256,189,193187,1,0,0:0:0:0:
136,82,193350,2,0,L|39:70,1,90,2|0,0:0|0:0,0:0:0:0:
15,174,193676,1,8,0:0:0:0:
15,178,193758,1,0,0:0:0:0:
15,182,193839,1,0,0:0:0:0:
15,186,193921,1,0,0:0:0:0:
14,190,194002,6,0,L|33:280,1,90,4|0,0:0|0:0,0:0:0:0:
159,362,194328,1,8,0:0:0:0:
135,247,194491,2,0,P|177:233|236:222,1,90
339,214,194818,1,2,0:0:0:0:
429,356,194981,2,0,P|384:346|342:332,1,90,8|0,0:0|0:0,0:0:0:0:
222,224,195307,5,2,0:0:0:0:
251,346,195470,1,0,0:0:0:0:
420,269,195633,2,0,P|430:224|423:177,1,90,8|0,0:0|0:0,0:0:0:0:
378,83,195959,1,2,0:0:0:0:
339,214,196122,1,2,0:0:0:0:
168,161,196285,2,0,P|210:145|261:148,1,90,8|0,0:0|0:0,0:0:0:0:
339,214,196611,5,4,0:0:0:0:
339,214,196693,1,0,0:0:0:0:
339,214,196774,1,0,0:0:0:0:
168,332,196937,2,0,P|152:290|155:239,1,90,8|0,0:0|0:0,0:0:0:0:
325,127,197263,2,0,P|341:169|338:220,1,90,2|2,0:0|0:0,0:0:0:0:
169,161,197589,2,0,P|123:151|76:149,1,90,8|0,0:0|0:0,0:0:0:0:
310,309,197915,6,0,P|354:306|398:296,1,90,4|0,0:0|0:0,0:0:0:0:
470,154,198241,1,8,0:0:0:0:
339,214,198404,1,0,0:0:0:0:
339,214,198486,1,0,0:0:0:0:
339,214,198568,2,0,P|292:220|241:213,1,90,2|2,0:0|0:0,0:0:0:0:
226,180,198812,1,0,0:0:0:0:
226,180,198894,2,0,P|220:224|230:277,1,90,8|0,0:0|0:0,0:0:0:0:
136,344,199220,6,0,P|72:332|-2:326,1,135.000005149842,4|0,0:0|0:0,0:0:0:0:
121,228,199709,2,0,L|136:89,1,135.000005149842
48,179,200198,2,0,L|39:247,1,67.5000025749208
226,181,200524,6,0,L|268:171,1,33.7500012874604,2|2,0:0|0:0,0:0:0:0:
472,42,201013,1,2,0:0:0:0:
472,42,201502,1,2,0:0:0:0:
472,42,201665,1,2,0:0:0:0:
472,42,201828,6,0,L|457:141,1,90,4|0,0:0|0:0,0:0:0:0:
444,211,202318,1,0,0:0:0:0:
366,99,202481,2,0,P|326:89|266:87,1,90
196,90,202970,1,0,0:0:0:0:
262,267,203133,6,0,L|271:208,1,45
168,287,203459,2,0,L|177:228,1,45
196,90,203785,2,0,P|156:100|96:102,1,90
262,267,204437,6,0,P|302:257|362:255,1,90,4|0,0:0|0:0,0:0:0:0:
413,305,204926,1,0,0:0:0:0:
296,357,205089,2,0,P|251:354|207:344,1,90,0|0,0:0|0:0,0:0:0:0:
177,268,205578,1,0,0:0:0:0:
177,268,205741,6,0,L|172:209,1,45
0,181,206068,2,0,L|5:240,1,45
96,342,206394,2,0,L|89:246,1,90
71,36,207046,6,0,L|71:97,1,45,4|0,0:0|0:0,0:0:0:0:
121,143,207372,1,0,0:0:0:0:
256,54,207698,2,0,L|208:46,1,45
276,169,208024,2,0,L|228:161,1,45
121,143,208350,5,0,0:0:0:0:
121,143,208676,1,0,0:0:0:0:
256,54,208839,1,2,0:0:0:0:
344,227,209002,2,0,P|356:205|362:176,1,45,8|0,0:0|0:0,0:0:0:0:
276,169,209328,2,0,P|264:191|258:220,1,45
337,372,209654,5,4,0:0:0:0:
337,372,210144,1,2,0:0:0:0:
150,353,210307,2,0,P|143:323|138:304,1,45,8|2,0:0|0:0,0:0:0:0:
262,81,210796,6,0,P|275:123|275:178,1,90,4|8,0:0|0:0,0:0:0:0:
103,215,211285,2,0,L|158:202,1,45,4|0,0:0|0:0,0:0:0:0:
258,248,211611,1,8,0:0:0:0:
258,248,211693,1,8,0:0:0:0:
258,248,211774,1,8,0:0:0:0:
258,248,211856,1,8,0:0:0:0:
258,248,211937,1,8,0:0:0:0:
258,248,212019,1,8,0:0:0:0:
258,248,212100,1,8,0:0:0:0:
258,248,212182,1,8,0:0:0:0:
258,248,212263,6,0,P|321:271|383:251,1,135.000005149842,4|0,0:0|0:0,0:0:0:0:
459,317,212752,1,2,0:0:0:0:
260,362,212915,2,0,P|224:357|186:353,1,67.5000025749208,8|0,0:0|0:0,0:0:0:0:
39,369,213241,1,0,0:0:0:0:
112,299,213404,1,2,0:0:0:0:
41,107,213568,6,0,P|32:140|25:182,1,67.5000025749208,2|8,0:0|0:0,0:0:0:0:
160,104,213894,2,0,P|136:128|110:162,1,67.5000025749208
258,76,214220,2,0,P|324:58|394:68,2,135.000005149842,8|0|4,0:0|0:0|0:0,0:0:0:0:
260,355,215198,6,0,P|276:322|283:290,1,67.5000025749208,0|2,0:0|0:0,0:0:0:0:
258,75,215524,2,0,P|232:137|246:205,1,135.000005149842,8|0,0:0|0:0,0:0:0:0:
244,201,216013,1,2,0:0:0:0:
418,230,216176,6,0,L|330:221,1,67.5000025749208,0|8,0:0|0:0,0:0:0:0:
316,149,216502,1,0,0:0:0:0:
457,267,216665,2,0,L|369:258,1,67.5000025749208,2|8,0:0|0:0,0:0:0:0:
316,149,216991,1,0,0:0:0:0:
316,149,217073,1,0,0:0:0:0:
316,149,217154,2,0,P|332:116|340:85,1,67.5000025749208,8|0,0:0|0:0,0:0:0:0:
123,82,217481,6,0,P|189:84|266:74,1,135.000005149842,4|0,0:0|0:0,0:0:0:0:
257,74,217970,1,2,0:0:0:0:
179,166,218133,2,0,P|146:181|119:201,1,67.5000025749208,8|0,0:0|0:0,0:0:0:0:
30,61,218459,2,0,P|37:127|36:208,1,135.000005149842,4|0,0:0|0:0,0:0:0:0:
100,314,218948,5,2,0:0:0:0:
100,314,219111,2,0,P|136:307|170:305,1,67.5000025749208
372,340,219437,1,2,0:0:0:0:
275,370,219600,1,2,0:0:0:0:
294,270,219763,2,0,P|299:230|303:199,1,67.5000025749208,8|0,0:0|0:0,0:0:0:0:
201,33,220089,6,0,P|186:100|179:171,1,135.000005149842,4|0,0:0|0:0,0:0:0:0:
179,165,220578,1,2,0:0:0:0:
321,109,220741,2,0,P|355:102|390:97,1,67.5000025749208,8|0,0:0|0:0,0:0:0:0:
390,199,221068,2,0,P|397:233|402:268,1,67.5000025749208,0|0,0:0|0:0,0:0:0:0:
276,371,221394,5,2,0:0:0:0:
294,271,221557,1,0,0:0:0:0:
364,343,221720,2,0,P|394:352|433:351,1,67.5000025749208,0|2,0:0|0:0,0:0:0:0:
294,271,222046,2,0,P|230:257|160:270,1,135.000005149842,8|0,0:0|0:0,0:0:0:0:
47,50,222698,6,0,L|117:46,1,67.5000025749208,4|0,0:0|0:0,0:0:0:0:
238,153,223024,2,0,L|308:149,1,67.5000025749208,8|0,0:0|0:0,0:0:0:0:
35,173,223350,2,0,L|105:169,1,67.5000025749208,2|2,0:0|0:0,0:0:0:0:
226,276,223676,2,0,L|296:272,1,67.5000025749208,8|0,0:0|0:0,0:0:0:0:
468,193,224002,5,8,0:0:0:0:
481,173,224083,1,8,0:0:0:0:
490,152,224165,1,8,0:0:0:0:
493,128,224246,1,8,0:0:0:0:
491,105,224328,1,8,0:0:0:0:
483,83,224409,1,8,0:0:0:0:
469,63,224491,1,8,0:0:0:0:
452,48,224572,1,8,0:0:0:0:
431,37,224654,6,0,L|383:34,1,33.7500012874604,4|0,0:0|0:0,0:0:0:0:
283,148,224818,2,0,L|331:144,1,33.7500012874604
300,50,224981,2,0,L|251:46,1,33.7500012874604,2|0,0:0|0:0,0:0:0:0:
152,161,225145,2,0,L|200:157,1,33.7500012874604,0|0,0:0|0:0,0:0:0:0:
79,113,225307,6,0,P|67:156|75:204,1,90,4|0,0:0|0:0,0:0:0:0:
254,331,225633,1,8,0:0:0:0:
204,235,225796,1,0,0:0:0:0:
70,326,225959,2,0,L|174:308,1,90,2|2,0:0|0:0,0:0:0:0:
347,278,226285,1,8,0:0:0:0:
204,235,226448,1,0,0:0:0:0:
325,86,226611,6,0,P|336:129|339:174,1,90,2|0,0:0|0:0,0:0:0:0:
438,207,226937,2,0,P|415:245|385:279,1,90,8|0,0:0|0:0,0:0:0:0:
204,235,227263,2,0,P|122:204|42:244,2,180,2|8|2,0:0|0:0|0:0,0:0:0:0:
259,327,228078,5,2,0:0:0:0:
139,375,228241,2,0,P|128:332|125:287,1,90,8|0,0:0|0:0,0:0:0:0:
161,119,228568,1,2,0:0:0:0:
45,242,228731,1,2,0:0:0:0:
218,325,228894,2,0,P|215:280|204:236,1,90,8|0,0:0|0:0,0:0:0:0:
100,173,229220,6,0,P|183:197|241:131,1,180,2|8,0:0|0:0,0:0:0:0:
240,134,229709,1,0,0:0:0:0:
129,19,229872,2,0,P|100:54|84:97,1,90,2|2,0:0|0:0,0:0:0:0:
302,81,230198,2,0,P|219:57|161:123,1,180,8|4,0:0|0:0,0:0:0:0:
255,242,230687,5,0,0:0:0:0:
240,134,230850,1,8,0:0:0:0:
168,249,231013,1,0,0:0:0:0:
283,318,231176,2,0,P|327:304|369:288,1,90,2|2,0:0|0:0,0:0:0:0:
473,372,231502,2,0,P|494:330|512:289,1,90,8|0,0:0|0:0,0:0:0:0:
348,179,231828,5,2,0:0:0:0:
369,288,231991,1,0,0:0:0:0:
480,159,232154,2,0,P|486:113|490:67,1,90,8|0,0:0|0:0,0:0:0:0:
261,126,232481,2,0,P|255:172|251:218,1,90,2|2,0:0|0:0,0:0:0:0:
360,378,232807,2,0,P|366:332|370:286,1,90,8|0,0:0|0:0,0:0:0:0:
261,126,233133,5,4,0:0:0:0:
422,217,233296,1,0,0:0:0:0:
276,326,233459,2,0,P|231:336|185:340,1,90,8|0,0:0|0:0,0:0:0:0:
84,252,233785,1,2,0:0:0:0:
173,113,233948,2,0,P|217:117|261:126,1,90,2|0,0:0|0:0,0:0:0:0:
360,257,234274,6,0,P|441:287|495:222,1,180,4|2,0:0|0:0,0:0:0:0:
441,88,234763,2,0,L|421:177,1,90,0|2,0:0|0:0,0:0:0:0:
422,217,235008,1,2,0:0:0:0:
422,217,235089,1,2,0:0:0:0:
422,217,235171,1,2,0:0:0:0:
422,217,235252,1,2,0:0:0:0:
422,217,235334,1,2,0:0:0:0:
422,217,235415,6,0,L|363:220,1,45,8|0,0:0|0:0,0:0:0:0:
318,146,235578,2,0,L|259:149,1,45,0|0,0:0|0:0,0:0:0:0:
214,240,235741,6,0,P|123:251|37:238,1,180,4|8,0:0|0:0,0:0:0:0:
36,237,236231,1,0,0:0:0:0:
170,349,236394,2,0,P|215:342|260:338,1,90,2|2,0:0|0:0,0:0:0:0:
443,351,236720,1,8,0:0:0:0:
334,270,236883,1,0,0:0:0:0:
479,104,237046,6,0,L|466:196,1,90,2|0,0:0|0:0,0:0:0:0:
403,12,237372,2,0,L|390:104,1,90,8|0,0:0|0:0,0:0:0:0:
334,270,237698,1,2,0:0:0:0:
270,150,237861,1,2,0:0:0:0:
467,194,238024,2,0,P|422:193|374:189,1,90,8|0,0:0|0:0,0:0:0:0:
270,150,238350,5,4,0:0:0:0:
334,270,238513,1,0,0:0:0:0:
431,112,238676,2,0,P|386:108|341:107,1,90,8|0,0:0|0:0,0:0:0:0:
123,132,239002,1,2,0:0:0:0:
211,29,239165,1,2,0:0:0:0:
270,150,239328,1,8,0:0:0:0:
116,37,239491,1,0,0:0:0:0:
188,208,239654,6,0,L|167:298,1,90,2|0,0:0|0:0,0:0:0:0:
123,132,239981,1,8,0:0:0:0:
106,332,240144,2,0,P|184:366|239:304,1,180,2|2,0:0|0:0,0:0:0:0:
239,303,240551,1,0,0:0:0:0:
239,303,240633,2,0,P|283:287|331:285,1,90,8|0,0:0|0:0,0:0:0:0:
482,171,240959,6,0,P|398:193|332:129,1,180,4|8,0:0|0:0,0:0:0:0:
298,362,241448,1,2,0:0:0:0:
298,362,241774,1,2,0:0:0:0:
302,245,241937,6,0,P|218:223|156:288,1,180,8|0,0:0|0:0,0:0:0:0:
157,282,242426,1,2,0:0:0:0:
123,170,242589,2,0,L|118:74,1,90,8|0,0:0|0:0,0:0:0:0:
28,246,242915,2,0,P|67:276|116:286,1,90,2|0,0:0|0:0,0:0:0:0:
123,170,243241,1,8,0:0:0:0:
123,170,243323,1,0,0:0:0:0:
123,170,243404,1,0,0:0:0:0:
214,95,243568,6,0,P|290:51|368:89,2,180,4|8|2,0:0|0:0|0:0,0:0:0:0:
370,228,244383,1,2,0:0:0:0:
206,209,244546,1,8,0:0:0:0:
292,130,244709,1,0,0:0:0:0:
269,297,244872,6,0,P|224:311|178:311,1,90,2|8,0:0|0:0,0:0:0:0:
292,130,245198,2,0,L|281:230,1,90,2|0,0:0|0:0,0:0:0:0:
356,309,245524,1,8,0:0:0:0:
206,209,245687,1,0,0:0:0:0:
371,137,245850,1,8,0:0:0:0:
269,297,246013,1,8,0:0:0:0:
50,211,246176,6,0,P|128:172|207:210,1,180,4|8,0:0|0:0,0:0:0:0:
269,297,246665,1,0,0:0:0:0:
118,348,246828,2,0,L|129:255,1,90,2|0,0:0|0:0,0:0:0:0:
179,76,247154,6,0,P|257:115|336:77,1,180,8|0,0:0|0:0,0:0:0:0:
335,77,247644,1,2,0:0:0:0:
105,26,247807,2,0,P|89:68|96:115,1,90,8|0,0:0|0:0,0:0:0:0:
269,297,248133,2,0,P|250:255|212:227,1,90,2|0,0:0|0:0,0:0:0:0:
11,193,248459,1,8,0:0:0:0:
118,348,248622,1,0,0:0:0:0:
219,199,248785,6,0,P|307:177|399:172,1,180,4|2,0:0|0:0,0:0:0:0:
396,172,249274,1,2,0:0:0:0:
179,95,249437,1,2,0:0:0:0:
164,274,249600,1,2,0:0:0:0:
11,193,249763,2,0,P|55:182|99:175,1,90,2|2,0:0|0:0,0:0:0:0:
270,297,250089,5,2,0:0:0:0:
179,95,250252,1,2,0:0:0:0:
51,277,250415,1,8,0:0:0:0:
51,277,250497,1,8,0:0:0:0:
51,277,250578,1,8,0:0:0:0:
51,277,250660,1,8,0:0:0:0:
51,277,250741,6,0,L|83:310,1,45,4|0,0:0|0:0,0:0:0:0:
164,274,250904,6,0,L|196:307,1,45,0|0,0:0|0:0,0:0:0:0:
277,266,251068,6,0,L|309:299,1,45,0|0,0:0|0:0,0:0:0:0:
389,257,251231,6,0,L|421:290,1,45,0|0,0:0|0:0,0:0:0:0:
325,184,251394,6,0,P|296:104|357:43,2,180,2|8|2,0:0|0:0|0:0,0:0:0:0:
389,257,252209,1,2,0:0:0:0:
459,134,252372,2,0,P|418:116|374:121,1,90,8|0,0:0|0:0,0:0:0:0:
233,49,252698,6,0,P|153:84|68:40,1,180,4|8,0:0|0:0,0:0:0:0:
73,47,253187,1,0,0:0:0:0:
20,161,253350,1,2,0:0:0:0:
103,255,253513,1,2,0:0:0:0:
220,209,253676,2,0,P|266:205|313:202,1,90,8|0,0:0|0:0,0:0:0:0:
259,326,254002,6,0,P|213:330|166:333,1,90,2|0,0:0|0:0,0:0:0:0:
20,161,254328,2,0,P|66:157|113:154,1,90,8|0,0:0|0:0,0:0:0:0:
310,202,254654,1,2,0:0:0:0:
228,93,254818,1,2,0:0:0:0:
103,255,254981,2,0,P|95:300|94:348,1,90,8|0,0:0|0:0,0:0:0:0:
397,257,255307,6,0,P|405:212|406:164,1,90,2|0,0:0|0:0,0:0:0:0:
148,40,255633,2,0,P|140:85|139:133,1,90,8|0,0:0|0:0,0:0:0:0:
310,202,255959,1,2,0:0:0:0:
228,93,256122,1,2,0:0:0:0:
82,201,256285,2,0,P|127:209|175:210,1,90,8|0,0:0|0:0,0:0:0:0:
483,66,256611,6,0,P|396:45|304:60,2,180,4|8|2,0:0|0:0|0:0,0:0:0:0:
485,200,257426,1,2,0:0:0:0:
355,160,257589,2,0,P|337:207|328:246,1,90,8|0,0:0|0:0,0:0:0:0:
490,347,257915,6,0,P|410:316|339:371,1,180,2|8,0:0|0:0,0:0:0:0:
485,200,258404,2,0,P|474:156|458:114,1,90,0|2,0:0|0:0,0:0:0:0:
356,24,258731,1,2,0:0:0:0:
355,160,258894,2,0,P|310:171|264:173,1,90,8|0,0:0|0:0,0:0:0:0:
31,36,259220,5,4,0:0:0:0:
31,36,259546,1,8,0:0:0:0:
31,36,259872,1,2,0:0:0:0:
76,192,260035,2,0,P|92:149|99:106,1,90,2|8,0:0|0:0,0:0:0:0:
84,291,260361,6,0,P|159:253|249:279,1,180,4|2,0:0|0:0,0:0:0:0:
351,364,260850,1,8,0:0:0:0:
465,291,261013,1,2,0:0:0:0:
379,186,261176,1,8,0:0:0:0:
366,167,261257,1,8,0:0:0:0:
359,146,261339,1,8,0:0:0:0:
358,123,261420,1,8,0:0:0:0:
364,102,261502,1,8,0:0:0:0:
376,83,261583,1,8,0:0:0:0:
392,67,261665,1,8,0:0:0:0:
412,58,261746,1,8,0:0:0:0:
435,54,261828,6,0,P|357:78|271:38,1,180,4|8,0:0|0:0,0:0:0:0:
142,81,262318,1,0,0:0:0:0:
232,181,262481,2,0,P|236:227|235:273,1,90,2|2,0:0|0:0,0:0:0:0:
32,350,262807,2,0,P|28:304|29:258,1,90,8|0,0:0|0:0,0:0:0:0:
181,322,263133,6,0,P|266:337|310:264,2,180,4|8|2,0:0|0:0|0:0,0:0:0:0:
232,181,263948,1,2,0:0:0:0:
113,366,264111,1,8,0:0:0:0:
97,253,264274,1,0,0:0:0:0:
232,181,264437,6,0,P|236:227|235:273,1,90,2|0,0:0|0:0,0:0:0:0:
97,253,264763,1,8,0:0:0:0:
97,253,264926,1,0,0:0:0:0:
152,129,265089,2,0,P|190:99|234:89,1,90,2|2,0:0|0:0,0:0:0:0:
395,141,265415,1,8,0:0:0:0:
283,35,265578,1,0,0:0:0:0:
232,180,265741,5,2,0:0:0:0:
368,61,265904,1,0,0:0:0:0:
322,236,266068,2,0,L|312:147,1,90,8|0,0:0|0:0,0:0:0:0:
451,48,266394,2,0,L|441:137,1,90,2|2,0:0|0:0,0:0:0:0:
296,286,266720,2,0,L|286:197,1,90,8|0,0:0|0:0,0:0:0:0:
491,11,267046,6,0,L|472:190,1,180,4|8,0:0|0:0,0:0:0:0:
447,368,267535,1,2,0:0:0:0:
447,368,267861,1,2,0:0:0:0:
361,241,268024,6,0,P|282:210|218:273,1,180,8|0,0:0|0:0,0:0:0:0:
219,268,268513,1,2,0:0:0:0:
282,369,268676,2,0,P|303:330|295:286,1,90,8|0,0:0|0:0,0:0:0:0:
103,187,269002,1,2,0:0:0:0:
13,275,269165,1,2,0:0:0:0:
99,366,269328,1,8,0:0:0:0:
99,366,269410,1,0,0:0:0:0:
99,366,269491,1,0,0:0:0:0:
219,268,269654,6,0,L|225:81,1,180,4|8,0:0|0:0,0:0:0:0:
141,18,270144,1,0,0:0:0:0:
306,137,270307,2,0,L|302:228,1,90,2|2,0:0|0:0,0:0:0:0:
136,299,270633,2,0,L|140:208,1,90,8|0,0:0|0:0,0:0:0:0:
391,96,270959,6,0,L|387:187,1,90,8|0,0:0|0:0,0:0:0:0:
219,268,271285,1,2,0:0:0:0:
219,268,271448,1,2,0:0:0:0:
477,191,271611,1,8,0:0:0:0:
306,137,271774,1,8,0:0:0:0:
423,273,271937,1,8,0:0:0:0:
391,96,272100,1,8,0:0:0:0:
330,265,272263,6,0,P|289:283|244:294,1,90,4|0,0:0|0:0,0:0:0:0:
154,367,272589,2,0,P|112:350|72:326,1,90,8|0,0:0|0:0,0:0:0:0:
62,278,272834,1,0,0:0:0:0:
62,278,272915,2,0,L|77:184,1,90,2|2,0:0|0:0,0:0:0:0:
203,51,273241,2,0,P|159:37|114:31,1,90,8|0,0:0|0:0,0:0:0:0:
24,72,273568,5,2,0:0:0:0:
179,152,273731,2,0,P|223:145|266:132,1,90,0|8,0:0|0:0,0:0:0:0:
203,51,274057,1,0,0:0:0:0:
351,175,274220,2,0,P|351:130|343:85,1,90,2|2,0:0|0:0,0:0:0:0:
397,266,274546,2,0,P|428:234|454:197,1,90,8|0,0:0|0:0,0:0:0:0:
284,267,274872,6,0,P|283:311|291:356,1,90,2|0,0:0|0:0,0:0:0:0:
242,172,275198,2,0,P|210:203|184:240,1,90,8|0,0:0|0:0,0:0:0:0:
397,266,275524,1,2,0:0:0:0:
351,175,275687,1,2,0:0:0:0:
291,357,275850,2,0,P|247:361|194:357,1,90,8|0,0:0|0:0,0:0:0:0:
13,282,276176,5,2,0:0:0:0:
84,350,276339,1,0,0:0:0:0:
126,202,276502,2,0,P|125:154|124:107,1,90,8|0,0:0|0:0,0:0:0:0:
0,11,276828,2,0,P|1:59|2:106,1,90,2|2,0:0|0:0,0:0:0:0:
225,250,277154,2,0,P|224:202|223:155,1,90,8|0,0:0|0:0,0:0:0:0:
181,85,277481,6,0,P|261:124|332:81,1,180,4|0,0:0|0:0,0:0:0:0:
398,153,278459,1,0,0:0:0:0:
328,223,278785,6,0,P|320:261|315:313,1,90
482,222,279437,2,0,P|490:184|495:132,1,90
398,153,280089,5,4,0:0:0:0:
398,153,280803,1,0,0:0:0:0:
296,190,281160,1,0,0:0:0:0:
256,92,281604,2,0,P|170:68|86:96,1,180,0|4,0:0|0:0,0:0:0:0:
256,192,282969,12,0,286775,0:0:0:0:
