osu file format v9

[General]
AudioFilename: mp3.mp3
AudioLeadIn: 2000
PreviewTime: 98399
Countdown: 0
SampleSet: Soft
StackLeniency: 0.7
Mode: 0
LetterboxInBreaks: 1

[Editor]
DistanceSpacing: 1
BeatDivisor: 4
GridSize: 8

[Metadata]
Title:Kimi ga Kureta Ano Hi
Artist:Chihara Minori
Creator:PSPDS Eddie
Version:Hard
Source:
Tags:

[Difficulty]
HPDrainRate:6
CircleSize:4
OverallDifficulty:6
ApproachRate:7
SliderMultiplier:1.6
SliderTickRate:2

[Events]
//Background and Video events
0,0,"BG.jpg"
//Break Periods
2,10440,11728
//Storyboard Layer 0 (Background)
//Storyboard Layer 1 (Fail)
//Storyboard Layer 2 (Pass)
//Storyboard Layer 3 (Foreground)
//Storyboard Sound Samples
//Background Colour Transformations
3,100,163,162,255

[TimingPoints]
688,597.014925373134,4,2,0,40,1,0
12628,603.015075376884,4,2,0,40,1,0
34950,387.096774193548,4,2,0,70,1,0
59109,-100,4,2,0,40,0,0
59786,-100,4,2,0,70,0,0

[HitObjects]
256,304,687,2,0,B|168:312|88:248,1,160
144,192,1583,1,0
224,192,1882,2,0,B|400:192,1,160
384,112,2777,1,0
304,112,3076,6,0,B|200:112,2,80
304,32,3971,1,0
384,32,4270,2,0,B|480:32,2,80
384,112,5165,1,0
384,192,5464,6,0,B|384:296,2,80
384,192,6359,1,0
304,192,6658,2,0,B|304:288,2,80
304,192,7553,1,0
224,192,7852,6,0,B|120:192,2,80
224,112,8747,1,0
144,112,9046,2,0,B|40:112,2,80
224,112,9941,1,0
224,112,10240,1,2
256,304,12628,6,0,B|176:336|80:296,2,160
256,224,14135,1,2
176,232,14437,1,2
120,176,14738,1,2
136,96,15040,2,0,B|64:72|24:8,2,120
208,120,16246,1,0
256,56,16547,1,2
304,120,16849,1,2
376,96,17150,6,0,B|408:136|448:152,1,80
496,248,17904,2,0,B|472:312|376:328,1,120
328,304,18658,2,0,B|264:240|184:240,1,160
32,192,19864,6,0,B|128:168|168:72,1,160
232,104,20768,2,0,B|304:120,1,40
312,128,21070,2,0,B|360:176|400:184,1,80
424,240,21673,2,0,B|408:288,3,40
400,312,22276,6,0,B|344:264|264:272,2,120
336,360,23482,1,0
256,336,23783,1,2
176,360,24085,1,2
256,336,24386,1,2
192,280,24688,6,0,B|120:280|80:244,2,120
192,200,25894,1,0
256,144,26195,1,2
320,200,26497,1,2
256,248,26798,6,0,B|256:320,2,40
256,144,28004,2,0,B|256:96,2,40
256,248,28909,1,0
256,192,29512,12,0,34035
456,192,34950,6,0,B|456:80,2,80
376,192,35530,1,0
376,272,35724,2,0,B|376:368,2,80
376,192,36304,1,0
376,112,36498,2,0,B|376:16,2,80
376,192,37079,1,0
296,192,37272,5,0
216,192,37466,1,0
192,192,37562,1,0
168,192,37659,1,0
144,192,37756,1,0
120,192,37853,1,0
40,192,38046,6,0,B|40:88,2,80
40,272,38627,1,0
88,336,38820,1,0
136,272,39014,1,0
208,304,39208,1,0
288,288,39401,1,0
344,232,39595,2,0,B|392:248|448:224,2,80
344,152,40175,5,0
168,152,40369,1,0
256,72,40562,2,0,B|256:32,4,40
256,152,41143,5,0
288,224,41337,1,0
368,240,41530,1,0
368,320,41724,6,0,B|408:320,1,40
288,320,42014,2,0,B|240:320,1,40
168,312,42304,1,0
144,304,42401,1,0
120,296,42498,1,0
96,288,42595,1,0
72,280,42691,6,0,B|48:232|72:184,1,80
80,120,43079,1,0
160,120,43272,2,0,B|160:168,1,40
240,120,43562,2,0,B|240:80,1,40
320,120,43853,2,0,B|360:120,4,40
256,192,44337,12,4,45788
256,56,46175,5,4
96,192,46562,5,0
192,248,46756,1,2
88,280,46949,1,0
184,336,47143,1,2
256,296,47337,6,0,B|352:296|400:224,1,160,0|2
416,152,47917,2,0,B|352:88|240:104,1,160
216,160,48498,1,2
184,88,48691,1,0
240,32,48885,2,0,B|336:16|416:56,2,160,0|2|0
184,88,49853,1,0
112,48,50046,1,2
64,112,50240,1,0
48,192,50433,6,0,B|56:288|144:320,1,160,0|2
464,192,51208,2,0,B|456:96|368:64,1,160,0|2
256,176,51982,6,0,B|352:176,1,80,4|0
256,176,52369,2,0,B|256:288,1,80,4|0
256,176,52756,2,0,B|160:176,1,80,4|0
256,176,53143,2,0,B|256:96,1,80,4|0
256,192,53530,12,4,55079
256,192,55853,5,4
256,192,56627,6,0,B|168:192,2,80,4|0|0
256,112,57208,1,4
336,192,57401,1,0
256,272,57595,1,0
176,272,57788,6,0,B|80:272,2,80,4|0|0
176,192,58369,1,4
256,112,58562,1,0
336,192,58756,1,0
256,272,58949,1,4
256,112,59337,6,0,B|256:88,8,20,2|0|0|0|0|0|0|0|4
336,112,59917,2,0,B|424:112,2,80,2|0|0
336,192,60498,1,0
416,192,60691,1,0
376,264,60885,2,0,B|328:280|272:264,1,80,2|0
216,272,61272,6,0,B|120:280|64:224,1,160,0|2
64,144,61853,2,0,B|64:40,2,80,0|0|0
144,160,62433,1,2
200,104,62627,1,0
248,32,62820,6,0,B|344:16|416:80,1,160,4|0
456,128,63401,2,0,B|464:240|400:280,1,160,4|2
344,320,63982,1,0
344,320,64175,1,0
256,320,64369,6,0,B|160:320,1,80
176,240,64756,1,2
256,240,64949,1,0
256,160,65143,6,0,B|160:160,1,80
176,80,65530,1,2
256,80,65724,1,0
336,80,65917,6,0,B|392:120|408:184,2,120
256,80,66691,1,0
144,112,66885,1,0
184,216,67079,1,2
288,184,67272,1,0
256,80,67466,6,0,B|408:80,2,120,0|0|0
160,24,68240,1,0
64,80,68433,1,0
160,136,68627,1,2
256,80,68820,1,0
256,80,69014,6,0,B|120:80,2,120,0|0|0
256,160,69788,2,0,B|256:296,2,120,0|0|0
336,160,70562,5,0
176,160,70950,1,2
392,192,71337,1,4
120,192,71724,1,4
256,280,72111,6,0,B|256:360,2,80,4|0|0
336,280,72691,2,0,B|440:280|480:224,1,160
480,144,73272,1,2
480,144,73466,1,0
416,104,73659,6,0,B|416:24,2,80
336,104,74240,2,0,B|232:64|160:120,1,160
120,160,74820,1,2
120,240,75014,1,0
192,200,75208,6,0,B|280:160|376:208,1,160,4|0
347,275,75788,2,0,B|259:315|163:267,1,160,4|0
120,240,76369,1,0
120,160,76562,1,0
176,104,76756,6,0,B|256:128|336:104,1,160,0|2
333,104,77337,1,0
336,24,77530,1,0
408,64,77724,1,0
408,144,77917,1,2
336,184,78111,5,0
336,184,78208,1,0
336,184,78304,2,0,B|248:216|176:184,1,160,2|0
120,240,78885,1,0
176,296,79079,2,0,B|272:328|360:280,1,160,2|0
392,240,79659,1,0
456,192,79853,1,0
456,192,80240,1,2
408,40,80627,6,0,B|344:72|272:48,1,120,2|0
248,56,81014,2,0,B|168:56|112:112,1,120,2|0
104,112,81401,2,0,B|64:200|104:288,1,160,2|0
144,328,81982,1,0
224,344,82175,1,0
304,328,82369,2,0,B|400:320,2,80,0|2|0
224,344,82950,5,0
200,272,83143,1,2
144,328,83337,1,2
200,272,83530,1,0
240,200,83724,2,0,B|192:176|192:120,1,80,2|0
272,112,84111,2,0,B|256:56|336:32,1,80,2|4
424,144,84498,6,0,B|480:200|480:272,2,120,4|0|0
360,192,85272,1,2
416,288,85466,1,2
360,192,85659,2,0,B|312:208|272:184,1,80,2|2
272,112,86046,6,0,B|256:48|184:32,2,120,4|0|0
192,112,86820,2,0,B|128:96|104:136,1,80,2|2
56,216,87208,2,0,B|56:264|96:296,1,80,2|2
160,320,87595,6,0,B|240:352|336:312,1,160,2|0
368,264,88175,1,2
400,192,88369,2,0,B|328:144|304:48,1,160,2|0
232,48,88950,1,0
152,56,89143,2,0,B|96:64|32:128,2,120,6|2|2
200,120,89917,2,0,B|224:192|160:256,2,120,2|2|2
128,160,90691,6,0,B|64:184|24:264,2,120,4|0|0
200,120,91466,2,0,B|264:144|344:120,2,120,4|0|0
192,200,92240,2,0,B|264:232|256:320,2,120,4|0|0
176,280,93014,6,0,B|176:336|224:368,1,80,2|2
288,360,93401,1,2
336,296,93595,1,0
336,296,93691,1,0
336,296,93788,2,2,B|432:248|424:152,1,160
344,168,94369,1,0
384,96,94562,2,0,B|288:56|224:104,1,160,2|2
248,176,95143,1,0
168,152,95337,6,0,B|104:136,3,40,2|0|0|0
88,144,95724,2,0,B|48:152,3,40,2|0|0|0
32,192,96111,2,0,B|16:240,3,40,2|0|0|0
40,264,96498,2,0,B|64:304,3,40,2|2|2|2
96,320,96885,2,0,B|160:336|224:320,2,120,4|4|4
136,248,97659,5,0
168,152,97853,1,0
208,216,98046,1,0
232,216,98143,1,0
256,216,98240,1,0
280,216,98337,1,0
304,216,98433,6,6,B|424:216,2,120,4|0|0
312,136,99208,2,0,B|336:96|320:48,1,80,2|2
240,48,99595,2,0,B|224:96|152:112,1,80,2|2
104,104,99982,6,0,B|96:184|40:224,2,120,4|0|0
184,104,100756,1,2
272,176,100950,1,2
184,104,101143,1,2
176,216,101337,1,2
176,216,101433,1,2
176,216,101530,6,0,B|176:288|104:328,2,120,6|0|0
256,296,102304,2,0,B|328:257|392:264,2,120,4|0|0
272,176,103079,2,0,B|304:112|376:96,2,120,4|0|0
200,136,103853,5,2
176,216,104046,1,0
120,160,104240,1,2
104,176,104337,1,0
96,200,104433,1,0
96,224,104530,1,0
104,248,104627,6,0,B|128:328|200:344,2,120,4|0|0
176,216,105401,1,2
256,200,105595,1,2
288,128,105788,1,2
368,152,105982,1,2
336,224,106175,6,0,B|384:272|456:280,2,120,4|0|0
368,152,106950,1,2
320,56,107143,1,2
216,96,107337,1,2
256,200,107530,1,0
256,280,107724,6,0,B|192:328|104:328,1,160,4|0
256,200,108304,2,0,B|352:216|416:160,1,160,4|0
256,120,108885,2,0,B|256:32,2,80,4|0|0
256,200,109466,1,0
176,200,109659,1,4
176,120,109853,1,0
112,72,110046,5,2
112,72,110143,1,0
112,72,110240,1,0
176,120,110433,1,2
112,168,110627,1,0
48,120,110820,6,0,B|16:168|48:256,2,120,4|0|0
112,168,111595,2,0,B|152:208|200:192,1,80,2|2
176,272,111982,2,0,B|232:288|256:336,1,80,2|2
304,264,112369,6,0,B|376:240|432:264,2,120,4|0|0
256,200,113143,1,2
144,224,113337,1,2
120,336,113530,1,2
232,328,113724,1,2
232,328,113820,1,0
232,328,113917,6,0,B|304:328|368:360,2,120,4|0|0
256,200,114691,2,0,B|208:144|136:144,2,120,4|0|0
104,240,115466,2,0,B|24:216|24:144,2,120,4|0|0
184,240,116240,5,0
256,320,116433,1,12
256,208,116627,1,12
328,240,116820,1,0
408,240,117014,6,0,B|432:160|496:128,2,120,4|0|0
328,240,117788,1,2
256,320,117982,1,2
256,208,118175,2,0,B|240:152|224:128,1,80,2|2
144,136,118562,6,0,B|144:216|80:256,2,120,4|0|0
144,56,119337,2,0,B|144:0,2,40,2|0|0
216,56,119724,2,0,B|272:56,4,40,2|0|0|0|2
376,56,120498,5,2
344,128,120691,1,0
424,120,120885,2,0,B|472:200|424:288,1,160,2|2
431,273,121466,1,0
368,320,121659,5,0
320,256,121853,2,0,B|240:208|152:224,1,160,2|2
96,192,122433,2,0,B|112:120,3,40,2|0|0|0
120,120,122820,2,0,B|160:72,3,40,2|0|0|0
176,64,123208,6,0,B|272:48|344:120,1,160,4|2
400,88,123788,2,0,B|392:184|448:248,1,160,4|0
400,312,124369,1,2
328,336,124562,1,0
256,368,124756,5,6
256,112,125143,1,4
128,192,125530,1,4
384,192,125917,1,4
256,272,126304,5,4
256,192,126498,1,0
256,112,126691,2,0,B|256:96|328:48|408:80,1,160,2|0
448,144,127272,1,0
384,192,127466,1,2
448,240,127659,1,0
384,192,127853,5,4
320,240,128046,1,0
256,192,128240,2,0,B|176:224|96:192,1,160,2|0
99,114,128820,1,2
99,34,129014,5,2
176,56,129208,1,2
256,80,129401,2,0,B|384:80,2,120,4|0|0
256,160,130175,2,0,B|256:296,2,120,4|0|0
256,80,130950,2,4,B|112:80,2,120
256,160,131724,6,0,B|432:160,2,160,2|2|2
256,224,133079,6,0,B|160:224,1,80,2|2
256,192,133562,12,0,135595
