osu file format v12

[General]
AudioFilename: A.S Eternal Name.mp3
AudioLeadIn: 0
PreviewTime: -1
Countdown: 1
SampleSet: Soft
StackLeniency: 0.7
Mode: 1
LetterboxInBreaks: 1
WidescreenStoryboard: 0

[Editor]
DistanceSpacing: 1.5
BeatDivisor: 4
GridSize: 16
TimelineZoom: 1.1

[Metadata]
Title:Fragment ~Shooting star of the origin~
TitleUnicode:Fragment ~Shooting star of the origin~
Artist:Chihara Minori
ArtistUnicode:茅原実里
Creator:MeiMeiKo
Version:MeiMeiKo
Source:
Tags:Eternal Name OP-KAMIN、yozuca*-SUIKA-Fragment ~The heat haze of summer~
BeatmapID:416187
BeatmapSetID:172147

[Difficulty]
HPDrainRate:5
CircleSize:5
OverallDifficulty:5
ApproachRate:5
SliderMultiplier:1.4
SliderTickRate:1

[Events]
//Background and Video events
0,0,"Taiko BG.jpg",0,0
//Break Periods
//Storyboard Layer 0 (Background)
//Storyboard Layer 1 (Fail)
//Storyboard Layer 2 (Pass)
//Storyboard Layer 3 (Foreground)
//Storyboard Sound Samples
//Background Colour Transformations
3,100,163,162,255

[TimingPoints]
1210,750,4,2,0,100,1,0
1210,-66.6666666666667,4,2,0,5,0,0
4212,-100,4,2,0,70,0,0
16210,-100,4,2,0,70,0,0
40261,-133.333333333333,4,2,0,70,0,0
43210,-100,4,2,0,70,0,0
44132,-71.4285714285714,4,2,0,70,0,0
45099,-62.5,4,2,0,100,0,1
45125,483.870967741935,4,2,0,70,1,0
45341,-76.9230769230769,4,2,0,100,0,1
60099,-133.333333333333,4,2,0,70,0,0
61551,-100,4,2,0,70,0,0
62519,-76.9230769230769,4,2,0,70,0,0
68028,-62.5,4,2,0,70,0,0
68083,-66.6666666666667,4,2,0,70,0,0
68204,-71.4285714285714,4,2,0,70,0,0
68325,-76.9230769230769,4,2,0,70,0,0
68446,-83.3333333333333,4,2,0,70,0,0
68567,-100,4,2,0,70,0,0
98373,-76.9230769230769,4,2,0,70,0,0
99341,-66.6666666666667,4,2,0,100,0,1
120268,-58.8235294117647,4,2,0,100,0,1
143373,-166.666666666667,4,2,0,70,0,0
144479,-200,4,2,0,70,0,0
144492,857.142857142857,4,2,0,70,1,0
158420,857.142857142857,4,2,0,70,1,0
159277,1000,4,2,0,70,1,0
160339,1090.90909090909,4,2,0,70,1,0
161389,1200,4,2,0,70,1,0
162514,1500,4,2,0,70,1,0
162514,-50,4,2,0,5,0,0

[HitObjects]
256,208,1210,5,12,0:0:0:0:
448,256,4210,1,0,0:0:0:0:
256,112,4331,1,8,0:0:0:0:
256,112,4452,1,0,0:0:0:0:
64,208,4585,2,0,L|480:304,1,382.500014591218
384,272,7022,1,8,0:0:0:0:
304,288,7210,1,0,0:0:0:0:
416,240,7397,1,8,0:0:0:0:
352,192,9341,1,8,0:0:0:0:
480,272,9462,1,0,0:0:0:0:
320,160,9583,1,8,0:0:0:0:
112,320,10210,1,0,0:0:0:0:
352,224,11335,1,8,0:0:0:0:
160,176,12835,5,8,0:0:0:0:
304,272,13022,5,0,0:0:0:0:
288,192,13210,5,8,0:0:0:0:
256,192,14960,12,8,15443,0:0:0:0:
0,208,16210,5,0,0:0:0:0:
400,224,16962,5,8,0:0:0:0:
320,208,17710,1,0,0:0:0:0:
144,272,18097,1,0,0:0:0:0:
432,192,18460,1,8,0:0:0:0:
160,320,19210,5,0,0:0:0:0:
304,112,19960,1,8,0:0:0:0:
320,208,20712,1,0,0:0:0:0:
144,272,21075,1,0,0:0:0:0:
432,192,21460,1,8,0:0:0:0:
128,224,22210,1,0,0:0:0:0:
416,160,22960,1,8,0:0:0:0:
80,256,23710,1,0,0:0:0:0:
64,320,24085,1,0,0:0:0:0:
224,240,24462,1,8,0:0:0:0:
128,224,25210,1,0,0:0:0:0:
416,160,25960,1,8,0:0:0:0:
80,256,26710,1,0,0:0:0:0:
64,320,27085,1,0,0:0:0:0:
224,240,27460,1,8,0:0:0:0:
128,224,28212,1,0,0:0:0:0:
416,160,28960,1,8,0:0:0:0:
80,256,29710,1,0,0:0:0:0:
64,320,30085,1,0,0:0:0:0:
224,240,30460,1,8,0:0:0:0:
128,224,31210,1,0,0:0:0:0:
416,160,31962,1,8,0:0:0:0:
80,256,32710,1,0,0:0:0:0:
64,320,33085,1,0,0:0:0:0:
224,240,33460,1,8,0:0:0:0:
128,224,34210,1,0,0:0:0:0:
416,160,34960,1,8,0:0:0:0:
80,256,35711,1,0,0:0:0:0:
64,320,36074,1,0,0:0:0:0:
224,240,36460,1,8,0:0:0:0:
128,224,37210,1,0,0:0:0:0:
416,160,37960,1,8,0:0:0:0:
80,256,38710,1,0,0:0:0:0:
64,320,39085,1,0,0:0:0:0:
224,240,39460,1,8,0:0:0:0:
128,224,40210,1,0,0:0:0:0:
416,160,40960,1,8,0:0:0:0:
80,256,41710,1,0,0:0:0:0:
64,320,42085,1,0,0:0:0:0:
224,240,42460,1,8,0:0:0:0:
0,176,43210,5,12,0:0:0:0:
48,176,44147,1,12,0:0:0:0:
112,176,45085,1,4,0:0:0:0:
272,288,45608,1,8,0:0:0:0:
272,288,45729,1,8,0:0:0:0:
208,256,46092,1,0,0:0:0:0:
96,272,46576,1,8,0:0:0:0:
96,272,46818,1,8,0:0:0:0:
160,320,47060,1,0,0:0:0:0:
48,240,47302,1,8,0:0:0:0:
256,320,47544,1,0,0:0:0:0:
432,352,47665,1,8,0:0:0:0:
480,352,48028,1,0,0:0:0:0:
0,272,48512,1,0,0:0:0:0:
0,304,48754,1,8,0:0:0:0:
0,304,48995,1,8,0:0:0:0:
64,320,49479,1,0,0:0:0:0:
112,352,49600,1,8,0:0:0:0:
112,352,49963,1,8,0:0:0:0:
0,288,50447,1,0,0:0:0:0:
208,368,50689,1,8,0:0:0:0:
112,352,50931,1,8,0:0:0:0:
32,320,51173,1,0,0:0:0:0:
144,288,51415,1,0,0:0:0:0:
208,304,51536,1,8,0:0:0:0:
208,304,51657,1,8,0:0:0:0:
80,224,51899,1,12,0:0:0:0:
0,288,52383,1,0,0:0:0:0:
208,368,52625,1,8,0:0:0:0:
112,352,52867,1,8,0:0:0:0:
64,320,53350,1,0,0:0:0:0:
112,352,53471,1,8,0:0:0:0:
112,352,53834,1,8,0:0:0:0:
64,320,54318,1,0,0:0:0:0:
112,352,54560,1,8,0:0:0:0:
160,352,54802,1,8,0:0:0:0:
224,352,55044,1,8,0:0:0:0:
96,256,55286,1,0,0:0:0:0:
192,256,55407,1,8,0:0:0:0:
128,320,55770,1,0,0:0:0:0:
32,304,56254,1,0,0:0:0:0:
224,352,56495,1,8,0:0:0:0:
224,352,56737,1,8,0:0:0:0:
288,336,57221,1,0,0:0:0:0:
352,352,57342,1,8,0:0:0:0:
368,320,57705,1,8,0:0:0:0:
208,320,58189,1,0,0:0:0:0:
224,128,58431,1,8,0:0:0:0:
224,128,58673,1,8,0:0:0:0:
224,128,58915,1,8,0:0:0:0:
128,304,59157,1,8,0:0:0:0:
208,320,59278,1,0,0:0:0:0:
240,272,59399,1,8,0:0:0:0:
240,272,59641,1,12,0:0:0:0:
128,256,60124,1,8,0:0:0:0:
128,256,60245,1,8,0:0:0:0:
96,304,60608,1,8,0:0:0:0:
432,240,61092,1,0,0:0:0:0:
160,272,61576,1,8,0:0:0:0:
384,256,61697,1,8,0:0:0:0:
160,160,61818,1,8,0:0:0:0:
0,240,61939,1,8,0:0:0:0:
352,160,62060,1,8,0:0:0:0:
224,304,62544,1,8,0:0:0:0:
384,288,63028,1,0,0:0:0:0:
128,240,63512,1,8,0:0:0:0:
192,304,63633,1,8,0:0:0:0:
192,304,63754,1,8,0:0:0:0:
192,304,63874,1,8,0:0:0:0:
192,304,63995,1,8,0:0:0:0:
160,320,64479,1,0,0:0:0:0:
160,320,64600,1,0,0:0:0:0:
224,336,64721,1,8,0:0:0:0:
224,336,64842,1,8,0:0:0:0:
16,256,65084,1,0,0:0:0:0:
80,288,65205,1,8,0:0:0:0:
192,240,65326,1,0,0:0:0:0:
64,208,65447,1,0,0:0:0:0:
64,208,65568,1,0,0:0:0:0:
80,176,65689,1,8,0:0:0:0:
80,176,65810,1,8,0:0:0:0:
144,224,66052,1,0,0:0:0:0:
192,192,66173,1,8,0:0:0:0:
240,224,66294,1,0,0:0:0:0:
240,128,66415,1,0,0:0:0:0:
240,128,66536,1,0,0:0:0:0:
416,176,66657,1,8,0:0:0:0:
416,176,66778,1,8,0:0:0:0:
80,304,67020,1,0,0:0:0:0:
128,320,67141,1,8,0:0:0:0:
192,336,67262,1,0,0:0:0:0:
240,256,67383,1,8,0:0:0:0:
240,256,67504,1,8,0:0:0:0:
352,256,67624,1,0,0:0:0:0:
416,256,67745,1,8,0:0:0:0:
80,240,67987,5,12,0:0:0:0:
96,208,68108,1,4,0:0:0:0:
0,304,68350,1,0,0:0:0:0:
272,176,68834,1,8,0:0:0:0:
416,144,69318,1,8,0:0:0:0:
512,224,69560,1,0,0:0:0:0:
480,176,69681,1,8,0:0:0:0:
128,288,70044,1,0,0:0:0:0:
208,304,70286,1,8,0:0:0:0:
256,304,70528,1,8,0:0:0:0:
304,320,70649,1,0,0:0:0:0:
416,320,71012,1,8,0:0:0:0:
336,272,71254,1,0,0:0:0:0:
128,288,71495,1,0,0:0:0:0:
128,288,71616,1,0,0:0:0:0:
128,288,71737,1,8,0:0:0:0:
0,256,72221,1,0,0:0:0:0:
32,304,72705,1,8,0:0:0:0:
96,336,73189,1,8,0:0:0:0:
192,304,73431,1,8,0:0:0:0:
240,336,73552,1,0,0:0:0:0:
32,304,73915,1,0,0:0:0:0:
80,256,74157,1,8,0:0:0:0:
80,256,74399,1,8,0:0:0:0:
240,336,74520,1,0,0:0:0:0:
176,192,74883,1,8,0:0:0:0:
32,272,75124,1,8,0:0:0:0:
336,128,75245,1,0,0:0:0:0:
304,208,75366,1,0,0:0:0:0:
448,224,75487,1,0,0:0:0:0:
192,112,75608,1,12,0:0:0:0:
80,304,76092,1,0,0:0:0:0:
32,336,76576,1,8,0:0:0:0:
224,304,77060,1,8,0:0:0:0:
192,176,77302,1,8,0:0:0:0:
192,176,77423,1,8,0:0:0:0:
96,272,77786,1,0,0:0:0:0:
160,288,78028,1,8,0:0:0:0:
224,304,78270,1,0,0:0:0:0:
448,208,78512,1,8,0:0:0:0:
240,224,78754,1,8,0:0:0:0:
368,336,78995,1,0,0:0:0:0:
368,336,79237,1,0,0:0:0:0:
368,336,79358,1,0,0:0:0:0:
400,352,79479,1,8,0:0:0:0:
112,256,79963,1,0,0:0:0:0:
192,208,80447,1,8,0:0:0:0:
32,192,80931,1,8,0:0:0:0:
32,192,81173,1,8,0:0:0:0:
48,224,81294,1,0,0:0:0:0:
112,304,81657,1,0,0:0:0:0:
272,272,81899,1,8,0:0:0:0:
192,256,82141,1,0,0:0:0:0:
272,272,82262,1,8,0:0:0:0:
112,256,82624,1,0,0:0:0:0:
208,208,82866,1,12,0:0:0:0:
144,160,83350,1,12,0:0:0:0:
64,208,83834,1,4,0:0:0:0:
112,320,84076,1,0,0:0:0:0:
112,320,84197,1,0,0:0:0:0:
240,240,84318,1,8,0:0:0:0:
176,336,84439,1,0,0:0:0:0:
176,336,84560,1,0,0:0:0:0:
288,208,84681,1,8,0:0:0:0:
128,272,84802,1,0,0:0:0:0:
128,272,84923,1,0,0:0:0:0:
256,336,85044,1,8,0:0:0:0:
368,240,85286,1,8,0:0:0:0:
368,240,85528,1,8,0:0:0:0:
240,208,85770,1,0,0:0:0:0:
336,192,86012,1,8,0:0:0:0:
112,208,86133,1,0,0:0:0:0:
112,208,86254,1,0,0:0:0:0:
400,240,86374,1,8,0:0:0:0:
288,256,86495,1,0,0:0:0:0:
288,256,86616,1,0,0:0:0:0:
480,192,86737,1,8,0:0:0:0:
16,240,86858,1,0,0:0:0:0:
16,240,86979,1,0,0:0:0:0:
32,352,87221,1,0,0:0:0:0:
144,368,87463,1,8,0:0:0:0:
144,368,87705,1,8,0:0:0:0:
368,320,88431,1,0,0:0:0:0:
448,192,88673,1,8,0:0:0:0:
448,192,88915,1,8,0:0:0:0:
192,288,89157,1,0,0:0:0:0:
160,224,89399,1,8,0:0:0:0:
368,256,89520,1,0,0:0:0:0:
80,272,90124,1,8,0:0:0:0:
80,272,90245,1,8,0:0:0:0:
192,256,90366,1,0,0:0:0:0:
192,256,90487,1,0,0:0:0:0:
512,192,90608,1,8,0:0:0:0:
512,192,90729,1,8,0:0:0:0:
32,224,90850,1,0,0:0:0:0:
160,224,90971,1,0,0:0:0:0:
336,224,91092,1,8,0:0:0:0:
128,160,91213,1,8,0:0:0:0:
208,128,91334,1,8,0:0:0:0:
112,336,91576,1,0,0:0:0:0:
224,336,92060,1,8,0:0:0:0:
448,256,92544,1,8,0:0:0:0:
240,272,93028,1,0,0:0:0:0:
480,224,93270,1,8,0:0:0:0:
368,128,93512,1,8,0:0:0:0:
208,240,93995,1,0,0:0:0:0:
176,288,94479,1,8,0:0:0:0:
96,176,94963,1,8,0:0:0:0:
304,240,95205,1,0,0:0:0:0:
288,96,95447,1,8,0:0:0:0:
240,304,96415,1,0,0:0:0:0:
192,224,96778,1,8,0:0:0:0:
192,224,97141,1,8,0:0:0:0:
112,224,97383,1,12,0:0:0:0:
32,192,98350,1,12,0:0:0:0:
192,320,99318,1,8,0:0:0:0:
224,320,99439,1,8,0:0:0:0:
272,320,99560,1,0,0:0:0:0:
320,320,99681,1,8,0:0:0:0:
240,256,99923,1,8,0:0:0:0:
288,256,100044,1,0,0:0:0:0:
336,272,100165,1,8,0:0:0:0:
256,192,100407,1,8,0:0:0:0:
304,176,100528,1,0,0:0:0:0:
352,208,100649,1,0,0:0:0:0:
432,192,100770,1,0,0:0:0:0:
96,288,101012,1,0,0:0:0:0:
160,304,101254,1,8,0:0:0:0:
16,208,101737,1,0,0:0:0:0:
80,240,101858,1,8,0:0:0:0:
80,240,102221,1,8,0:0:0:0:
112,320,102705,1,8,0:0:0:0:
384,336,102947,1,0,0:0:0:0:
64,288,103189,1,0,0:0:0:0:
64,288,103431,1,8,0:0:0:0:
288,240,103673,1,0,0:0:0:0:
320,272,103794,1,8,0:0:0:0:
352,288,104157,1,0,0:0:0:0:
0,320,104641,1,0,0:0:0:0:
64,352,104883,1,8,0:0:0:0:
64,352,105124,1,8,0:0:0:0:
176,336,105608,1,0,0:0:0:0:
208,352,105729,1,8,0:0:0:0:
208,352,106092,1,8,0:0:0:0:
0,336,106576,1,0,0:0:0:0:
64,336,106818,1,8,0:0:0:0:
144,352,107060,1,8,0:0:0:0:
144,352,107302,1,8,0:0:0:0:
0,256,107544,1,8,0:0:0:0:
48,272,107665,1,0,0:0:0:0:
96,288,107786,1,8,0:0:0:0:
128,288,108028,1,12,0:0:0:0:
0,320,108512,1,0,0:0:0:0:
48,336,108754,1,8,0:0:0:0:
96,368,108995,1,0,0:0:0:0:
0,272,109479,1,0,0:0:0:0:
16,288,109600,1,8,0:0:0:0:
64,288,109963,1,0,0:0:0:0:
0,208,110447,1,0,0:0:0:0:
32,224,110689,1,8,0:0:0:0:
32,224,110931,1,8,0:0:0:0:
32,224,111173,1,8,0:0:0:0:
80,208,111415,1,0,0:0:0:0:
128,224,111536,1,8,0:0:0:0:
128,224,111899,1,0,0:0:0:0:
0,304,112383,1,0,0:0:0:0:
16,336,112624,1,8,0:0:0:0:
80,352,112866,1,8,0:0:0:0:
144,352,113350,1,0,0:0:0:0:
208,336,113471,1,8,0:0:0:0:
208,336,113834,1,8,0:0:0:0:
256,352,114318,1,0,0:0:0:0:
256,352,114560,1,8,0:0:0:0:
304,352,114802,1,0,0:0:0:0:
384,352,115044,1,8,0:0:0:0:
0,336,115286,1,8,0:0:0:0:
0,352,115407,1,0,0:0:0:0:
0,352,115528,1,0,0:0:0:0:
32,352,115770,1,8,0:0:0:0:
0,192,116254,1,8,0:0:0:0:
0,240,116374,1,0,0:0:0:0:
16,240,116737,1,8,0:0:0:0:
0,288,117221,1,0,0:0:0:0:
320,256,117705,1,8,0:0:0:0:
320,256,117826,1,8,0:0:0:0:
192,240,117947,1,8,0:0:0:0:
464,208,118068,1,8,0:0:0:0:
416,272,118189,1,8,0:0:0:0:
96,256,118673,1,8,0:0:0:0:
96,256,119157,1,8,0:0:0:0:
256,160,119641,1,8,0:0:0:0:
256,160,119762,1,8,0:0:0:0:
256,160,119883,1,8,0:0:0:0:
16,304,120124,1,0,0:0:0:0:
64,320,120366,1,8,0:0:0:0:
96,304,120608,1,12,0:0:0:0:
16,224,121092,1,0,0:0:0:0:
112,224,121213,1,8,0:0:0:0:
176,256,121576,1,12,0:0:0:0:
64,144,122060,1,8,0:0:0:0:
128,160,122302,1,0,0:0:0:0:
176,160,122544,1,0,0:0:0:0:
272,160,122786,1,8,0:0:0:0:
272,160,123028,1,8,0:0:0:0:
368,176,123149,1,0,0:0:0:0:
432,176,123512,1,4,0:0:0:0:
80,288,123995,1,0,0:0:0:0:
112,224,124237,1,8,0:0:0:0:
112,224,124479,1,8,0:0:0:0:
224,320,124963,1,0,0:0:0:0:
160,256,125084,1,8,0:0:0:0:
160,256,125447,1,12,0:0:0:0:
32,256,125931,1,0,0:0:0:0:
160,176,126173,1,8,0:0:0:0:
240,176,126415,1,0,0:0:0:0:
240,176,126657,1,8,0:0:0:0:
64,224,126899,1,0,0:0:0:0:
400,224,127141,1,0,0:0:0:0:
400,224,127262,1,0,0:0:0:0:
400,224,127383,1,12,0:0:0:0:
128,208,127866,1,0,0:0:0:0:
240,144,128108,1,8,0:0:0:0:
80,128,128229,1,8,0:0:0:0:
400,144,128350,1,12,0:0:0:0:
0,256,128834,1,0,0:0:0:0:
48,256,128955,1,8,0:0:0:0:
320,272,129318,1,12,0:0:0:0:
80,208,129802,1,0,0:0:0:0:
192,208,130044,1,8,0:0:0:0:
208,240,130286,1,0,0:0:0:0:
448,208,130528,1,8,0:0:0:0:
368,144,130770,1,0,0:0:0:0:
368,144,130891,1,0,0:0:0:0:
368,144,131012,1,0,0:0:0:0:
368,144,131133,1,0,0:0:0:0:
512,176,131254,1,8,0:0:0:0:
128,320,131737,1,0,0:0:0:0:
128,320,131979,1,8,0:0:0:0:
144,176,132221,1,8,0:0:0:0:
112,256,132705,1,0,0:0:0:0:
64,208,132826,1,8,0:0:0:0:
176,208,133189,1,12,0:0:0:0:
32,160,133673,1,0,0:0:0:0:
128,128,133915,1,8,0:0:0:0:
128,128,134157,1,8,0:0:0:0:
288,288,134399,1,8,0:0:0:0:
288,288,134520,1,8,0:0:0:0:
288,288,134641,1,8,0:0:0:0:
288,288,134762,1,8,0:0:0:0:
288,288,134883,1,8,0:0:0:0:
352,112,135124,1,12,0:0:0:0:
16,240,135608,1,8,0:0:0:0:
32,320,135729,1,0,0:0:0:0:
112,320,136092,1,12,0:0:0:0:
0,160,136576,1,8,0:0:0:0:
176,288,137060,1,0,0:0:0:0:
176,288,137181,1,0,0:0:0:0:
176,288,137302,1,0,0:0:0:0:
320,208,137544,1,8,0:0:0:0:
128,192,138028,1,12,0:0:0:0:
128,144,138995,1,12,0:0:0:0:
128,144,139963,1,8,0:0:0:0:
128,240,140084,1,8,0:0:0:0:
32,208,140205,1,0,0:0:0:0:
224,224,140326,1,8,0:0:0:0:
384,208,140568,5,8,0:0:0:0:
256,256,140689,1,0,0:0:0:0:
256,176,140810,1,8,0:0:0:0:
272,128,140931,1,0,0:0:0:0:
272,128,141052,1,0,0:0:0:0:
80,304,141173,1,0,0:0:0:0:
368,128,141294,1,8,0:0:0:0:
128,144,141536,1,8,0:0:0:0:
96,192,141657,1,0,0:0:0:0:
224,336,141778,1,0,0:0:0:0:
416,224,141899,1,8,0:0:0:0:
0,80,142020,2,0,L|656:368,1,794.750015158653
144,272,144492,1,4,0:0:0:0:
64,128,145349,5,0,0:0:0:0:
64,128,145770,1,0,0:0:0:0:
240,128,146206,1,8,0:0:0:0:
16,112,147063,1,0,0:0:0:0:
16,112,147492,1,0,0:0:0:0:
320,192,147920,1,8,0:0:0:0:
320,192,148349,1,8,0:0:0:0:
112,256,148777,1,0,0:0:0:0:
288,192,148992,1,8,0:0:0:0:
112,160,149206,1,0,0:0:0:0:
208,224,149641,1,8,0:0:0:0:
0,224,150487,1,8,0:0:0:0:
48,288,150706,1,0,0:0:0:0:
16,192,151334,1,8,0:0:0:0:
64,256,153063,1,0,0:0:0:0:
144,176,154777,1,8,0:0:0:0:
160,208,156492,1,8,0:0:0:0:
64,208,158420,1,0,0:0:0:0:
160,240,158634,1,8,0:0:0:0:
288,256,158848,1,0,0:0:0:0:
256,192,162514,1,12,0:0:0:0:
