osu file format v4

[General]
AudioFilename: Chihara Minori - Yuki, Buin, Madobe Nite.mp3
AudioLeadIn: 0
AudioHash: f056c0e5ccf649e70ee4d17d4769c87d
PreviewTime: -1
SampleSet: Normal

[Metadata]
Title:Yuki, Muon, Madobe Nite
Artist:Chihara Minori (Nagato Yuki)
Creator:pariah164
Version:Normal

[Difficulty]
HPDrainRate:5
CircleSize:5
OverallDifficulty:5
SliderMultiplier: 1.4
SliderTickRate: 1

[Events]
0,0,"nagato.jpg"
2,31227,37108
3,0,0,64,128

[TimingPoints]
2329,428.329390424684,4,1,0

[HitObjects]
128,96,7468,1,0,
416,96,9182,1,0,
128,288,10895,1,0,
384,288,12608,1,0,
256,192,14322,1,4,
64,224,17748,6,4,B|64:224|128:224,4,140
288,128,21175,2,0,B|288:128|64:128,6,140
288,224,24602,2,0,B|288:224|448:224,4,140
32,288,28028,2,0,B|32:288|480:288,2,420
32,160,31027,1,0,
96,64,38308,5,0,
96,160,38736,1,0,
96,256,39165,1,0,
416,64,40021,1,0,
416,160,40450,1,0,
416,256,40878,1,0,
192,64,41735,6,0,B|192:64|256:32|320:64,1,140
320,128,42591,2,0,B|320:128|256:96|192:128,1,140
131,196,43448,1,0,
175,196,43876,1,0,
212,197,44091,2,0,B|212:197|451:198,1,140
159,319,45161,5,0,
256,318,45590,1,0,
350,319,46018,1,0,
352,224,46875,1,0,
256,223,47303,1,0,
160,224,47731,1,0,
191,128,48588,6,0,B|191:128|253:87|320:129,1,140
315,45,49445,2,0,B|315:45|255:1|189:43|189:43,1,140
96,64,50301,1,0,
96,129,50623,1,0,
128,128,53300,5,0,
128,192,53728,1,0,
128,256,54585,1,0,
128,320,55441,1,0,
192,320,55870,1,0,
256,320,56298,1,0,
352,96,57155,1,0,
352,160,58011,1,0,
352,224,58868,1,0,
288,224,59296,1,0,
224,224,59725,1,0,
96,128,60581,6,0,B|96:128|192:128,1,105
192,192,62295,2,0,B|192:192|64:192,1,105
96,288,64008,1,0,
160,288,64865,1,0,
224,288,65721,1,0,
256,288,66150,1,0,
288,288,66364,1,0,
320,288,66578,1,0,
256,192,67435,12,0,70005
160,128,70861,1,0,
192,160,71290,1,0,
224,192,71504,1,0,
256,224,71611,1,0,
480,224,72360,1,0,
448,256,72575,1,0,
416,288,73003,1,0,
384,320,73217,1,0,
160,128,74288,5,0,
224,192,75144,1,0,
288,128,76001,1,0,
352,192,76429,1,0,
416,128,76858,1,0,
64,128,77714,5,0,
128,128,78143,1,0,
192,128,78357,1,0,
256,128,78464,1,0,
256,224,79214,1,0,
192,224,79428,1,0,
128,224,79856,1,0,
64,224,80070,1,0,
256,64,81141,5,0,
256,160,81998,1,0,
192,256,82854,2,0,L|192:256|352:256,2,140
192,64,84568,6,0,B|192:64|352:64,1,140
416,64,85317,1,0,
416,160,86281,2,0,L|416:160|256:160,1,140
192,160,87031,1,0,
128,320,87994,1,0,
192,320,88423,1,0,
256,320,88851,1,0,
320,320,89279,1,0,
384,320,89708,2,0,L|384:320|384:160,1,140
384,96,90350,1,0,
256,64,91421,6,0,B|256:64|64:192|256:352,1,350
352,352,92920,1,0,
448,352,93134,2,0,B|448:352|448:64,1,280
256,64,94848,5,0,
160,128,95704,1,0,
352,128,96561,1,0,
352,256,96989,1,0,
192,256,97418,1,0,
256,32,98274,6,0,B|256:32|0:192,1,280
32,288,99988,2,0,B|32:288|320:288,1,280
256,192,101487,12,0,105128
