osu file format v5

[General]
AudioFilename: Chihara Minori (Nagato Yuki)-Yuki, Muon, Madobe Nite.mp3
AudioLeadIn: 0
PreviewTime: -1
Countdown: 1
SampleSet: Normal
StackLeniency: 0.7
Mode: 0
LetterboxInBreaks: 1

[Metadata]
Title:Yuki, Muon, Madobe Nite
Artist:Chihara Minori (Nagato Yuki)
Creator:kioukiou
Version:Normal
Source:
Tags:

[Difficulty]
HPDrainRate:6
CircleSize:4
OverallDifficulty:5
SliderMultiplier:1
SliderTickRate:1

[Events]
//Background and Video events
0,0,"Nagato Yuki.jpg"
//Break Periods
2,31700,37156
2,104556,117727
2,185984,191444
//Storyboard Layer 0 (Background)
//Storyboard Layer 1 (Failing)
//Storyboard Layer 2 (Passing)
//Storyboard Layer 3 (Foreground)
//Storyboard Sound Samples
//Background Colour Transformations
3,100,163,162,255

[TimingPoints]
7500,428.571428571429,4,1,0,100,1
37928,428.571428571429,4,2,0,100,1
52928,428.571428571429,4,1,0,100,1
118499,428.571428571429,4,2,0,100,1
133499,428.571428571429,4,1,0,100,1
192216,428.571428571429,4,2,0,100,1
213216,428.571428571429,4,1,0,100,1

[Colours]
Combo1 : 0,255,242
Combo2 : 79,251,79
Combo3 : 230,119,242
Combo4 : 252,248,95

[HitObjects]
128,80,17785,5,0
216,80,18214,1,0
184,272,19071,1,0
184,272,19500,2,0,B|201:356|298:353|336:280,1,200
392,224,20785,1,0
256,192,21214,12,0,24214
88,64,24642,1,0
168,64,25071,1,0
376,144,25928,1,0
376,144,26357,2,0,B|462:227|352:328,1,200
272,320,27642,1,0
256,192,28071,12,0,31500
440,104,38356,5,0
336,104,38785,1,0
232,104,39213,1,0
128,104,39642,1,0
128,200,40070,1,0
128,200,40499,2,0,B|336:200,1,200
384,112,41785,6,0,B|352:64|192:72,1,200
96,72,43070,1,0
48,160,43499,1,0
128,216,43927,2,0,B|224:272,2,100
224,176,45213,6,2,B|272:133|240:72,1,100,0|0
144,64,46070,2,2,B|79:104|136:168,1,100
184,224,46927,1,2
280,232,47356,1,2
376,232,47785,1,2
376,128,48213,1,2
416,40,48642,5,2
320,56,49070,2,2,B|256:0|176:0|128:72,1,200
200,136,50356,2,2,B|156:249|16:184,1,200
48,288,51642,1,2
144,288,52070,1,2
440,312,53356,5,0
336,312,53785,2,0,B|272:256|312:208,1,100
304,128,54642,1,0
216,80,55070,1,2
120,40,55499,2,2,B|56:112|112:144,3,100
192,136,57213,5,0
280,96,57642,1,0
280,192,58070,1,0
368,152,58499,1,0
424,64,58927,2,2,B|488:104|472:160,2,100
320,64,60213,1,2
216,64,60642,5,0
112,64,61070,1,0
112,160,61499,1,0
184,232,61927,1,0
264,296,62356,2,0,B|375:373|440:256,1,200
496,184,63642,1,0
424,112,64070,6,2,B|356:42|280:96,2,150
376,184,65785,2,0,B|312:224|272:200,1,100
200,144,66642,1,0
200,240,67070,1,0
256,192,67499,12,0,70499
472,128,70927,1,0
408,192,71356,1,0
344,248,71785,1,0
256,280,72213,2,0,B|200:304|152:264,1,100
136,192,73070,2,0,B|200:152|240:200,1,100
320,232,73927,1,0
400,288,74356,6,0,B|352:344|240:288,2,150
416,192,76070,1,2
416,88,76499,1,2
328,136,76927,1,2
224,136,77356,1,2
224,232,77785,5,0
224,328,78213,1,0
320,320,78642,2,0,B|352:272|320:216,1,100
328,128,79499,1,0
256,56,79927,1,0
184,120,80356,1,0
104,176,80785,1,0
168,256,81213,5,0
248,200,81642,1,0
328,256,82070,2,2,B|352:336|272:344,4,100
296,160,84213,1,2
296,160,84642,6,0,B|356:112|400:176,1,100,0|0
488,160,85499,1,0
480,256,85927,2,0,B|496:320|448:344,1,100
352,344,86785,1,0
248,344,87213,1,0
144,344,87642,1,0
80,264,88070,6,0,B|31:221|72:152,2,100
160,208,89356,1,0
256,208,89785,1,0
264,104,90213,1,0
360,104,90642,1,0
448,56,91070,6,0,B|472:104|440:160,1,100
448,248,91927,2,0,B|392:280|336:256,1,100
296,176,92785,1,0
232,248,93213,1,0
304,320,93642,1,0
376,256,94070,6,2,B|424:288|392:344,3,100
296,312,95785,1,0
192,312,96213,1,0
192,208,96642,1,0
192,104,97070,1,0
192,208,97499,1,0
192,104,97927,1,0
288,104,98356,6,2,B|250:-10|416:16,1,200,0|0
416,112,99642,1,0
512,112,100070,1,0
464,200,100499,1,0
392,264,100927,1,0
320,192,101356,1,2
304,96,101785,6,2,B|163:93|176:232,1,200
248,272,103070,2,2,B|232:344|152:296,1,100
96,248,103927,1,0
96,248,104356,1,0
72,184,118927,5,0
120,112,119356,2,0,B|208:184,1,100
256,104,120213,1,0
344,104,120641,1,0
432,104,121070,1,0
432,192,121498,2,4,B|320:192,1,100
168,144,122356,6,0,B|224:88|312:96,1,150
264,176,123427,1,0
184,216,123856,1,0
184,216,124070,2,0,L|184:296|264:296,1,150
344,296,125141,1,0
416,112,125784,5,0
416,112,126213,1,0
416,112,126641,2,4,L|312:112,3,100
224,112,128356,1,0
136,112,128784,1,0
120,208,129213,6,2,B|104:232|72:264|128:304,1,100
208,248,130070,2,2,B|240:296|192:344,1,100
296,344,130927,1,2
296,344,131141,1,2
296,344,131356,1,2
368,280,131784,2,2,B|424:248|408:176,2,100
296,56,133927,5,0
296,56,134141,1,0
296,56,134356,2,0,L|296:136|432:136,1,200
408,232,135641,2,2,L|288:232,3,100
200,232,137356,1,0
136,112,137784,5,0
264,112,138213,1,0
392,112,138641,1,0
392,240,139070,1,0
264,240,139499,2,2,L|152:240,2,100
160,248,140784,6,0,B|104:192|104:120|176:64,1,200
224,152,142070,1,0
288,72,142499,2,0,B|344:144|344:200|272:248,1,200
224,152,143784,1,0
224,248,144213,1,0
224,344,144641,5,0
320,344,145070,2,0,L|432:344,1,100,0|0
408,240,145927,1,0
312,240,146356,1,0
408,240,146784,1,0
312,240,147213,2,2,B|376:184|254:119|320:56,1,200,0|0
256,192,148177,12,0,151070
88,64,151499,1,0
88,160,151927,2,0,B|88:272,1,100
184,256,152784,1,0
280,256,153213,1,0
376,264,153641,2,0,B|424:208|400:168,1,100
320,112,154499,1,0
216,112,154927,6,0,B|219:37|136:48,2,100
112,120,156213,1,0
112,216,156641,1,2
208,216,157070,1,2
304,216,157499,1,2
376,264,157927,1,8
376,264,158141,5,8
376,264,158356,1,8
432,184,158784,1,8
432,80,159213,1,8
328,80,159641,2,8,B|328:136,2,50
224,80,160499,1,0
120,80,160927,1,0
184,152,161356,1,0
80,160,161784,5,0
80,256,162213,2,0,B|80:368,1,100,0|0
176,352,163070,1,0
264,312,163499,2,2,B|332:276|328:224,3,100
328,136,165213,5,0
272,56,165641,1,0
184,104,166070,1,0
96,152,166499,2,0,B|40:192|80:248,1,100
176,240,167356,1,0
272,240,167784,1,0
368,248,168213,1,0
368,248,168427,5,0
368,248,168641,1,0
432,168,169070,2,2,B|384:64,2,100
432,168,170141,1,0
432,168,170356,1,0
328,176,170784,1,0
224,176,171213,1,0
160,256,171641,1,0
160,256,171856,1,0
160,256,172070,6,0,B|264:288,1,100
352,312,172927,1,0
352,208,173356,1,0
448,208,173784,2,2,B|448:328,2,100
424,112,175070,5,0
320,104,175499,2,2,B|256:84|248:168|232:160,1,100
232,248,176356,2,2,B|248:303|210:330|168:320,1,100
104,264,177213,1,0
104,160,177641,1,0
104,56,178070,1,0
200,56,178499,1,0
288,104,178927,6,2,B|353:176|248:280,1,200
176,344,180213,1,0
176,240,180641,1,0
272,240,181070,2,0,B|384:240,2,100
320,152,182356,2,2,B|383:91|464:144,2,150
248,216,184070,2,2,B|344:280|432:200,2,200
256,192,192644,12,0,199073
104,88,199501,2,0,B|200:144,1,100
120,200,200358,2,0,B|216:256,1,100
296,240,201216,2,0,B|376:176,1,100
304,120,202073,2,0,B|384:56,1,100
256,192,202930,12,0,205930
408,56,206358,6,0,B|304:120,1,100
384,176,207216,2,0,B|280:240,1,100
208,232,208073,2,0,B|120:176,1,100
184,112,208930,2,0,B|96:56,1,100
256,192,209787,12,0,212787
80,64,213216,5,0
80,160,213644,2,0,B|80:280,1,100
176,256,214501,2,0,B|280:256,1,100
376,256,215358,1,0
432,176,215787,2,0,B|456:136|408:80,1,100
312,64,216644,1,0
208,64,217073,1,0
104,64,217501,1,0
104,160,217930,1,0
104,256,218358,2,2,B|128:280|152:248,3,50
224,120,219644,1,2
320,120,220073,5,0
320,216,220501,1,0
216,216,220930,1,0
216,312,221358,2,0,B|270:344|328:320,1,100
416,328,222216,1,0
416,224,222644,1,0
408,120,223073,1,0
312,96,223501,5,0
208,96,223930,1,0
144,176,224358,1,0
208,256,224787,1,0
304,256,225216,2,2,B|416:256,3,100
256,192,226930,12,4,228216
256,192,228644,12,4,229930
352,192,230358,1,0
312,104,230787,1,0
208,104,231216,1,0
152,192,231644,1,0
216,272,232073,1,0
312,272,232501,1,0
256,192,232930,1,0
328,120,233358,1,0
328,120,233573,5,0
328,120,233787,1,0
432,56,234216,2,0,B|496:136,1,100
400,176,235073,2,0,B|422:227|456:192,2,50,0|0|0
304,152,235930,1,0
232,216,236358,1,0
304,288,236787,1,0
376,216,237216,2,8,B|432:216,2,50
376,112,238073,2,8,B|304:112,2,50,8|8|8
312,32,238930,1,0
408,32,239358,1,0
464,112,239787,1,0
392,184,240216,1,2
304,240,240644,6,2,B|251:302|188:305|120:240,1,200
216,192,241930,1,0
136,136,242358,2,2,B|184:81|270:82|312:144,1,200
216,192,243644,1,0
288,264,244073,6,2,B|352:320|432:320|480:272,1,200
392,216,245358,1,0
472,168,245787,2,2,B|433:109|349:109|288:176,1,200
392,216,247073,1,0
392,216,247501,1,4
