osu file format v6

[General]
AudioFilename: Chieko Kawabe - Be your Girl.mp3
AudioLeadIn: 2000
PreviewTime: 48937
Countdown: 1
SampleSet: Soft
StackLeniency: 1
Mode: 0
LetterboxInBreaks: 1

[Editor]
DistanceSpacing: 0.699999988079071
BeatDivisor: 6
GridSize: 8

[Metadata]
Title:Be Your Girl
Artist:Chieko Kawabe
Creator:Teara
Version:Normal
Source:Elfen Lied (Outro)
Tags:hawkzor

[Difficulty]
HPDrainRate:5
CircleSize:3
OverallDifficulty:5
SliderMultiplier:1.4
SliderTickRate:1

[Events]
//Background and Video events
0,0,"Background.jpg"
//Break Periods
2,21384,23730
//Storyboard Layer 0 (Background)
//Storyboard Layer 1 (Fail)
//Storyboard Layer 2 (Pass)
//Storyboard Layer 3 (Foreground)
//Storyboard Sound Samples
//Background Colour Transformations
3,100,0,0,0

[TimingPoints]
960,374.531835205993,4,2,0,91,1,0
24930,379.746835443038,4,2,0,91,1,0
30960,375.469336670839,4,2,0,91,1,0
48953,374.531835205993,4,2,0,91,1,0
72923,373.831775700935,4,2,0,91,1,0
83390,379.746835443038,4,2,0,91,1,0
84812,-100,4,2,0,0,0,0

[Colours]
Combo1 : 255,255,128
Combo2 : 255,0,128
Combo3 : 128,0,255

[HitObjects]
256,344,960,1,2
56,344,1709,1,2
56,248,2083,2,0,B|56:72|256:72,1,280
192,160,3207,5,2
152,248,3581,2,0,B|480:312|352:24,1,420
208,40,5267,2,2,B|160:40|168:88,1,70
128,176,5828,5,2
224,192,6203,1,0
320,176,6577,2,8,B|424:400|512:128,1,280,2|0
408,176,7701,5,2
496,176,8076,2,0,B|392:-48|304:224,1,280
408,176,9199,5,2
408,272,9574,2,0,B|80:288|328:8|96:56,1,420
24,48,11072,5,2
24,144,11446,1,2
24,240,11821,1,2
112,192,12195,5,2
112,96,12570,1,2
200,144,12945,5,0
296,144,13319,1,2
392,144,13694,1,8
296,144,14068,1,2
344,232,14443,1,0
440,232,14817,1,2
400,320,15192,1,8
256,208,15566,12,2,18188
376,40,18937,5,2
320,120,19312,1,0
224,120,19686,5,8
320,120,20061,1,0
272,200,20435,1,2
176,200,20810,5,0
232,280,21184,1,8
256,40,24930,5,2
256,200,25562,1,2
128,168,26069,2,0,B|176:376|352:376|376:136,1,420,0|8
256,136,27588,5,2
256,40,27967,1,0
256,136,28347,1,2
256,232,28727,1,8
168,184,29107,6,0,B|144:24|328:8|448:48|488:192|384:360|184:328,1,682.5,2|2
120,272,31335,5,0
80,184,31710,1,8
72,88,32086,2,0,B|304:32|384:144|392:272,1,420,2|8
296,232,33588,5,2
280,128,33963,1,0
184,112,34339,1,2
248,40,34714,1,8
280,128,35090,2,0,B|327:363|255:372|111:372|63:332|115:125,1,560,2|0
200,72,36967,5,2
288,32,37342,1,0
368,80,37718,1,8
288,32,38093,2,0,B|-48:48|188:287,1,420,2|8
264,224,39595,5,2
296,320,39971,1,0
200,304,40346,1,2
104,304,40722,1,8
152,216,41097,6,0,B|143:100|391:316|384:160,2,280,2|2|2
104,128,42975,5,2
176,56,43350,1,2
272,56,43725,1,8
344,128,44101,5,2
272,200,44476,1,2
344,272,44852,1,2
416,200,45227,1,8
344,272,45603,5,2
272,200,45978,1,2
200,272,46354,2,2,B|88:168|192:56|312:104,2,280
296,248,48231,5,2
368,184,48607,1,0
272,152,48953,5,6
192,96,49327,1,0
280,56,49702,1,10
272,152,50076,1,0
360,104,50451,5,2
424,104,50700,1,0
424,104,50825,1,2
512,104,51200,1,10
424,104,51574,1,0
424,200,51949,5,2
424,296,52323,1,0
336,248,52698,1,10
240,240,53072,5,2
176,240,53322,1,0
176,240,53447,1,2
80,240,53821,1,0
176,240,54196,1,10
176,48,54945,5,6
240,120,55320,1,0
336,120,55694,1,8
400,48,56069,1,0
464,120,56443,1,2
400,192,56818,1,0
328,264,57192,1,8
256,192,57567,1,2
256,208,57941,12,4,60188
48,192,60938,5,4
112,112,61312,1,0
168,192,61687,1,8
224,112,62061,5,2
288,112,62311,1,0
288,112,62436,1,2
384,112,62810,5,0
288,112,63185,1,8
112,192,63934,5,2
184,264,64308,1,0
256,192,64683,1,8
328,264,65057,5,2
392,264,65307,1,0
392,264,65432,1,2
488,264,65806,5,0
392,264,66181,1,8
200,224,66930,5,4
128,296,67305,1,0
56,224,67679,1,8
56,128,68054,5,2
120,128,68303,1,0
120,128,68428,1,2
216,128,68803,5,0
120,128,69177,1,8
168,48,69552,1,0
216,128,69926,6,2,B|344:-24|464:152,3,280,2|8|2|8
256,344,72923,5,4
256,248,73296,1,0
256,152,73670,1,8
200,72,74044,2,0,B|272:-16|328:104,3,140,0|2|0|8
256,256,75913,5,4
352,232,76287,1,0
392,144,76661,1,8
312,88,77035,1,0
216,56,77408,2,2,B|24:24|40:216,1,280,2|8
232,184,78904,5,4
136,184,79278,1,0
184,272,79651,1,8
232,184,80025,2,0,B|279:270|343:182,3,140,0|2|0|8
144,192,81894,5,4
240,192,82268,1,4
336,192,82642,1,4
416,144,83016,1,4
416,240,83390,1,4
248,144,84149,5,2
248,240,84529,1,2
256,208,84908,12,0,87946
