osu file format v6

[General]
AudioFilename: Chieko Kawabe - Be your Girl.mp3
AudioLeadIn: 2000
PreviewTime: 48937
Countdown: 1
SampleSet: Soft
StackLeniency: 1
Mode: 0
LetterboxInBreaks: 1

[Editor]
Bookmarks: 47905
DistanceSpacing: 1.10000002384186
BeatDivisor: 6
GridSize: 8

[Metadata]
Title:Be Your Girl
Artist:Chieko Kawabe
Creator:Teara
Version:Hard
Source:Elfen Lied (Outro)
Tags:hawkzor

[Difficulty]
HPDrainRate:6
CircleSize:4
OverallDifficulty:7
SliderMultiplier:1.8
SliderTickRate:1

[Events]
//Background and Video events
0,0,"Background.jpg"
//Break Periods
//Storyboard Layer 0 (Background)
//Storyboard Layer 1 (Fail)
//Storyboard Layer 2 (Pass)
//Storyboard Layer 3 (Foreground)
//Storyboard Sound Samples
//Background Colour Transformations
3,100,0,0,0

[TimingPoints]
960,374.531835205993,4,2,0,91,1,0
24930,379.746835443038,4,2,0,91,1,0
29676,-100,4,2,0,0,0,0
30056,-100,4,2,0,91,0,0
30960,375.469336670839,4,2,0,91,1,0
35530,-100,4,2,0,0,0,0
35778,-100,4,2,0,91,0,0
41530,-100,4,2,0,0,0,0
41786,-100,4,2,0,91,0,0
46780,-100,4,2,0,0,0,0
47042,-100,4,2,0,92,0,0
48937,-100,4,2,0,92,0,1
48953,374.531835205993,4,2,0,91,1,0
72187,-100,4,2,0,92,0,0
72923,373.831775700935,4,2,0,91,1,0
83390,379.746835443038,4,2,0,91,1,0
84890,-100,4,2,0,0,0,0

[Colours]
Combo1 : 255,255,128
Combo2 : 255,0,128
Combo3 : 128,0,255

[HitObjects]
112,192,960,1,2
256,56,1334,1,0
400,192,1709,1,2
256,328,2083,1,0
176,192,2458,5,2
256,128,2832,1,0
336,192,3207,1,2
336,192,3581,2,0,B|256:264|160:184,4,180
256,88,5329,5,2
256,88,5454,1,2
256,288,5828,1,2
432,192,6203,1,2
256,288,6577,1,0
80,192,6952,1,0
256,104,7327,1,0
80,192,7701,5,2
80,192,8076,2,0,B|159:288|231:184,2,180
280,192,9199,5,2
280,192,9574,2,0,B|347:94|426:190,2,180
80,192,10697,5,2
256,96,11072,5,2
176,280,11446,5,2
176,152,11696,1,0
176,152,11821,1,2
328,280,12195,5,2
392,96,12570,1,2
251,236,12945,5,0
112,96,13319,1,2
56,288,13694,1,8
252,235,14068,1,2
392,95,14443,1,0
448,288,14817,1,2
252,236,15192,1,8
256,208,15566,12,2,18188
256,192,18937,5,2
416,72,19312,1,0
224,120,19686,5,8
416,152,20061,1,0
248,48,20435,5,2
360,208,20810,1,0
320,16,21184,5,8
288,208,21559,1,0
136,80,21933,1,0
104,272,22308,1,0
288,208,22682,1,8
136,80,23057,5,2
208,192,23307,1,0
208,192,23431,1,2
328,128,23681,1,0
328,128,23806,1,2
328,264,24056,1,0
328,264,24180,1,8
440,192,24430,1,0
440,192,24555,1,2
328,32,24930,5,2
48,312,25689,1,8
192,176,26069,2,0,B|224:272|296:176|336:312,3,180,0|0|0|8
328,80,27588,5,2
128,80,27967,1,0
272,216,28347,1,2
72,216,28727,1,8
272,216,29107,2,0,B|296:360|24:336|109:122|203:139,2,360,0|0|2
400,88,30960,5,0
400,288,31335,1,0
400,88,31710,1,8
224,184,32086,2,0,B|256:424|80:256|139:90|-24:88|-16:368|160:352,1,540,2|8
352,352,33588,5,2
152,352,33963,1,0
304,224,34339,1,2
104,224,34714,1,8
248,88,35090,2,0,B|120:168|309:229|293:149|304:104|336:96|357:117|280:208|381:189,2,270,0|0|8
392,192,36967,5,2
192,200,37342,1,0
392,192,37718,1,8
208,112,38093,2,0,B|128:72|40:112|40:112|-58:207|40:280|40:280|128:320|224:280,1,540,0|8
384,192,39595,5,2
184,192,39971,1,0
344,304,40346,1,2
144,304,40722,1,8
320,184,41097,6,0,C|304:152|288:152|256:216|216:152|200:152|184:192,2,270,2|2|8
96,192,42599,5,0
192,40,42975,1,2
280,192,43350,1,2
464,192,43725,1,8
464,192,44101,5,2
376,352,44476,1,2
280,192,44852,1,2
200,352,45227,1,8
200,352,45603,5,2
104,192,45978,1,2
208,40,46354,2,2,C|160:112|200:208|152:288,2,270
312,192,47856,5,2
128,192,48231,1,2
256,64,48607,1,0
384,192,48953,5,4
256,320,49327,1,0
256,136,49702,1,8
440,136,50076,1,0
256,136,50451,5,2
376,136,50700,1,2
376,136,50825,1,2
192,136,51200,1,8
192,320,51574,1,0
376,320,51949,5,0
248,192,52323,1,0
120,64,52698,1,8
248,192,53072,5,2
160,104,53322,1,2
160,104,53447,1,2
288,232,53821,1,0
160,104,54196,1,8
448,320,54945,5,6
344,176,55320,1,2
160,176,55694,1,10
248,336,56069,1,2
256,152,56443,1,2
136,288,56818,1,2
80,112,57192,5,10
216,240,57567,1,2
256,208,57941,12,4,60188
48,192,60938,5,6
112,24,61312,1,0
176,192,61687,1,8
360,192,62061,5,2
240,192,62311,1,0
240,192,62436,1,2
56,192,62810,5,0
144,352,63185,1,8
336,40,63934,5,2
240,192,64308,1,0
320,352,64683,1,8
240,192,65057,5,2
304,88,65307,1,0
304,88,65432,1,2
200,240,65806,5,0
384,240,66181,1,8
24,192,66930,5,4
152,64,67305,1,0
280,192,67679,1,8
96,192,68054,5,2
216,192,68303,1,0
216,192,68428,1,2
16,192,68803,5,0
216,192,69177,1,8
16,192,69552,1,0
136,32,69926,6,2,B|288:192|120:376,3,360,2|2|2|8
432,192,72923,5,4
256,144,73296,1,0
80,192,73670,1,8
256,144,74044,2,0,B|209:230|256:315,4,180,0|0|0|8|0
32,64,75913,5,8
288,64,76287,1,8
160,288,76661,1,8
160,32,77035,1,8
0,224,77408,2,2,B|151:40|319:240,1,360,8|4
0,224,78904,5,2
160,128,79278,1,0
320,224,79651,1,8
160,128,80025,6,0,B|256:224|128:304,3,180,0|2|0|8
152,104,81894,5,4
352,104,82268,1,4
352,304,82642,1,4
152,304,83016,1,4
256,136,83390,1,4
256,192,84149,5,2
256,192,84529,1,2
256,208,84908,12,0,87946
