osu file format v6

[General]
AudioFilename: Chieko Kawabe - Be your Girl.mp3
AudioLeadIn: 2000
PreviewTime: 48937
Countdown: 0
SampleSet: Soft
StackLeniency: 1
Mode: 0
LetterboxInBreaks: 0

[Editor]
DistanceSpacing: 0.699999988079071
BeatDivisor: 6
GridSize: 8

[Metadata]
Title:Be Your Girl
Artist:Chieko Kawabe
Creator:Teara
Version:Easy
Source:Elfen Lied (Outro)
Tags:hawkzor

[Difficulty]
HPDrainRate:2
CircleSize:3
OverallDifficulty:2
SliderMultiplier:1.2
SliderTickRate:1

[Events]
//Background and Video events
0,0,"Background.jpg"
//Break Periods
2,18388,23370
2,60388,65370
//Storyboard Layer 0 (Background)
//Storyboard Layer 1 (Fail)
//Storyboard Layer 2 (Pass)
//Storyboard Layer 3 (Foreground)
//Storyboard Sound Samples
//Background Colour Transformations
3,100,0,0,0

[TimingPoints]
960,374.531835205993,4,2,0,91,1,0
24930,379.746835443038,4,2,0,91,1,0
30960,375.469336670839,4,2,0,91,1,0
48953,374.531835205993,4,2,0,91,1,0
72923,373.831775700935,4,2,0,91,1,0
83390,379.746835443038,4,2,0,91,1,0
84908,-100,4,2,0,0,0,0

[Colours]
Combo1 : 255,255,128
Combo2 : 255,0,128
Combo3 : 128,0,255

[HitObjects]
64,192,960,1,2
232,192,1709,1,2
232,272,2083,2,0,B|408:304|392:120,1,240
368,72,3207,5,2
288,40,3581,2,0,B|48:16|32:256,1,360
96,344,5267,2,2,L|184:344,1,60
192,264,5828,5,2
152,192,6203,1,2
96,128,6577,2,8,B|216:88|352:136,1,240,0|0
392,192,7701,5,2
336,256,8076,2,0,B|232:312|72:248,1,240
56,184,9199,5,2
104,112,9574,2,0,B|280:24|472:120,1,360
456,192,11072,5,2
376,224,11446,1,2
312,280,11821,1,2
248,224,12195,1,2
168,192,12570,1,2
88,224,12945,5,0
208,104,13694,1,8
328,224,14443,1,0
208,344,15192,1,8
256,208,15941,12,2,18188
392,192,24930,5,2
392,48,25562,1,2
280,48,26069,2,0,B|24:8|48:264,1,360,0|8
48,320,27588,5,2
120,280,27967,1,0
192,240,28347,1,2
264,280,28727,1,8
336,320,29107,2,0,B|336:88|120:88,1,360,0|8
288,64,30960,5,0
368,88,31335,1,0
408,160,31710,1,8
400,240,32086,2,0,B|200:360|40:232,1,360,2|8
64,168,33588,5,2
120,104,33963,1,0
184,48,34339,1,2
240,104,34714,1,8
296,168,35090,2,0,B|240:344|-16:344,1,360,2|8
112,208,36967,5,2
176,152,37342,1,0
256,120,37718,1,8
336,152,38093,2,0,B|336:384|72:280,1,360,2|8
48,208,39595,5,2
72,128,39971,1,0
144,80,40346,1,2
216,128,40722,1,8
240,208,41097,2,0,B|368:280|472:208,1,240
352,80,42599,5,2
272,104,42975,1,2
192,128,43350,1,2
112,152,43725,1,10
32,176,44101,5,2
32,264,44476,1,2
112,288,44852,1,2
192,312,45227,1,10
272,336,45603,5,2
352,312,45978,1,2
432,288,46354,2,0,B|526:193|433:72,2,240
384,216,48231,5,2
408,136,48607,1,0
360,64,48953,5,6
280,40,49327,1,0
200,40,49702,1,8
120,64,50076,1,0
48,104,50451,5,2
120,144,50825,1,2
200,176,51200,1,8
280,152,51574,1,0
360,176,51949,5,2
240,296,52698,1,10
120,176,53447,1,2
240,56,54196,1,10
360,176,54945,5,6
280,200,55320,1,0
200,224,55694,1,8
120,248,56069,1,0
40,272,56443,5,2
64,192,56818,1,0
88,112,57192,1,8
112,32,57567,1,0
256,208,57941,12,4,60188
16,320,66930,5,6
72,256,67305,1,0
128,192,67679,1,10
208,192,68054,5,2
288,192,68428,1,2
368,192,68803,1,0
432,136,69177,5,10
488,72,69552,1,0
408,56,69926,2,0,B|296:-8|144:72,3,240,2|8|2|8
72,192,72923,5,4
152,192,73296,1,0
232,192,73670,1,8
192,120,74044,2,0,B|255:121|287:57,3,120,0|2|0|8
456,56,75913,5,4
408,128,76287,1,0
360,200,76661,1,8
304,264,77035,1,0
240,320,77408,2,2,B|85:327|56:160,1,240,0|8
184,72,78904,5,4
256,120,79278,1,0
328,168,79651,1,8
400,216,80025,2,0,B|400:336,3,120,0|2|0|8
280,216,81894,5,4
216,160,82268,1,4
152,104,82642,1,4
88,160,83016,1,4
24,216,83390,1,4
152,320,84149,5,2
152,240,84529,1,2
256,208,84908,12,0,87946
