osu file format v9

[General]
AudioFilename: .mp3
AudioLeadIn: 0
PreviewTime: 139373
Countdown: 0
SampleSet: Soft
StackLeniency: 0.7
Mode: 0
LetterboxInBreaks: 1

[Editor]
Bookmarks: 26821,43373,53304,69856,83097,96339,126132,139373,152614,165856
DistanceSpacing: 1.4
BeatDivisor: 4
GridSize: 8

[Metadata]
Title:Mosaic Roll (Electronic)
Artist:Chidie
Creator:TTTTTTTTTTTT
Version:Master
Source:
Tags:gumi deco*27 t12

[Difficulty]
HPDrainRate:6
CircleSize:5
OverallDifficulty:8
ApproachRate:8
SliderMultiplier:2.1
SliderTickRate:1

[Events]
//Background and Video events
0,0,"bg1.jpg"
//Break Periods
2,83297,92278
2,125504,132002
//Storyboard Layer 0 (Background)
//Storyboard Layer 1 (Fail)
//Storyboard Layer 2 (Pass)
//Storyboard Layer 3 (Foreground)
//Storyboard Sound Samples
//Background Colour Transformations
3,100,163,162,255

[TimingPoints]
339,413.793103448276,4,2,0,19,1,0
8718,-100,4,2,0,26,0,0
10270,-100,4,2,0,34,0,0
13476,-100,4,1,0,34,0,0
26718,-100,4,2,0,34,0,0
28063,-100,4,1,0,34,0,0
28166,-100,4,2,0,34,0,0
29718,-100,4,1,0,34,0,0
29821,-100,4,2,0,34,0,0
31270,-100,4,1,0,34,0,0
31476,-100,4,2,0,34,0,0
32925,-100,4,1,0,34,0,0
33132,-100,4,2,0,34,0,0
34166,-100,4,1,0,34,0,0
34787,-100,4,2,0,34,0,0
36235,-100,4,1,0,34,0,0
36442,-100,4,2,0,34,0,0
37890,-100,4,1,0,34,0,0
38097,-100,4,2,0,34,0,0
38821,-100,4,1,0,34,0,0
38925,-100,4,2,0,34,0,0
39649,-100,4,1,0,34,0,0
39752,-100,4,2,0,34,0,0
43270,-100,4,1,0,37,0,0
44925,-100,4,1,0,34,0,0
53201,-100,4,2,0,34,0,0
54132,-100,4,1,0,34,0,0
54235,-100,4,2,0,34,0,0
54545,-100,4,1,0,34,0,0
54649,-100,4,2,0,34,0,0
55787,-100,4,1,0,34,0,0
55890,-100,4,2,0,34,0,0
56201,-100,4,1,0,34,0,0
56304,-100,4,2,0,34,0,0
57442,-100,4,1,0,34,0,0
57545,-100,4,2,0,34,0,0
57752,-100,4,1,0,34,0,0
57959,-100,4,2,0,45,0,0
58994,-100,4,1,0,34,0,0
59614,-100,4,2,0,34,0,0
60649,-100,4,1,0,34,0,0
61270,-100,4,2,0,34,0,0
62718,-100,4,1,0,34,0,0
62925,-100,4,2,0,34,0,0
64373,-100,4,1,0,34,0,0
64580,-100,4,2,0,34,0,0
65304,-100,4,1,0,34,0,0
65407,-100,4,2,0,34,0,0
66028,-100,4,1,0,34,0,0
66235,-100,4,2,0,34,0,0
69856,-100,4,1,0,39,0,1
69959,-100,4,2,0,51,0,1
70166,-100,4,1,0,41,0,1
70373,-100,4,2,0,51,0,1
70994,-100,4,1,0,39,0,1
71407,-100,4,2,0,51,0,1
71925,-100,4,1,0,34,0,1
72028,-100,4,2,0,51,0,1
72649,-100,4,1,0,51,0,1
73063,-100,4,2,0,51,0,1
73476,-100,4,1,0,51,0,1
73890,-100,4,2,0,51,0,1
77718,-100,4,1,0,30,0,1
77821,-100,4,2,0,51,0,1
78442,-100,4,1,0,33,0,1
78856,-100,4,2,0,51,0,1
79373,-100,4,1,0,32,0,1
79476,-100,4,2,0,51,0,1
80201,-100,4,1,0,32,0,1
80304,-100,4,2,0,51,0,1
83097,-100,4,1,0,34,0,0
96235,-100,4,2,0,34,0,0
97580,-100,4,1,0,34,0,0
97683,-100,4,2,0,34,0,0
99235,-100,4,1,0,34,0,0
99339,-100,4,2,0,34,0,0
100890,-100,4,1,0,34,0,0
100994,-100,4,2,0,34,0,0
102545,-100,4,1,0,34,0,0
102649,-100,4,2,0,34,0,0
103787,-100,4,1,0,34,0,0
103890,-100,4,1,0,34,0,0
104821,-100,4,2,0,34,0,0
105752,-100,4,1,0,34,0,0
106373,-100,4,2,0,34,0,0
107407,-100,4,1,0,34,0,0
108028,-100,4,2,0,34,0,0
108752,-100,4,1,0,34,0,0
108856,-100,4,2,0,34,0,0
110304,-100,4,1,0,34,0,0
110925,-100,4,2,0,34,0,0
111959,-100,4,1,0,34,0,0
112580,-100,4,2,0,34,0,0
113614,-100,4,1,0,34,0,0
114235,-100,4,2,0,34,0,0
115270,-100,4,1,0,34,0,0
115890,-100,4,2,0,34,0,0
116925,-100,4,1,0,34,0,0
117545,-100,4,2,0,34,0,0
118994,-100,4,1,0,34,0,0
119407,-100,4,2,0,34,0,0
120649,-100,4,1,0,34,0,0
121063,-100,4,2,0,34,0,0
121890,-100,4,1,0,34,0,0
122511,-100,4,2,0,34,0,0
133063,-100,4,1,0,34,0,0
133683,-100,4,2,0,34,0,0
133994,-100,4,1,0,34,0,0
134097,-100,4,2,0,34,0,0
134718,-100,4,1,0,34,0,0
135339,-100,4,2,0,34,0,0
135649,-100,4,1,0,34,0,0
135752,-100,4,2,0,34,0,0
135959,-100,4,1,0,34,0,0
136580,-100,4,2,0,34,0,0
137304,-100,4,1,0,34,0,0
137821,-100,4,2,0,34,0,0
138132,-100,4,1,0,34,0,0
138649,-100,4,2,0,34,0,0
138856,-100,4,1,0,20,0,0
139270,-100,4,1,0,28,0,0
139373,-200,4,1,0,28,0,0
139476,-200,4,2,0,17,0,0
152614,-100,4,2,0,43,0,1
153028,-100,4,1,0,40,0,1
153132,-100,4,2,0,43,0,1
153856,-100,4,1,0,43,0,1
153959,-100,4,2,0,43,0,1
154166,-100,4,1,0,43,0,1
154373,-100,4,2,0,43,0,1
154683,-100,4,1,0,43,0,1
155201,-100,4,2,0,43,0,1
156235,-100,4,1,0,43,0,1
156856,-100,4,2,0,43,0,1
157063,-100,4,1,0,43,0,1
157270,-100,4,2,0,43,0,1
157580,-100,4,1,0,43,0,1
157683,-100,4,2,0,43,0,1
158304,-100,4,1,0,43,0,1
158511,-100,4,2,0,43,0,1
158821,-100,4,1,0,43,0,1
158925,-100,4,2,0,43,0,1
159132,-100,4,1,0,33,0,1
159545,-100,4,1,0,23,0,1
159752,-100,4,1,0,43,0,1
159959,-100,4,2,0,43,0,1
160476,-100,4,1,0,43,0,1
160580,-100,4,2,0,43,0,1
160787,-100,4,1,0,43,0,1
160994,-100,4,2,0,43,0,1
161201,-100,4,1,0,43,0,1
161821,-100,4,2,0,43,0,1
162545,-100,4,1,0,43,0,1
163063,-100,4,2,0,43,0,1
163373,-100,4,1,0,43,0,1
163890,-100,4,2,0,43,0,1
164511,-100,4,1,0,43,0,1
165442,-100,4,2,0,34,0,0

[Colours]
Combo1 : 49,96,104
Combo2 : 177,207,204
Combo3 : 124,181,184
Combo4 : 82,149,152

[HitObjects]
80,64,6959,2,0,B|176:120,1,105,0|2
288,208,7372,2,0,B|288:96,1,105,0|2
368,128,7786,1,0
224,184,7993,1,0
296,232,8200,1,0
360,288,8407,1,2
368,296,8510,1,0
360,296,8614,6,0,B|232:296,1,105,0|2
128,192,9027,2,0,B|248:192,1,105,0|2
264,112,9441,1,0
392,96,9648,1,0
392,96,9855,2,0,B|464:176,1,105,0|2
456,184,10165,1,0
464,192,10269,5,0
400,304,10476,1,2
344,256,10683,2,0,B|216:256,1,105,0|2
152,368,11096,2,0,B|72:272,1,105
112,160,11511,1,0
112,160,11718,1,2
120,152,11821,1,0
128,160,11925,6,0,B|128:48,1,105
216,56,12339,1,0
64,120,12545,1,2
8,184,12752,2,0,B|32:304,3,105,0|0|0|2
48,280,13476,1,0
64,272,13580,5,4
208,224,13787,1,0
288,240,13994,1,8
368,224,14201,1,0
208,224,14407,2,0,B|112:152,1,105
368,224,14821,2,0,B|456:288,1,105,8|0
432,120,15235,5,2
368,72,15442,1,0
296,176,15649,1,2
224,72,15856,1,0
152,120,16063,1,2
296,176,16270,2,0,B|416:176,1,105,0|8
376,256,16683,2,0,B|264:256,1,105,0|4
208,208,17097,5,0
96,288,17304,1,8
176,320,17511,1,0
208,208,17718,2,0,B|88:208,1,105
176,320,18132,1,8
264,320,18339,1,0
424,200,18545,6,0,B|424:80,1,105,2|0
352,144,18959,1,2
208,240,19166,2,0,B|208:128,1,105,0|2
136,176,19580,1,0
32,264,19787,1,8
136,352,19994,1,0
216,320,20201,6,0,B|328:320,1,105,4|0
448,192,20614,2,0,B|328:192,1,105,8|0
256,192,21028,1,0
216,320,21235,1,0
192,240,21442,1,8
256,88,21649,2,0,B|256:200,1,105,0|2
336,160,22063,5,0
448,248,22270,1,2
392,312,22476,2,0,B|264:312,1,105,0|2
128,352,22890,1,0
64,296,23097,2,0,B|64:168,1,105,8|0
128,136,23511,5,4
184,200,23718,1,0
240,136,23925,2,0,B|344:136,1,105,8|0
288,304,24339,1,0
344,240,24545,1,0
272,192,24752,2,0,B|144:216,1,105,8|0
88,232,25166,5,2
24,176,25373,1,0
168,192,25580,2,0,B|280:192,1,105,2|0
88,232,25994,1,2
40,296,26201,1,0
168,192,26407,2,0,B|168:80,1,105,8|0
248,56,26821,5,4
336,192,27132,1,2
488,152,27442,2,0,B|448:208|488:304,2,157.5
440,80,28270,5,0
360,104,28476,1,0
216,160,28787,1,2
112,40,29097,2,0,B|88:128|16:160,2,157.5
168,104,29925,5,0
240,56,30132,1,0
288,208,30442,1,2
448,224,30752,2,0,B|336:256|320:384,1,210
248,336,31373,1,0
48,112,31787,6,0,B|128:128|224:96,1,157.5,0|2
304,224,32407,1,0
464,208,32718,1,0
456,200,32821,1,0
456,120,33028,5,0
376,88,33235,1,0
296,112,33442,2,0,B|208:152|120:112,2,157.5,0|2|0
328,192,34270,1,0
80,352,34683,1,0
160,328,34890,5,0
120,256,35097,1,0
168,104,35407,1,2
320,64,35718,2,0,B|376:160|512:144,1,210
432,64,36339,5,0
376,152,36545,1,0
296,128,36752,1,0
192,264,37063,1,2
40,344,37373,2,0,B|80:240|56:128,1,210
32,56,37994,5,0
112,88,38201,1,0
192,56,38407,2,0,B|296:96|416:48,1,210
480,24,39028,1,0
448,104,39235,5,0
456,112,39339,1,0
448,112,39442,2,0,B|424:96|400:112|400:128|392:168|440:168,2,105
368,48,40063,1,0
256,192,40166,12,0,43373
160,80,43580,5,0
240,112,43787,1,0
320,88,43994,1,0
408,192,44201,2,0,B|304:176,1,105
232,136,44614,2,0,B|184:24,1,105
88,64,45028,6,0,B|136:176,1,105,2|0
256,224,45442,2,0,B|208:112,1,105,2|0
320,104,45856,1,2
176,200,46063,1,0
88,64,46270,2,0,B|88:176,1,105,8|0
24,224,46683,5,4
72,288,46890,1,0
280,200,47097,2,0,B|176:200,1,105,8|0
120,128,47511,2,0,B|240:128,1,105
312,128,47925,1,8
376,72,48132,1,0
368,64,48235,1,0
360,72,48339,6,0,B|328:32|248:40,1,105,2|0
200,176,48752,2,0,B|232:232|304:240,1,105,2|0
288,232,49063,1,0
296,232,49166,2,0,B|320:360,1,105,2|0
176,296,49580,1,8
88,296,49787,1,0
200,176,49994,6,0,B|240:128|216:56,1,105
136,72,50407,2,0,B|104:120|128:176,1,105,8|0
176,296,50821,1,0
200,176,51028,1,0
88,296,51235,1,8
40,224,51442,1,0
88,152,51649,6,0,B|208:128|272:40,1,210,2|8
256,40,52166,1,0
232,56,52270,2,0,B|144:112,1,105,0|2
248,160,52683,1,0
360,176,52890,1,0
424,264,53097,1,0
312,248,53304,6,0,B|264:320|160:320,2,157.5,0|2|0
216,224,54132,2,0,B|104:224,2,105
296,152,54752,5,0
392,104,54959,2,0,B|320:56|232:48,2,157.5,0|2|0
432,192,55787,2,0,B|408:256|472:296,2,105
480,104,56407,5,0
376,104,56614,2,0,B|272:128|192:120,2,157.5,0|2|0
352,200,57442,2,0,B|320:256|384:304,1,105
432,224,57856,1,0
288,272,58063,5,0
192,232,58270,2,0,B|112:192|24:192,2,157.5,0|2|0
288,184,59097,1,0
64,40,59511,5,0
136,88,59718,1,0
216,112,59925,2,0,B|304:152|392:112,2,157.5,0|2|0
184,192,60753,1,0
432,352,61166,1,0
352,328,61373,5,0
392,256,61580,1,0
344,104,61890,1,2
192,64,62201,2,0,B|136:160|0:144,1,210
80,64,62822,5,0
136,152,63028,1,0
216,128,63235,1,0
320,264,63546,1,2
472,344,63856,2,0,B|432:240|456:128,1,210
480,56,64477,5,0
400,88,64684,1,0
320,56,64890,2,0,B|216:96|96:48,1,210
32,24,65511,1,0
64,104,65718,1,0
56,112,65821,1,0
64,112,65925,1,0
32,192,66132,1,0
256,192,66545,12,2,69028
464,48,69856,5,4
416,120,70063,1,0
296,72,70270,1,0
296,72,70476,1,2
416,120,70683,2,0,B|472:224|424:336,1,210,8|0
352,288,71304,5,0
504,200,71511,1,8
424,168,71718,1,0
344,184,71925,2,0,B|280:208|224:160,1,105,0|2
352,288,72339,1,8
96,336,72752,5,0
32,192,72959,1,0
120,264,73166,1,8
448,192,73580,1,0
344,72,73787,1,0
440,112,73994,1,8
120,192,74407,5,2
456,336,74821,2,2,B|392:232|488:128,1,210,10|2
304,200,75442,1,0
144,120,75649,2,2,B|208:224|112:328,1,210
124,313,76270,1,4
456,256,76683,5,0
376,176,76890,1,0
368,48,77097,1,0
280,72,77304,2,0,B|256:192|208:224,1,157.5,4|0
192,208,77718,2,0,B|248:88,1,105,0|0
344,216,78132,5,8
192,208,78339,1,0
272,72,78545,1,0
352,56,78752,1,0
344,216,78959,1,4
64,304,79373,6,0,B|128:296|160:352|216:312,1,157.5
184,288,79787,2,0,B|80:264,1,105,8|0
280,152,80201,6,0,B|344:160|376:104|432:144,1,157.5
400,168,80615,2,0,B|296:192,1,105,8|0
432,144,81028,5,4
184,344,81442,1,0
24,48,81856,1,0
256,192,82270,12,0,83097
56,320,93028,6,0,B|56:184,1,105,4|0
200,320,93442,2,0,B|200:200,1,105,8|0
56,216,93856,1,0
200,320,94063,1,0
280,320,94270,1,8
320,248,94476,1,0
96,216,94683,6,0,B|208:216,1,105,2|0
304,320,95097,2,0,B|168:320,1,105,2|0
256,232,95511,1,2
344,136,95718,1,0
424,232,95925,1,8
424,232,96132,1,0
424,232,96339,5,4
264,216,96650,1,2
104,224,96960,2,0,B|144:168|104:72,2,157.5
72,304,97788,5,0
152,280,97994,1,0
296,224,98305,1,2
400,344,98615,2,0,B|424:256|496:224,2,157.5
344,280,99443,5,0
272,328,99650,1,0
224,176,99960,1,2
64,160,100270,2,0,B|176:128|192:0,1,210
264,48,100891,1,0
464,272,101305,6,0,B|384:256|288:288,1,157.5,0|2
208,160,101925,1,0
48,176,102236,1,0
56,184,102339,1,0
56,264,102546,5,0
136,296,102753,1,0
216,272,102960,2,0,B|304:232|392:272,2,157.5,4|2|0
184,192,103788,1,0
432,32,104201,1,0
352,56,104408,5,0
392,128,104615,1,0
344,280,104925,1,2
192,320,105236,2,0,B|136:224|0:240,1,210
80,320,105857,5,0
136,232,106063,1,0
216,256,106270,1,0
320,120,106581,1,2
472,40,106891,2,0,B|432:144|456:256,1,210
480,328,107512,5,0
400,296,107719,1,0
320,328,107925,2,0,B|216:288|96:336,1,210
32,360,108546,1,0
64,280,108753,5,0
56,272,108857,1,0
64,272,108960,2,0,B|88:288|112:272|112:256|120:216|72:216,2,105
112,176,109580,6,0,B|160:104|264:104,2,157.5,4|2|0
216,192,110408,2,0,B|328:192,2,105
136,264,111028,5,0
138,270,111235,2,0,B|210:318|298:326,2,157.5,0|2|0
72,184,112063,2,0,B|96:120|32:80,2,105
32,280,112683,5,0
136,280,112890,2,0,B|240:256|320:264,2,157.5,0|2|0
160,184,113718,2,0,B|192:128|128:80,1,105
80,160,114132,1,0
224,112,114339,5,0
320,152,114546,2,0,B|400:192|488:192,2,157.5,0|2|0
224,200,115373,1,0
448,344,115787,5,0
376,296,115994,1,0
296,272,116201,2,0,B|208:232|120:272,2,157.5,4|2|0
328,192,117029,1,0
80,32,117442,1,0
160,56,117649,5,0
120,128,117856,1,0
168,280,118166,1,2
320,320,118477,2,0,B|376:224|512:240,1,210
432,320,119098,5,0
376,232,119304,1,0
296,256,119511,1,0
192,120,119822,1,2
40,40,120132,2,0,B|80:144|56:256,1,210
32,328,120753,5,0
112,296,120960,1,0
192,328,121166,2,0,B|296:288|416:336,1,210
480,360,121787,1,0
448,280,121994,1,0
456,272,122097,1,0
448,272,122201,1,0
480,192,122408,1,0
256,192,122821,12,2,125304
96,96,132752,6,0,B|56:200|112:312,1,210,4|0
184,224,133373,1,0
16,168,133580,1,0
96,96,133787,1,0
184,224,133994,6,0,B|184:112,1,105
320,40,134407,2,0,B|320:152,1,105,4|0
184,224,134821,1,0
272,280,135028,1,0
320,144,135235,6,0,B|320:40,1,105
456,120,135649,2,0,B|456:256,1,105
272,280,136063,1,0
184,224,136270,1,0
112,264,136476,1,0
40,224,136683,1,0
112,112,136890,6,0,B|181:142|249:140|335:107,1,210,4|0
184,224,137511,1,0
248,280,137718,1,0
400,208,137925,6,0,B|288:184,1,105
296,56,138339,2,0,B|165:95,1,105
120,112,138752,1,0
48,152,138959,1,0
55,156,139063,1,0
51,161,139166,1,0
55,152,139270,1,0
50,160,139373,1,4
168,280,140201,5,2
168,112,141028,1,2
384,192,141856,1,2
312,232,142270,6,0,B|192:232,1,105,0|2
128,336,143097,2,0,B|256:336,1,105,0|2
392,192,143925,5,0
312,160,144339,2,0,B|200:160,3,105,2|0|2|0
40,352,146821,5,2
40,184,147649,1,2
280,264,148476,1,2
216,208,148890,6,0,B|216:104,1,105,0|2
344,48,149718,2,0,B|344:176,1,105,0|2
456,312,150545,5,0
384,264,150959,2,0,B|256:264,3,105,2|0|2|0
256,96,152614,6,0,B|160:152|144:152,1,105,4|2
72,192,153028,1,0
152,328,153235,1,2
152,328,153442,2,0,B|232:376|318:305,1,157.5,0|0
312,304,153856,2,0,B|200:304,1,105
192,168,154270,5,0
392,128,154476,2,0,B|256:96,1,105,2|0
192,168,154890,2,0,B|304:144,1,105
40,64,155511,6,0,B|64:176,1,105,0|2
291,147,155925,2,0,B|251:187|179:163,1,105,4|0
64,264,156339,6,0,B|136:288|224:248,1,157.5
208,240,156752,2,0,B|88:216,1,105,0|2
48,136,157166,2,0,B|152:112,1,105,0|0
256,88,157580,5,4
440,320,157994,1,0
144,344,158407,2,0,B|40:328|-8:240,1,157.5,0|0
24,256,158821,2,0,B|136:288,1,105,4|0
304,312,159235,1,0
280,200,159442,5,0
344,88,159649,1,0
200,64,159856,1,0
144,184,160063,2,0,B|91:259|0:216,1,157.5,4|0
16,192,160476,2,0,B|80:288,1,105,0|0
208,352,160890,5,0
288,192,161097,1,2
288,192,161304,2,0,B|224:104,1,105
392,192,161718,1,4
392,192,162132,6,0,B|336:344,1,157.5
360,340,162545,2,0,B|312:236,1,105
128,192,162959,6,0,B|192:344,1,157.5
160,344,163373,2,0,B|192:240,1,105
224,144,163787,5,4
128,32,164201,2,0,B|216:88|344:32,1,210
216,272,165028,1,0
215,268,165132,1,0
424,192,165442,1,0
424,193,165649,5,4
