osu file format v9

[General]
AudioFilename: Chicherina - Tu-lu-la.mp3
AudioLeadIn: 0
PreviewTime: 44526
Countdown: 0
SampleSet: Soft
StackLeniency: 0.7
Mode: 0
LetterboxInBreaks: 1

[Editor]
DistanceSpacing: 1
BeatDivisor: 4
GridSize: 4

[Metadata]
Title:Tu-lu-la
Artist:Chicherina
Creator:Aleks719
Version:Beamsy
Source:
Tags:Yulia Dmitrievna Dreams tulula Room in Rome russian icebeam

[Difficulty]
HPDrainRate:1
CircleSize:4
OverallDifficulty:1
ApproachRate:2
SliderMultiplier:0.8
SliderTickRate:1

[Events]
//Background and Video events
0,0,"wall_bg.jpg"
//Break Periods
2,59419,72360
2,92497,94412
//Storyboard Layer 0 (Background)
//Storyboard Layer 1 (Fail)
//Storyboard Layer 2 (Pass)
//Storyboard Layer 3 (Foreground)
//Storyboard Sound Samples
//Background Colour Transformations
3,100,163,162,255

[TimingPoints]
5927,459.418070444104,4,2,0,70,1,0
6602,-100,4,1,0,50,0,0
7004,-100,4,1,0,30,0,0
7118,-100,4,1,0,50,0,0
7463,-100,4,1,0,30,0,0
7578,-100,4,1,0,50,0,0
8554,-100,4,1,0,50,0,0
8784,-100,4,1,0,50,0,0
14814,-100,4,1,0,51,0,0
14929,-100,4,1,0,50,0,0
19580,-100,4,1,0,40,0,0
19810,-100,4,1,0,50,0,0
20499,-100,4,1,0,60,0,0
20729,-100,4,1,0,50,0,0
21705,-100,4,1,0,60,0,0
21820,-100,4,1,0,50,0,0
22164,-100,4,1,0,30,0,0
22279,-100,4,1,0,50,0,0
22566,-100,4,1,0,40,0,0
37727,-100,4,2,0,50,0,0
42551,-100,4,1,0,30,0,0
44518,-100,4,1,0,40,0,1
59219,-100,4,1,0,40,0,0
73691,-100,4,1,0,40,0,0
89182,-100,4,2,0,50,0,0
95972,-100,4,1,0,40,0,1
125375,-100,4,1,0,40,0,0

[Colours]
Combo1 : 255,0,0
Combo2 : 0,128,255
Combo3 : 255,128,0
Combo4 : 255,0,255
Combo5 : 0,128,128

[HitObjects]
56,64,6845,1,8
136,60,7305,1,2
216,56,7764,5,4
376,72,8683,1,4
452,212,9602,2,0,B|464:348,2,120,4|0|2
384,172,11440,2,0,B|384:104|304:84,2,120,4|0|2
304,168,13277,2,0,B|240:200|256:276,2,120,4|0|2
332,244,15115,5,4
192,316,16034,1,4
72,212,16953,2,0,B|56:80,2,120,4|0|2
152,228,18790,2,0,B|120:296|176:340,2,120,4|0|2
220,272,20628,2,0,B|260:220|340:252,2,120,4|0|2
287,315,22466,5,4
444,288,23384,2,0,B|472:200|420:132,1,160,0|0
364,84,24763,2,0,B|312:68|276:100,1,80,2|0
220,136,25681,2,0,B|184:164|136:148,1,80,2|0
64,152,26600,2,0,B|68:196|68:240,1,80,2|0
124,292,27519,1,2
204,308,27979,2,0,B|264:296|332:308,2,120,0|0|2
124,292,29816,6,0,B|116:204,1,80,4|2
176,156,30735,2,0,B|168:112|200:76,1,80,0|2
252,140,31654,2,0,B|264:208|212:252,2,120,0|0|2
180,100,33492,2,0,B|246:27|320:95,1,160,4|0
396,116,34870,1,2
421,191,35329,2,0,B|416:310,2,120,4|2|0
256,192,37167,12,4,42680
126,298,44518,6,0,B|88:251|109:174,2,120,4|0|8
201,272,46355,2,0,B|267:275|334:277,2,120,4|0|8
161,202,48193,2,0,B|144:162|157:114,1,80,4|8
228,156,49112,2,0,B|246:199|233:242,1,80,0|8
296,288,50031,2,0,B|352:264|424:300,2,120,4|0|8
216,304,51868,6,0,B|160:328|88:292,2,120,4|0|8
256,236,53706,2,0,B|256:108,2,120,4|0|8
312,296,55544,2,0,B|340:324|388:320,1,80,4|8
448,268,56462,2,0,B|424:240|368:244,1,80,0|8
256,192,57381,12,4,59219
92,232,73920,6,0,B|92:112|88:64,2,160,4|0|0
152,284,76217,2,0,B|244:288,1,80,2|0
308,308,77136,1,2
388,292,77596,2,0,B|424:212|372:132,1,160
320,80,78974,1,2
240,68,79433,2,0,B|148:72,1,80,0|2
184,148,80352,2,0,B|276:144,1,80,0|2
284,220,81271,5,4
204,236,81730,2,0,B|188:280|136:276,1,80,2|0
124,200,82649,2,0,B|92:172|108:128,1,80,2|0
184,148,83568,2,0,B|212:116|268:128,1,80,2|0
240,204,84487,2,0,B|272:232|260:280,1,80,2|4
108,324,85865,1,0
44,176,86784,2,0,B|36:52,2,120,4|2|0
256,192,88622,12,2,92297
396,200,95972,6,0,B|432:260|404:328,2,120,4|0|8
316,184,97810,2,0,B|184:192,2,120,4|0|8
380,136,99648,2,0,B|392:96|360:52,1,80,4|8
288,80,100567,2,0,B|260:108|208:100,1,80,0|8
160,44,101485,2,0,B|112:104|168:164,2,120,4|0|8
220,100,103323,6,0,B|280:96|340:104,2,120,4|0|8
148,132,105161,2,0,B|144:204|148:264,2,120,4|0|8
228,132,106998,2,0,B|264:156|308:136,1,80,4|8
376,104,107917,2,0,B|396:144|388:184,1,80,0|8
320,220,108836,2,0,B|324:300|324:356,2,120,4|0|8
268,160,110674,6,0,B|212:120|148:160,2,120,4|0|8
212,216,112511,2,0,B|256:276|204:336,2,120,4|0|8
152,272,114349,2,0,B|64:276,1,80,4|8
56,196,115268,2,0,B|152:192,1,80,0|8
200,144,116187,2,0,B|192:16,2,120,4|0|8
276,172,118025,6,0,B|340:188|412:168,2,120,4|0|8
204,208,119862,2,0,B|200:280|216:332,2,120,4|0|8
264,152,121700,2,0,B|272:112|244:64,1,80,4|8
172,52,122619,2,0,B|168:100|188:132,1,80,0|8
256,192,123538,12,4,125375
