osu file format v13

[General]
AudioFilename: chibi-tech_-_love_is_insecurable_(original_mix+).mp3
AudioLeadIn: 0
PreviewTime: -1
Countdown: 1
SampleSet: Normal
StackLeniency: 0.7
Mode: 0
LetterboxInBreaks: 1
WidescreenStoryboard: 0

[Editor]
DistanceSpacing: 1
BeatDivisor: 2
GridSize: 4
TimelineZoom: 1

[Metadata]
Title:Love is Insecurable (Original Mix+)
TitleUnicode:Love is Insecurable (Original Mix+)
Artist:Chibi-Tech
ArtistUnicode:Chibi-Tech
Creator:Kitokofox
Version:Unobtainable
Source:
Tags:
BeatmapID:515777
BeatmapSetID:220402

[Difficulty]
HPDrainRate:5
CircleSize:5
OverallDifficulty:5
ApproachRate:5
SliderMultiplier:1.4
SliderTickRate:1

[Events]
//Background and Video events
//Break Periods
//Storyboard Layer 0 (Background)
//Storyboard Layer 1 (Fail)
//Storyboard Layer 2 (Pass)
//Storyboard Layer 3 (Foreground)
//Storyboard Sound Samples
//Background Colour Transformations
3,100,163,162,255

[TimingPoints]
14717,449.30357945185,4,1,0,100,1,0

[HitObjects]
224,160,14717,5,0,0:0:0:0:
288,160,15169,1,0,0:0:0:0:
288,224,15618,1,0,0:0:0:0:
224,224,16067,1,0,0:0:0:0:
224,160,16517,1,0,0:0:0:0:
288,160,16966,1,0,0:0:0:0:
288,224,17415,1,0,0:0:0:0:
224,224,17864,1,0,0:0:0:0:
224,160,18314,1,0,0:0:0:0:
288,160,18763,1,0,0:0:0:0:
288,224,19212,1,0,0:0:0:0:
224,224,19662,1,0,0:0:0:0:
224,160,20111,1,0,0:0:0:0:
288,160,20560,1,0,0:0:0:0:
288,224,21010,1,0,0:0:0:0:
224,224,21459,1,0,0:0:0:0:
224,160,21908,5,0,0:0:0:0:
288,160,22358,1,0,0:0:0:0:
288,224,22807,1,0,0:0:0:0:
224,224,23256,1,0,0:0:0:0:
224,160,23706,1,0,0:0:0:0:
288,160,24155,1,0,0:0:0:0:
288,224,24604,1,0,0:0:0:0:
224,224,25053,1,0,0:0:0:0:
224,160,25503,1,0,0:0:0:0:
288,160,25952,1,0,0:0:0:0:
288,224,26401,1,0,0:0:0:0:
224,224,26851,1,0,0:0:0:0:
224,160,27300,1,0,0:0:0:0:
288,160,27749,1,0,0:0:0:0:
288,224,28199,1,0,0:0:0:0:
224,224,28648,1,0,0:0:0:0:
224,160,29097,5,0,0:0:0:0:
288,160,29547,1,0,0:0:0:0:
288,224,29996,1,0,0:0:0:0:
224,224,30445,1,0,0:0:0:0:
224,160,30895,1,0,0:0:0:0:
288,160,31344,1,0,0:0:0:0:
288,224,31793,1,0,0:0:0:0:
224,224,32242,1,0,0:0:0:0:
224,160,32692,1,0,0:0:0:0:
288,160,33141,1,0,0:0:0:0:
288,224,33590,1,0,0:0:0:0:
224,224,34040,1,0,0:0:0:0:
224,160,34489,1,0,0:0:0:0:
288,160,34938,1,0,0:0:0:0:
288,224,35388,1,0,0:0:0:0:
224,224,35837,1,0,0:0:0:0:
224,160,36286,5,0,0:0:0:0:
288,160,36736,1,0,0:0:0:0:
288,224,37185,1,0,0:0:0:0:
224,224,37634,1,0,0:0:0:0:
224,160,38084,1,0,0:0:0:0:
288,160,38533,1,0,0:0:0:0:
288,224,38982,1,0,0:0:0:0:
224,224,39431,1,0,0:0:0:0:
224,160,39881,1,0,0:0:0:0:
288,160,40330,1,0,0:0:0:0:
288,224,40779,1,0,0:0:0:0:
224,224,41229,1,0,0:0:0:0:
224,160,41678,1,0,0:0:0:0:
288,160,42127,1,0,0:0:0:0:
288,224,42577,1,0,0:0:0:0:
224,224,43026,1,0,0:0:0:0:
224,160,43475,5,0,0:0:0:0:
288,160,43925,1,0,0:0:0:0:
288,224,44374,1,0,0:0:0:0:
224,224,44823,1,0,0:0:0:0:
224,160,45273,1,0,0:0:0:0:
288,160,45722,1,0,0:0:0:0:
288,224,46171,1,0,0:0:0:0:
224,224,46620,1,0,0:0:0:0:
224,160,47070,1,0,0:0:0:0:
288,160,47519,1,0,0:0:0:0:
288,224,47968,1,0,0:0:0:0:
224,224,48418,1,0,0:0:0:0:
224,160,48867,1,0,0:0:0:0:
288,160,49316,1,0,0:0:0:0:
288,224,49766,1,0,0:0:0:0:
224,224,50215,1,0,0:0:0:0:
224,160,50664,5,0,0:0:0:0:
288,160,51114,1,0,0:0:0:0:
288,224,51563,1,0,0:0:0:0:
224,224,52012,1,0,0:0:0:0:
224,160,52462,1,0,0:0:0:0:
288,160,52911,1,0,0:0:0:0:
288,224,53360,1,0,0:0:0:0:
224,224,53809,1,0,0:0:0:0:
224,160,54259,1,0,0:0:0:0:
288,160,54708,1,0,0:0:0:0:
288,224,55157,1,0,0:0:0:0:
224,224,55607,1,0,0:0:0:0:
224,160,56056,1,0,0:0:0:0:
288,160,56505,1,0,0:0:0:0:
288,224,56955,1,0,0:0:0:0:
224,224,57404,1,0,0:0:0:0:
224,160,57853,5,0,0:0:0:0:
288,160,58303,1,0,0:0:0:0:
288,224,58752,1,0,0:0:0:0:
224,224,59201,1,0,0:0:0:0:
224,160,59651,1,0,0:0:0:0:
288,160,60100,1,0,0:0:0:0:
288,224,60549,1,0,0:0:0:0:
224,224,60998,1,0,0:0:0:0:
224,160,61448,1,0,0:0:0:0:
288,160,61897,1,0,0:0:0:0:
288,224,62346,1,0,0:0:0:0:
224,224,62796,1,0,0:0:0:0:
224,160,63245,1,0,0:0:0:0:
288,160,63694,1,0,0:0:0:0:
288,224,64144,1,0,0:0:0:0:
224,224,64593,1,0,0:0:0:0:
