osu file format v5

[General]
AudioFilename: Bokusatsu_Tenshi_Dokuro-chan_-_Bokusatsu_Tenshi_Dokuro-chan.mp3
AudioLeadIn: 0
PreviewTime: -1
Countdown: 1
SampleSet: Normal
StackLeniency: 0.7
Mode: 0
LetterboxInBreaks: 1

[Metadata]
Title:Bokusatsu Tenshi Dokuro-chan
Artist:Chiba Saeko
Creator:yaya4ever
Version:dokuro-hard
Source:
Tags:

[Difficulty]
HPDrainRate:5
CircleSize:5
OverallDifficulty:5
SliderMultiplier:1.4
SliderTickRate:1

[Events]
//Background and Video events
//Break Periods
//Storyboard Layer 0 (Background)
//Storyboard Layer 1 (Failing)
//Storyboard Layer 2 (Passing)
//Storyboard Layer 3 (Foreground)
//Storyboard Sound Samples
//Background Colour Transformations
3,100,163,162,255

[TimingPoints]
0,400,4,1,0,100,1

[HitObjects]
103,59,6400,1,2
376,58,7600,1,2
399,246,8800,1,2
97,271,10400,1,2
102,58,11600,1,2
424,291,13200,1,2
111,275,14800,1,2
428,46,16000,1,2
423,272,17600,1,2
262,189,18800,1,2
269,77,20400,1,2
269,266,21600,1,2
80,185,23200,1,2
415,179,24400,1,2
261,52,26000,1,2
251,182,26800,1,2
250,287,27200,1,2
50,92,28800,2,2,L|324:228|311:240,1,280
50,92,30000,2,2,L|324:228|311:240,1,280
50,92,31600,2,2,L|324:228|311:240,1,280
50,92,33200,2,2,L|324:228|311:240,1,280
20,155,34400,1,2
259,296,36000,1,2
433,146,37200,1,2
247,174,38800,1,2
446,76,40000,1,8
436,269,40800,1,8
90,282,41600,1,8
101,68,42000,1,8
264,189,42800,1,8
264,189,43600,1,8
264,189,44400,1,8
264,189,44800,1,8
184,50,45600,1,8
102,296,46400,1,8
431,320,47200,1,8
414,65,47600,1,8
251,193,48400,1,8
251,193,49200,1,8
251,193,50000,1,8
251,193,50400,1,8
75,62,51200,1,4
80,296,52000,1,4
412,286,52800,1,4
430,60,53600,1,4
244,195,54000,1,4
75,45,54800,1,4
67,314,55600,1,4
240,191,56400,1,4
396,302,57200,1,4
404,197,57600,1,4
412,57,58000,1,4
243,64,59200,1,4
248,200,60000,1,4
85,149,60400,1,4
80,321,61200,1,4
255,311,62000,1,4
366,316,62800,1,4
374,211,63200,1,4
387,91,64000,1,4
259,103,64800,1,4
92,93,65600,1,4
107,229,66000,1,2
193,308,66800,1,2
339,259,67600,1,2
371,159,68400,1,2
229,97,68800,1,2
230,207,69600,1,2
136,184,70400,1,2
131,256,71200,1,2
298,304,72400,1,2
401,70,74000,1,2
392,194,74400,1,2
381,298,75200,1,2
68,71,76800,1,2
223,196,78400,1,2
214,54,79600,1,2
348,153,80800,1,2
365,285,82400,1,2
62,309,83600,1,2
77,192,84400,1,2
74,91,85200,1,2
234,77,86400,1,2
234,195,87600,1,2
50,92,88000,2,2,L|324:228|311:240,1,280
43,205,89600,2,2,L|317:341|304:353,1,280
260,15,90800,2,2,L|534:151|521:163,1,280
175,218,92400,2,2,L|449:354|436:366,1,280
381,65,93600,1,2
375,318,94400,1,2
80,89,95200,1,2
85,344,95600,1,2
77,190,96400,1,2
262,189,97200,1,2
403,198,98000,1,2
249,77,98400,1,2
259,287,98800,1,2
126,137,99200,1,2
275,218,100000,1,2
434,95,100800,1,2
404,333,101200,1,2
219,62,102000,1,2
219,62,102400,1,2
219,62,102800,1,2
219,62,103200,1,2
219,62,103600,1,2
219,62,104000,1,2
219,62,104400,1,2
361,94,104800,1,2
318,251,105600,1,2
89,92,106400,1,2
67,279,107200,1,2
247,128,107600,1,2
428,274,108400,1,2
264,276,109200,1,2
264,276,109600,1,2
264,276,110000,1,2
236,95,110400,1,2
236,95,110800,1,2
134,159,111200,1,2
134,159,111600,1,2
125,276,112000,1,2
125,276,112400,1,2
318,211,112800,1,2
318,211,113200,1,2
254,137,113600,1,2
408,85,114000,1,2
408,85,114400,1,2
362,182,114800,1,2
362,182,115200,1,2
294,94,115600,1,2
294,94,116000,1,2
168,143,116400,1,2
181,304,117600,1,2
434,102,119200,1,4
405,314,120000,1,4
141,138,120400,1,4
129,356,121200,1,4
37,202,122000,1,4
287,190,122400,1,4
397,187,122800,1,4
401,84,143200,1,2
384,172,143600,1,10
359,283,144000,1,2
272,148,144400,1,10
227,59,144800,1,2
137,88,145200,1,10
43,104,146400,1,10
92,211,146800,1,2
132,293,147200,1,2
254,187,147600,1,10
276,87,148000,1,2
441,85,148800,1,10
426,211,149600,1,10
401,315,150000,1,10
204,305,150800,1,10
112,136,151200,1,10
262,112,151600,1,10
271,238,152400,1,10
151,79,152800,1,10
401,85,154400,1,8
390,232,154800,1,8
257,103,155200,1,8
211,246,155600,1,8
121,101,156000,1,8
55,239,156400,1,8
399,68,157600,1,2
348,232,158000,1,2
304,65,158400,1,2
240,212,158800,1,2
187,87,159200,1,2
416,78,160000,1,4
418,232,160400,1,4
248,77,160800,1,4
231,244,161200,1,4
116,100,162000,1,4
72,271,162800,1,4
224,97,163200,1,4
241,240,163600,1,4
348,81,164400,1,4
50,92,165600,2,2,L|324:228|311:240,1,280
30,255,167200,2,2,L|304:391|291:403,1,280
222,40,168400,2,2,L|496:176|483:188,1,280
225,192,170000,2,2,L|499:328|486:340,1,280
425,81,171200,1,2
218,47,172000,1,2
64,298,172800,1,2
60,100,173200,1,2
122,200,174000,1,2
237,197,174400,1,2
356,207,174800,1,2
250,87,175600,1,2
223,197,176000,1,2
222,297,176400,1,2
441,104,176800,1,2
389,314,177600,1,2
56,95,178400,1,2
45,212,179200,1,2
231,35,179600,1,2
242,194,180400,1,2
204,303,181200,1,2
106,186,181600,1,2
126,85,182000,1,2
393,110,182800,1,2
371,274,183200,1,2
246,90,184000,1,2
244,202,184400,1,2
101,76,185200,1,2
83,165,185600,1,2
79,202,186000,1,2
80,171,186800,1,2
80,171,187200,1,2
80,171,187600,1,2
207,52,188400,1,2
182,193,188800,1,2
182,193,189200,1,2
242,179,189600,1,2
256,152,190000,1,2
237,328,190400,1,2
237,328,190800,1,2
122,182,191200,1,2
122,182,191600,1,2
169,65,192000,1,2
286,93,192400,1,2
286,93,192800,1,2
406,63,193200,1,2
406,63,193600,1,2
417,166,194000,1,2
246,116,194800,1,2
199,239,195200,1,2
406,181,196800,1,2
220,145,197600,1,2
85,145,198000,1,2
115,272,198800,1,2
303,317,199600,1,2
422,301,200000,1,2
451,82,201200,1,2
242,187,201600,1,2
111,283,202400,1,2
87,115,203600,1,2
259,185,204400,1,2
376,304,205200,1,2
262,53,206400,1,2
269,218,207200,1,2
271,319,208000,1,2
450,74,209600,1,4
450,74,210000,1,4
427,209,210800,1,4
427,209,211600,1,4
246,123,212400,1,4
246,123,212800,1,4
130,199,213600,1,4
130,199,214400,1,4
79,62,215200,1,4
259,184,215600,1,4
426,337,216400,1,4
455,57,217200,1,4
242,192,218000,1,4
87,301,218400,1,4
134,141,223600,1,8
134,141,224000,1,8
134,141,224400,1,8
134,141,224800,1,8
134,141,225200,1,8
134,141,225600,1,8
250,191,226000,1,4
