osu file format v7

[General]
AudioFilename: 2.mp3
AudioLeadIn: 3000
PreviewTime: 79481
Countdown: 0
SampleSet: Soft
StackLeniency: 0.7
Mode: 0
LetterboxInBreaks: 1

[Editor]
DistanceSpacing: 1
BeatDivisor: 4
GridSize: 8

[Metadata]
Title:Ryuusei no Namida
Artist:Chiaki Kuriyama
Creator:ccbp
Version:Normal
Source:Mobile Suit Gundam Unicorn
Tags:Gundam UC CC

[Difficulty]
HPDrainRate:5
CircleSize:4
OverallDifficulty:5
SliderMultiplier:0.65
SliderTickRate:1

[Events]
//Background and Video events
0,0,"20100306173008.jpg"
//Break Periods
2,68753,75067
//Storyboard Layer 0 (Background)
//Storyboard Layer 1 (Fail)
//Storyboard Layer 2 (Pass)
//Storyboard Layer 3 (Foreground)
//Storyboard Sound Samples
//Background Colour Transformations
3,100,163,162,255

[TimingPoints]
839,428.571428571429,4,2,1,50,1,0
13481,-100,4,1,1,50,0,0
14017,-100,4,1,1,46,0,0
14231,-50,4,1,1,50,0,0
40803,-50,4,2,1,50,0,0
79481,-100,4,2,1,50,0,0
99303,-100,4,2,1,30,0,0
100160,-100,4,2,1,40,0,0
104874,-100,4,2,1,46,0,0
106160,-100,4,2,1,50,0,0
107017,-100,4,2,1,45,0,0
108839,-50,4,2,1,50,0,0

[Colours]
Combo1 : 57,98,238
Combo2 : 239,240,241

[HitObjects]
144,80,838,2,2,B|288:80,1,130
328,120,1910,2,0,B|376:120,2,32.5
288,176,2553,2,2,B|208:176,1,65
208,240,3196,2,2,B|312:240,1,97.5
368,240,4053,2,2,B|448:192|424:88,1,162.5
376,64,5339,6,0,B|376:24,2,32.5
312,64,5981,2,2,B|232:64,1,65
232,128,6624,2,2,B|336:128,1,97.5
456,128,7696,2,2,B|488:200|448:264,1,130
328,264,8981,1,0
328,264,9196,2,2,B|192:264,1,130
96,184,10481,6,0,B|56:184,2,32.5
96,120,11124,2,2,B|88:80|128:64,1,65
184,40,11767,2,2,B|224:24|256:48,1,65
320,152,12624,1,0
320,152,12838,2,2,B|240:152,1,65
152,232,13696,6,0,B|104:232,2,32.5
400,312,14553,6,0,B|448:184|376:56,1,260
184,64,16053,1,0
184,64,16267,2,0,B|96:64,2,65
312,64,17124,1,0
360,320,17981,6,0,B|232:368|96:312,1,260
112,120,19481,1,0
112,120,19696,2,0,B|112:32,2,65
112,248,20553,1,0
112,248,20767,2,0,B|112:328,2,65
152,192,21410,6,0,B|224:160|320:224|416:184,1,260
480,72,22696,1,0
424,48,22910,1,0
360,40,23124,2,0,B|320:40|288:56,2,65
400,160,23981,2,0,B|400:240|336:296,1,130
232,328,24839,2,0,B|136:224|184:80,1,260
304,48,26124,5,0
304,48,26553,2,0,B|352:32|400:40,2,65
304,176,27410,1,0
280,232,27624,1,0
224,264,27839,1,0
96,288,28267,6,0,B|64:248|64:200,1,65
56,168,28696,1,0
56,104,28910,2,0,B|72:64|112:40,1,65
224,48,29553,2,0,B|264:32|312:48,1,65
296,104,29981,2,0,B|360:144|368:208,1,130
384,336,30839,1,0
384,336,31053,1,0
384,336,31267,1,0
256,336,31696,6,0,B|120:336,2,130
344,240,32981,1,0
344,240,33196,1,0
344,240,33410,2,0,B|424:240,2,65
232,176,34267,2,0,B|144:176,1,65
167,176,34696,1,0
192,48,35124,6,0,B|336:16|456:80,1,260
448,272,36624,1,0
448,272,36839,2,0,B|424:312|368:320,2,65
448,144,37696,2,0,B|448:96|480:80,4,65
240,296,39410,6,0,B|200:328|160:320,1,65
160,256,39839,2,0,B|112:256|96:224,1,65
128,176,40267,2,0,B|120:144|72:120,2,65
168,224,40910,2,8,B|248:224,2,65
112,256,41553,2,8,B|104:288|120:320,1,65
184,320,41981,6,8,B|48:320,1,130,8|10
112,200,42839,2,8,B|264:200,1,130,8|10
376,192,43696,2,8,B|376:104,3,65,8|8|10|8
376,64,44553,2,8,B|304:24|224:72,1,130,8|10
184,168,45410,6,8,B|328:168,1,130,8|10
384,280,46267,2,8,B|232:280,1,130,8|10
120,280,47124,2,8,B|80:256|80:216,1,65
136,192,47553,2,8,B|96:168|96:128,1,65,10|8
136,88,47981,2,8,B|272:88,1,130,8|10
400,88,48838,6,8,B|432:160|392:232,1,130,8|10
272,216,49696,1,8
144,216,50124,1,10
64,320,50553,2,8,B|128:360|208:312,1,130,8|10
256,320,51196,1,8
320,320,51410,2,8,B|392:288|464:328,1,130,8|10
368,216,52267,6,8,B|304:248|224:208,1,130,8|10
184,184,52910,1,8
128,144,53124,2,8,B|128:48,2,65,8|8|10
128,272,53981,2,8,B|192:304|264:272,1,130,8|10
392,272,54838,1,8
392,272,55053,1,8
392,272,55267,1,8
336,152,55696,5,8
208,152,56124,1,10
80,152,56553,1,8
80,152,56767,1,8
80,152,56981,1,10
144,264,57410,2,8,B|120:296|80:296,2,65,8|8|10
184,216,58053,1,8
216,160,58267,2,8,B|288:120|360:176,1,130,8|10
400,280,59124,6,8,B|264:280,1,130,8|10
232,336,59767,1,8
200,280,59981,2,8,B|56:280,1,130,8|10
56,152,60838,2,8,B|32:88|64:16,1,130,8|10
192,24,61696,2,8,B|264:24,3,65
320,24,62553,6,8,B|352:96|320:168,1,130,8|10
264,144,63196,2,8,B|192:168|184:248,1,130,8|10
232,288,63838,2,8,B|176:328|88:312,1,130,8|12
256,192,64696,12,0,68553
256,192,76267,12,0,79267
216,128,79696,6,8,B|152:96|80:128,1,130,8|10
112,248,81410,2,8,B|176:280|240:248,1,130,8|10
232,216,82481,2,8,B|184:152,1,65
176,136,83124,2,8,B|240:104|304:136,1,130,8|10
328,264,84838,2,8,B|256:264,1,65,8|10
272,304,85481,2,8,B|160:304,1,97.5,8|10
136,256,86553,6,8,B|104:192|136:128,1,130,8|10
192,96,87838,1,8
192,96,88053,2,8,B|304:96,1,97.5,8|10
336,144,89124,2,8,B|416:144,2,65,8|10|8
304,200,90838,2,8,B|200:200,1,97.5,8|8
208,232,91696,2,8,B|128:232,1,65,8|8
120,168,92553,2,8,B|48:168,2,65,8|8|8
184,168,93838,1,8
272,72,94696,5,8
336,72,95124,2,8,B|368:144|328:208,1,130,8|10
208,200,96838,2,8,B|176:264|208:328,1,130,8|10
335,326,98553,1,8
467,326,99410,1,12
464,200,100267,2,12,B|400:168|336:200,1,130
220,252,101981,2,12,B|158:286|84:249,1,130
150,136,103696,6,12,B|215:103|288:143,1,130
321,182,104981,2,8,B|389:182,2,65
255,183,106267,2,8,B|214:184,4,32.5,8|8|8|8|12
320,76,109481,6,8,B|389:76,2,65
300,138,110124,2,8,B|231:138,1,65
169,140,110553,2,8,B|142:208|171:268,1,130,8|10
235,262,111196,1,8
235,262,111410,2,8,B|374:262,1,130,8|10
384,133,112267,2,8,B|354:95|304:88,1,65,8|8
274,125,112696,2,8,B|237:96|192:100,1,65,10|8
177,153,113124,2,8,B|106:137|41:193,1,130,8|10
105,301,113981,6,8,B|172:336|244:300,1,130,8|10
192,179,114838,2,8,B|258:149|341:191,1,130,8|10
280,305,115696,2,8,B|254:331|214:333,1,65
177,285,116124,2,8,B|135:302|89:280,1,65,10|8
121,224,116553,2,8,B|53:202|42:121,1,130,8|10
153,60,117410,6,8,B|304:60,1,130,8|10
325,109,118053,1,8
280,155,118267,2,8,B|118:155,1,130,8|10
99,274,119124,2,8,B|60:286|51:332,2,65,8|8|10
229,274,119981,2,8,B|313:274,3,65,8|8|10|8
359,272,120838,6,8,B|392:208|353:126,1,130,8|10
232,133,121696,2,8,B|185:117|175:63,2,65,8|8|10
357,166,122553,1,10
323,291,122981,1,10
198,253,123410,1,10
233,133,123838,1,10
233,133,124053,1,8
233,133,124267,6,8,B|275:59|358:64,1,130,8|10
340,194,125124,2,8,B|298:268|215:263,1,130,8|10
107,278,125981,2,8,B|64:289|50:335,2,65,8|8|10
169,260,126624,1,8
229,234,126838,2,8,B|392:234,1,130,8|10
416,203,127481,1,8
360,168,127696,2,8,B|219:168,1,130,8|10
252,106,128338,2,8,B|325:106,1,65,8|8
370,68,128767,1,8
311,40,128981,2,8,B|169:40,1,130,8|8
87,211,130053,5,8
104,272,130267,1,8
152,320,130481,1,8
216,336,130696,1,8
280,320,130910,1,8
336,280,131124,2,8,B|376:219|356:139,1,130,8|10
304,192,131767,2,8,B|244:166|235:86,1,130,8|10
232,24,132410,1,8
232,24,132624,1,8
232,24,132838,1,12
256,192,133053,12,4,134553
208,233,135410,5,8
362,113,136053,1,8
362,113,136267,1,8
160,276,137124,1,8
255,34,137981,6,8,B|255:101,3,65
187,210,139053,1,8
187,210,139267,1,8
317,209,139696,1,8
317,209,139910,1,8
256,192,140124,12,2,142267
256,226,143124,5,2
255,260,143981,5,2
256,192,144838,12,0,150839
