osu file format v5

[General]
AudioFilename: Bokura_No_Opening.mp3
AudioLeadIn: 0
PreviewTime: -1
Countdown: 1
SampleSet: Soft
StackLeniency: 0.7
Mode: 0
LetterboxInBreaks: 1

[Metadata]
Title:Uninstall (TV Size)
Artist:Chiaki Ishikawa
Creator:Gladi
Version:Insane
Source:
Tags:

[Difficulty]
HPDrainRate:7
CircleSize:5
OverallDifficulty:6
SliderMultiplier:1.4
SliderTickRate:1

[Events]
//Background and Video events
1,0,"Bokura_No_Opening.avi"
0,0,"Bokurano.jpg"
//Break Periods
//Storyboard Layer 0 (Background)
//Storyboard Layer 1 (Failing)
//Storyboard Layer 2 (Passing)
//Storyboard Layer 3 (Foreground)
//Storyboard Sound Samples
//Background Colour Transformations
3,100,0,0,0

[TimingPoints]
5780,489.795918367347,4,2,0,60,1,0
43494,1959.18367346939,4,2,0,60,1,0
44963,489.795918367347,4,2,0,60,1,0
46677,-100,4,1,0,50,0,0
63085,-200,4,2,0,60,0,0
64309,-100,4,1,0,50,0,0
78024,-100,4,1,0,50,0,0
78391,-100,4,2,0,60,0,0
79983,-100,4,1,0,50,0,0
80350,-100,4,2,0,60,0,0
81942,-100,4,1,0,50,0,0
82309,-100,4,2,0,60,0,0
83901,-100,4,2,0,0,0,0

[HitObjects]
104,264,6269,2,0,B|104:352|216:344,2,140
152,240,7494,1,0
184,192,7739,1,2
408,120,8228,6,0,B|408:32|296:40,2,140
360,144,9453,1,0
328,192,9698,5,2
272,184,9943,2,0,B|192:176,1,70
160,208,10433,1,0
160,208,10555,1,0
200,248,10800,1,0
200,248,10922,1,0
176,296,11167,1,2
280,320,11657,5,0
312,272,11902,2,0,B|296:200,1,70
328,160,12392,1,0
328,160,12514,1,0
288,120,12759,1,0
288,120,12882,1,0
232,136,13126,1,2
264,240,13616,5,6
216,264,13861,5,0
160,256,14106,2,0,B|80:264,2,70
168,200,14841,2,0,B|232:152|192:64,1,140
196,74,15575,5,2
248,56,15820,2,0,B|328:72,1,70
368,64,16310,1,0
400,112,16555,2,0,B|480:104,2,70
400,112,17290,1,0
392,168,17535,5,2
352,208,17779,1,0
296,200,18024,2,0,B|248:248|160:224,1,140
192,120,19004,2,0,B|280:80,1,70
255,91,19494,5,2
312,96,19739,1,0
352,136,19984,2,0,B|320:200|360:280,2,140
256,192,21453,5,2
200,208,21698,2,0,B|128:216,1,70
96,176,22188,1,0
128,128,22433,2,0,B|200:112,1,70
248,128,22922,1,0
304,136,23167,1,0
344,168,23412,5,2
336,224,23657,2,0,B|368:288,2,70
288,256,24392,2,0,B|208:248,1,70
218,249,24882,1,0
208,192,25126,1,0
168,152,25371,5,2
192,104,25616,2,0,B|264:136|344:96,2,140
264,184,27086,1,0
320,200,27331,5,2
336,256,27575,1,0
336,256,27698,2,0,B|224:288,1,105
235,284,28310,1,0
184,264,28555,2,0,B|96:240,2,70
200,208,29290,5,6
328,104,30024,6,0,B|376:168,1,70
370,160,30514,1,0
360,216,30759,1,0
384,264,31004,1,0
344,304,31249,6,0,B|272:288,1,70,2|0
275,288,31739,1,0
248,240,31984,2,0,B|280:176|248:96,1,140
224,56,32718,1,0
184,96,32963,1,0
184,152,33208,6,0,B|184:224,1,70,2|0
216,264,33698,6,0,B|288:264,1,70,0|0
328,232,34188,6,0,B|328:160,1,70,0|0
296,120,34677,6,0,B|224:120,1,70,0|0
224,176,35167,5,2
280,176,35412,1,0
280,232,35657,1,0
224,232,35902,1,0
224,176,36147,2,0,B|192:96|232:32,1,140
328,88,37126,5,2
360,136,37371,2,0,B|400:128,2,35
288,216,38106,2,0,B|328:288,1,70
321,277,38596,1,0
272,304,38841,1,0
224,280,39086,6,0,B|176:208|232:128,1,140,2|0
202,200,39820,6,0,B|238:116|194:48,1,140,0|0
204,65,40555,1,0
152,80,40800,1,0
120,128,41045,6,0,B|136:208,2,70,2|0|0
64,128,41780,1,0
40,176,42024,1,0
64,224,42269,1,0
112,248,42514,1,0
160,224,42759,1,0
184,176,43004,5,2
160,128,43249,1,0
112,104,43494,1,0
112,160,43738,2,0,B|112:200,1,35
112,248,44473,1,0
224,296,44963,6,2,B|296:296,3,70,2|2|2|0
344,320,45942,6,0,B|440:328|456:240,1,140
376,248,46922,5,4
168,64,47656,6,2,B|72:56|56:144,1,140
59,129,48391,1,0
136,136,48881,5,4
184,352,49860,6,2,B|352:352,1,140
344,64,50840,6,2,B|440:56|456:144,1,140,2|2
168,320,51575,6,2,B|72:328|56:240,1,140,2|2
59,254,52309,1,0
168,64,52799,6,2,B|72:56|56:144,1,140,2|2
344,320,53534,6,2,B|440:328|456:240,1,140,2|2
453,254,54268,1,0
256,192,54758,5,6
96,136,55493,5,0
56,176,55738,2,2,B|72:248,1,70,2|2
40,288,56228,2,2,B|104:320|192:296,1,140,2|6
224,272,56963,5,0
224,272,57085,1,0
224,272,57207,1,0
320,216,57697,2,2,B|272:152|320:72,1,140
392,160,58677,5,6
376,272,59167,1,2
336,312,59411,2,2,B|264:344|192:312,1,140
199,315,60146,1,0
160,272,60391,1,0
192,224,60636,5,4
160,176,60881,6,2,B|160:128|216:128,1,70
312,128,61371,6,2,B|360:128|360:184,1,70,2|2
360,280,61860,6,2,B|360:328|304:328,1,70,2|2
208,328,62350,6,2,B|160:328|160:272,1,70,2|6
256,80,63575,6,2,B|256:152,1,70,2|2
256,150,64554,5,4
352,352,65534,6,2,B|432:336|456:248,2,140,2|2|6
160,32,67003,5,0
160,32,67248,2,2,B|80:48|56:136,1,140
60,120,67983,1,0
352,32,68473,6,2,B|432:48|456:136,1,140,6|2
160,352,69207,6,2,B|80:336|56:248,1,140,2|2
60,263,69942,1,0
104,232,70187,1,0
136,184,70432,6,2,B|128:112|168:72|256:72|304:104|288:224,1,280,6|2
400,192,71901,1,0
344,288,72391,5,4
176,136,73371,2,2,B|80:128|88:240,1,140
336,136,74350,6,2,B|432:128|424:240,1,140,6|2
368,200,75085,2,2,B|304:240|224:192,1,140
264,136,75820,6,2,B|168:128|176:240,1,140,2|6
256,296,76799,5,2
360,192,77289,5,2
256,88,77779,5,2
152,192,78269,5,4
200,216,78514,2,0,B|280:208,1,70,0|2
320,232,79003,1,0
320,232,79126,1,0
280,272,79371,1,0
280,272,79493,1,0
304,320,79738,1,2
408,280,80228,5,4
440,232,80473,2,0,B|392:168,1,70,0|2
400,120,80963,1,0
400,120,81085,1,0
344,128,81330,1,0
344,128,81452,1,0
304,88,81697,1,2
200,136,82187,5,4
176,184,82432,2,0,B|216:256,1,70,0|2
256,216,82922,1,0
256,216,83044,1,0
304,248,83289,1,0
304,248,83411,1,0
296,304,83656,1,2
256,192,84146,12,0,86105
