osu file format v5

[General]
AudioFilename: Bokura_No_Opening.mp3
AudioLeadIn: 0
PreviewTime: -1
Countdown: 1
SampleSet: Soft
StackLeniency: 0.7
Mode: 0
LetterboxInBreaks: 1

[Metadata]
Title:Uninstall (TV Size)
Artist:Chiaki Ishikawa
Creator:Gladi
Version:Hard
Source:
Tags:

[Difficulty]
HPDrainRate:6
CircleSize:5
OverallDifficulty:5
SliderMultiplier:1.2
SliderTickRate:1

[Events]
//Background and Video events
1,0,"Bokura_No_Opening.avi"
0,0,"Bokurano.jpg"
//Break Periods
//Storyboard Layer 0 (Background)
//Storyboard Layer 1 (Failing)
//Storyboard Layer 2 (Passing)
//Storyboard Layer 3 (Foreground)
//Storyboard Sound Samples
//Background Colour Transformations
3,100,0,0,0

[TimingPoints]
5780,489.795918367347,4,2,0,60,1,0
43494,1959.18367346939,4,2,0,60,1,0
44963,489.795918367347,4,2,0,60,1,0
46677,-100,4,1,0,50,0,0
63085,-200,4,2,0,60,0,0
64309,-100,4,1,0,50,0,0
78024,-100,4,1,0,50,0,0
78391,-100,4,2,0,60,0,0
79983,-100,4,1,0,50,0,0
80350,-100,4,2,0,60,0,0
81942,-100,4,1,0,50,0,0
82309,-100,4,2,0,60,0,0
83901,-100,4,2,0,0,0,0

[HitObjects]
200,136,6269,2,0,B|256:160|320:136,1,120
320,232,7249,6,0,B|264:256|200:232,1,120,0|2
120,184,8228,1,0
56,256,8718,1,0
120,320,9208,1,0
184,256,9698,5,2
232,232,9943,1,0
280,232,10188,1,0
320,200,10433,2,0,B|312:168,1,30
344,136,10800,2,0,B|376:112,1,30
368,72,11167,1,0
280,56,11657,5,2
248,96,11902,1,0
200,104,12147,1,0
176,144,12392,2,0,B|192:184,1,30
160,208,12759,2,0,B|112:216,1,30
112,256,13126,1,0
200,296,13616,5,6
240,272,13861,2,0,B|304:256,1,60
328,216,14351,1,0
312,168,14596,1,0
352,136,14841,2,0,B|376:80|344:16,1,120
304,40,15575,5,2
256,56,15820,2,0,B|184:64,2,60
264,104,16555,1,0
232,144,16800,1,0
184,128,17045,2,0,B|136:176,1,60
152,216,17535,5,2
192,240,17780,1,0
240,232,18024,2,0,B|280:208|320:256|368:216,2,120
224,184,19249,1,0
256,152,19494,5,2
256,104,19739,2,0,B|320:56,1,60
384,120,20473,2,0,B|416:176|384:240,1,120
288,232,21453,5,2
248,264,21698,2,0,B|176:272,2,60
240,216,22433,1,0
200,184,22677,2,0,B|168:128|200:64,1,120
248,64,23412,5,2
296,80,23657,2,0,B|376:64,2,60
288,128,24392,2,0,B|320:184,1,60
317,180,24882,1,0
304,224,25126,1,0
256,240,25371,5,2
216,216,25616,2,0,B|176:160|216:88,2,120
136,272,27086,1,0
184,288,27331,5,2
224,264,27575,2,0,B|256:280,1,30
312,240,28065,1,0
352,216,28310,2,0,B|424:192,1,60
432,152,28800,2,0,B|408:83,1,60
360,96,29290,5,6
184,168,30269,5,0
136,184,30514,2,0,B|72:152,2,60
112,224,31249,6,0,B|80:288|112:352,1,120,2|0
106,340,31984,1,0
200,312,32473,1,0
240,296,32718,2,0,B|312:288,1,60
344,272,33208,5,2
312,232,33453,2,0,B|328:160,3,60
304,128,34433,1,0
256,112,34677,1,0
224,144,34922,1,0
176,136,35167,5,2
152,176,35412,2,0,B|128:240,1,60
176,256,35902,2,0,B|240:232,1,60
264,272,36392,2,0,B|248:336,1,60
344,320,37126,5,2
288,136,38106,2,0,B|256:80,1,60
258,83,38596,1,0
208,72,38841,1,0
176,104,39086,6,0,B|200:168|176:224,1,120,2|0
177,221,39820,1,0
256,272,40310,2,0,B|328:280,1,60
315,278,40800,1,0
336,232,41045,5,2
384,216,41290,2,0,B|448:232,4,60
384,168,42514,1,0
360,128,42759,1,0
320,104,43004,1,0
280,128,43249,1,0
256,168,43494,6,0,B|160:168,1,90,0|2
166,168,45207,1,0
166,168,45452,1,0
112,248,45942,6,0,B|128:320|224:304,1,120
184,240,46922,5,4
320,192,47656,6,2,B|384:112|312:24,1,180
272,112,48881,5,4
120,224,49860,6,2,B|88:280|128:344,1,120
216,304,50840,5,4
288,240,51330,1,2
336,256,51575,2,2,B|408:184|336:72,1,180
256,64,52799,5,4
184,128,53289,1,2
136,112,53534,2,2,B|64:184|136:296,1,180
200,328,54758,5,4
320,248,55493,6,0,B|392:256,2,60
296,208,56228,6,2,B|256:144|304:72,1,120,2|6
120,184,57697,2,2,B|88:240|128:304,1,120
216,280,58677,5,4
304,240,59167,2,2,B|368:264,1,60
392,168,59901,2,2,B|440:120,2,60
288,144,60881,6,2,B|200:144,1,60
200,184,61371,6,2,B|200:272,1,60,2|2
224,280,61860,6,2,B|312:280,1,60,2|2
320,248,62350,6,2,B|320:160,1,60,2|6
248,120,63575,6,0,B|168:120,2,60,0|0|4
416,208,65534,2,2,B|448:272|416:328,1,120,2|2
344,264,66514,5,4
256,312,67003,1,0
256,312,67248,2,2,B|192:224|264:128,1,180
344,192,68473,5,4
432,144,68962,1,0
432,144,69207,2,2,B|496:232|424:328,1,180
344,256,70432,5,4
224,104,71411,6,2,B|216:184|296:208|376:200|360:80,1,240,2|6
272,272,73371,2,2,B|216:296|152:264,1,120
80,200,74350,5,4
176,160,74840,2,2,B|216:112,1,60
304,144,75575,2,2,B|368:152,1,60
384,248,76309,5,4
304,296,76799,2,2,B|248:328|184:296,2,120,2|2|2
320,200,78269,5,4
264,120,78758,2,0,B|208:88|136:120,1,120,2|0
192,200,79738,1,2
256,272,80228,5,4
320,200,80718,5,2
376,120,81207,2,0,B|432:88|504:120,1,120,0|2
448,200,82187,5,4
384,272,82677,2,0,B|320:296|264:272,1,120,2|0
200,200,83656,1,2
256,192,84146,12,0,86105
