osu file format v9

[General]
AudioFilename: Fukanzen Nenshou.mp3
AudioLeadIn: 2000
PreviewTime: 244
Countdown: 0
SampleSet: Soft
StackLeniency: 0.7
Mode: 0
LetterboxInBreaks: 0

[Editor]
DistanceSpacing: 0.8
BeatDivisor: 4
GridSize: 8

[Metadata]
Title:Fukanzen Nenshou (TV Size)
Artist:Chiaki Ishikawa
Creator:ItaOxy
Version:Normal
Source:Kamisama Dolls
Tags:flatps

[Difficulty]
HPDrainRate:5
CircleSize:4
OverallDifficulty:5
ApproachRate:5
SliderMultiplier:1.40000000596046
SliderTickRate:1

[Events]
//Background and Video events
Video,0,"Fukanzen Nenshou.flv"
0,0,"background.jpg"
//Break Periods
2,19290,26915
//Storyboard Layer 0 (Background)
//Storyboard Layer 1 (Fail)
//Storyboard Layer 2 (Pass)
//Storyboard Layer 3 (Foreground)
//Storyboard Sound Samples
//Background Colour Transformations
3,100,163,162,255

[TimingPoints]
510,530.879490355689,4,2,0,60,1,0
68462,-100,4,2,0,60,0,1
87574,-100,4,2,0,60,0,0
87839,-100,4,2,0,10,0,0

[Colours]
Combo1 : 255,255,255
Combo2 : 130,130,220
Combo3 : 106,215,160
Combo4 : 255,128,128
Combo5 : 224,219,114

[HitObjects]
432,288,510,2,2,B|368:336|288:280,1,140.000000596046
176,288,1571,1,2
128,288,1837,1,2
80,288,2102,1,2
64,176,2633,6,2,B|56:32,2,140.000000596046
112,176,3960,1,2
160,176,4226,1,2
272,176,4757,6,2,B|304:200|352:168,2,70.000000298023
272,64,5818,1,2
384,64,6349,1,2
448,152,6880,5,2
448,208,7145,1,2
448,264,7411,1,2
344,312,7942,2,2,B|272:272|200:320,1,140.000000596046
96,304,9004,5,2
96,256,9269,1,2
96,208,9534,1,2
96,96,10065,2,2,B|168:136|240:88,1,140.000000596046
352,104,11127,5,2
352,152,11393,1,2
352,200,11658,1,2
288,288,12189,2,2,B|360:328|440:280,1,140.000000596046
432,176,13251,5,2
432,128,13516,1,2
432,80,13781,1,2
320,72,14312,2,0,B|256:16|192:72,1,140.000000596046,0|2
320,192,15374,5,2
272,192,15640,1,2
224,192,15905,1,2
144,272,16436,1,2
256,192,16834,12,2,19090
448,256,28115,6,2,B|448:344,2,70.000000298023
448,208,28912,1,0
448,160,29177,1,2
360,88,29708,2,2,B|288:72|216:88,1,140.000000596046
216,136,30504,1,0
216,184,30770,1,2
128,256,31301,6,2,B|96:272|56:256,2,70.000000298023
128,144,32362,1,0
208,64,32893,1,0
320,64,33424,1,2
368,64,33689,1,0
416,64,33955,1,2
448,168,34486,6,2,B|416:240|448:312,1,140.000000596046
336,312,35548,1,2
288,312,35813,1,0
240,312,36078,1,2
168,232,36609,6,2,B|104:296|32:216,1,140.000000596046
48,120,37671,2,2,B|48:48,2,70.000000298023
152,168,38733,6,2,B|224:128|296:176,1,140.000000596046
408,168,39795,1,2
408,120,40060,1,0
408,72,40325,1,2
296,72,40856,6,2,B|224:112|152:64,1,140.000000596046
64,136,41918,2,2,B|96:200|64:280,1,140.000000596046
160,336,42980,5,2
208,336,43245,1,0
256,336,43511,1,2
360,296,44042,2,2,B|384:224|360:152,1,140.000000596046
368,48,45103,5,2
320,48,45369,1,0
272,48,45634,1,2
272,160,46165,2,2,B|200:200|120:152,1,140.000000596046
256,192,47227,12,2,49350
256,192,50147,5,4
416,80,51474,5,2
416,192,52005,1,2
416,304,52536,2,2,B|344:264|272:312,1,140.000000596046
168,264,53597,5,2
168,216,53863,1,0
168,168,54128,1,2
224,72,54659,2,2,B|296:112|368:64,1,140.000000596046
312,168,55721,5,2
424,168,56252,1,2
384,272,56783,2,2,B|312:232|240:280,1,140.000000596046
128,272,57844,5,2
128,224,58110,1,0
128,176,58375,1,2
192,88,58906,2,2,B|256:128|336:80,1,140.000000596046
336,200,59968,6,2,B|336:280,2,70.000000298023
256,120,61030,1,2
184,200,61561,1,2
112,120,62092,6,2,B|112:40,2,70.000000298023
64,224,63153,1,2
64,336,63684,1,2
176,336,64215,6,2,B|208:256|176:192,1,140.000000596046
176,80,65277,2,2,B|248:120|328:72,1,140.000000596046
320,192,66339,6,0,B|264:192,1,35.0000001490115
144,192,67135,2,0,B|88:192|96:192,1,35.0000001490115
304,272,68462,6,2,B|160:272,1,140.000000596046
168,160,69524,2,2,B|320:160,1,140.000000596046
376,72,70586,1,2
328,72,70851,1,2
280,72,71116,1,2
168,72,71647,1,2
56,72,72178,1,2
56,184,72709,6,2,B|104:256|48:328,1,140.000000596046
168,320,73771,1,2
216,320,74036,1,2
264,320,74302,1,2
376,320,74833,2,2,B|336:256|376:168,1,140.000000596046
304,96,75894,1,2
416,96,76425,1,2
416,208,76956,6,2,B|344:264|416:328,1,140.000000596046
304,328,78018,2,0,B|216:328,2,70.000000298023,2|8|2
312,216,79080,6,2,B|376:160|312:88,1,140.000000596046
208,96,80141,2,0,B|120:96,2,70.000000298023,2|8|2
176,192,81203,5,2
256,288,81734,1,10
336,192,82265,1,2
256,104,82796,1,10
256,192,83327,12,2,84388
256,192,84919,5,10
256,192,85450,12,6,87839
