osu file format v14

[General]
AudioFilename: good bye(shourt ver).mp3
AudioLeadIn: 0
PreviewTime: 312
Countdown: 0
SampleSet: Soft
StackLeniency: 0.7
Mode: 0
LetterboxInBreaks: 0
WidescreenStoryboard: 0

[Editor]
Bookmarks: 14871
DistanceSpacing: 1.1
BeatDivisor: 4
GridSize: 8
TimelineZoom: 1.6

[Metadata]
Title:Zai Jian Cinderella
TitleUnicode:再見仙杜瑞拉
Artist:Chia
ArtistUnicode:Chia
Creator:Momizi
Version:Lunatic
Source:東方Project
Tags:Lily Bread C85 ヒロシゲ36号 ~ Neo Super-Express 狼と巫女とお菓子の家 DDBY Crest Usami Renko Maribel Hearn
BeatmapID:849385
BeatmapSetID:389577

[Difficulty]
HPDrainRate:6
CircleSize:4
OverallDifficulty:7.5
ApproachRate:8
SliderMultiplier:1.6
SliderTickRate:1

[Events]
//Background and Video events
0,0,"BG.jpg",0,0
//Break Periods
//Storyboard Layer 0 (Background)
//Storyboard Layer 1 (Fail)
//Storyboard Layer 2 (Pass)
//Storyboard Layer 3 (Foreground)
//Storyboard Sound Samples

[TimingPoints]
1195,441.176470588235,4,2,1,30,1,0
12886,-100,4,2,1,50,0,0
13327,-200,4,2,1,50,0,0
13437,-200,4,2,1,15,0,0
14871,-100,4,2,1,70,0,0
28768,-100,4,2,1,55,0,0
29430,-100,4,2,1,40,0,0
29650,-100,4,2,1,55,0,0
55239,-100,4,2,1,70,0,0
70018,-133.333333333333,4,2,1,70,0,0
70349,-133.333333333333,4,2,1,5,0,0
70459,-133.333333333333,4,2,1,70,0,0
70790,-133.333333333333,4,2,1,5,0,0
70900,-100,4,2,1,70,0,0
71783,-100,4,2,1,70,0,1
83915,-100,4,2,1,70,0,0
99136,-100,4,2,1,60,0,0
100018,-100,4,2,1,40,0,0
100900,-100,4,2,1,20,0,0
101783,-100,4,2,1,5,0,0

[Colours]
Combo1 : 255,204,108
Combo2 : 111,183,255
Combo3 : 206,96,230
Combo4 : 79,193,82

[HitObjects]
239,106,1195,5,2,0:0:0:0:
248,104,2077,1,2,0:0:0:0:
256,104,2959,1,2,0:0:0:0:
264,108,3842,1,2,0:0:0:0:
273,278,4724,5,2,0:0:0:0:
264,280,5606,1,2,0:0:0:0:
256,280,6488,1,2,0:0:0:0:
248,274,7371,1,2,0:0:0:0:
88,240,7812,1,2,0:0:0:0:
216,344,8253,5,2,0:0:0:0:
288,320,9136,1,2,0:0:0:0:
360,304,10018,1,2,0:0:0:0:
432,296,10900,1,2,0:0:0:0:
288,224,11342,1,2,0:0:0:0:
360,152,11562,1,0,0:0:0:0:
360,152,11672,1,0,0:0:0:0:
360,152,11783,5,2,0:0:0:0:
360,152,12224,1,0,0:0:0:0:
192,200,12444,1,2,0:0:0:0:
320,296,12886,5,2,0:0:0:0:
368,232,13106,1,0,0:0:0:0:
360,152,13327,2,0,B|288:160|248:112|248:112|184:120|184:120|128:96,1,240
24,64,14871,5,0,1:0:0:0:
145,22,15092,1,0,1:0:0:0:
147,61,15202,1,0,1:0:0:0:
137,99,15312,6,0,L|97:171,1,80,4|2,0:0|0:0,0:0:0:0:
32,272,15753,1,0,0:0:0:0:
216,256,15974,2,0,P|216:208|200:176,1,80,4|0,0:0|0:0,0:0:0:0:
216,336,16415,1,0,0:0:0:0:
64,344,16636,1,8,0:0:0:0:
216,256,16856,1,0,0:0:0:0:
80,208,17077,6,0,P|45:170|34:136,1,80
202,179,17518,2,0,P|194:131|306:91,1,160,10|2,0:0|0:0,0:0:0:0:
344,120,18180,1,0,0:0:0:0:
472,104,18400,1,10,0:0:0:0:
374,49,18621,1,2,0:0:0:0:
350,81,18731,1,0,0:0:0:0:
344,120,18842,6,0,P|360:184|368:200,1,80
440,328,19283,1,8,0:0:0:0:
464,248,19503,2,0,P|448:184|440:168,1,80
352,272,19944,1,0,0:0:0:0:
240,336,20165,1,8,0:0:0:0:
360,350,20386,6,0,P|357:287|343:255,1,80
272,128,20827,2,0,L|256:96,2,26.6666666666667
312,152,21047,2,0,P|216:144|168:208,1,160,8|0,0:0|0:0,0:0:0:0:
144,304,21709,1,2,0:0:0:0:
144,304,21930,1,10,0:0:0:0:
24,248,22150,1,0,0:0:0:0:
32,288,22261,1,0,0:0:0:0:
40,328,22371,6,0,L|72:224,1,80,4|0,0:0|0:0,0:0:0:0:
144,136,22812,2,0,L|128:48,2,80,8|0|0,0:0|0:0|0:0,0:0:0:0:
288,208,23474,1,0,0:0:0:0:
128,216,23694,1,8,0:0:0:0:
264,128,23915,1,0,0:0:0:0:
304,288,24136,6,0,L|384:304,1,80
288,208,24577,2,0,P|228:269|243:340,1,160,8|0,0:0|0:0,0:0:0:0:
368,232,25239,1,0,0:0:0:0:
408,96,25459,1,8,0:0:0:0:
264,128,25680,1,0,0:0:0:0:
264,128,25790,1,0,0:0:0:0:
264,128,25900,6,0,P|328:141|375:136,1,80,4|0,0:0|0:0,0:0:0:0:
480,112,26342,1,8,0:0:0:0:
344,24,26562,2,0,P|304:26|265:36,1,80,4|0,0:0|0:0,0:0:0:0:
136,144,27003,2,0,L|120:184,2,26.6666666666667
104,120,27224,1,8,0:0:0:0:
136,336,27444,5,4,0:0:0:0:
48,336,28768,5,0,0:0:0:0:
80,248,28989,1,8,0:3:0:0:
168,296,29209,1,0,0:0:0:0:
200,208,29430,6,0,L|296:192,1,80,4|0,0:0|0:0,0:0:0:0:
358,206,29871,2,0,L|246:190,1,80,0|0,3:0|0:0,0:0:0:0:
152,152,30312,1,0,0:0:0:0:
72,128,30533,1,0,0:0:0:0:
152,104,30753,1,0,3:0:0:0:
232,80,30974,1,0,0:0:0:0:
368,48,31194,6,0,P|424:40|464:40,1,80
488,176,31636,1,0,3:0:0:0:
488,176,31856,2,0,P|432:183|392:183,1,80
288,176,32297,1,0,0:0:0:0:
352,296,32518,1,0,3:0:0:0:
232,280,32739,1,0,0:0:0:0:
360,184,32959,6,0,P|344:128|307:108,1,80
216,72,33400,1,0,3:0:0:0:
216,72,33621,2,0,P|232:128|272:152,1,80
360,184,34062,1,0,0:0:0:0:
232,280,34283,1,0,3:0:0:0:
80,232,34503,1,0,0:0:0:0:
232,280,34724,6,0,P|224:224|208:200,1,80,2|0,0:0|0:0,0:0:0:0:
72,136,35165,1,0,3:0:0:0:
133,84,35386,1,2,0:0:0:0:
56,64,35606,1,0,0:0:0:0:
224,104,35827,1,0,0:0:0:0:
200,256,36047,1,0,3:0:0:0:
360,184,36268,1,0,0:0:0:0:
224,104,36489,6,0,P|256:160|280:168,1,80
384,184,36930,1,0,3:0:0:0:
496,136,37150,2,0,L|504:32,1,80
384,16,37592,1,0,0:0:0:0:
304,24,37812,1,0,3:0:0:0:
224,32,38033,1,0,0:0:0:0:
80,96,38253,6,0,L|160:96,1,80
8,176,38694,2,0,L|88:184,1,80,0|0,3:0|0:0,0:0:0:0:
208,216,39136,2,0,P|152:232|128:256,1,80
256,288,39577,2,0,P|312:296|336:288,1,80,0|0,3:0|0:0,0:0:0:0:
456,256,40018,6,0,L|464:352,1,80
384,224,40459,1,0,3:0:0:0:
496,184,40680,2,0,P|504:144|488:88,1,80
406,124,41121,1,0,0:0:0:0:
320,104,41342,1,0,3:0:0:0:
380,40,41562,1,0,0:0:0:0:
192,56,41783,6,0,P|152:64|112:56,1,80,2|0,0:0|0:0,0:0:0:0:
32,24,42224,1,0,3:0:0:0:
160,136,42444,2,0,P|200:144|240:136,1,80,2|0,0:0|0:0,0:0:0:0:
320,104,42885,1,0,0:0:0:0:
232,216,43106,1,0,3:0:0:0:
232,216,43327,1,0,0:0:0:0:
104,224,43547,6,0,P|72:272|72:304,1,80
216,320,43989,1,0,3:0:0:0:
224,240,44209,1,0,0:0:0:0:
336,280,44430,1,0,0:0:0:0:
363,204,44650,1,0,0:0:0:0:
464,264,44871,1,0,3:0:0:0:
509,197,45091,1,0,0:0:0:0:
416,328,45312,6,0,P|352:320|328:296,1,80
224,240,45753,1,0,3:0:0:0:
224,240,45974,2,0,L|128:248,1,80
104,336,46415,2,0,L|16:336,1,80,0|0,0:0|3:0,0:0:0:0:
200,336,46856,1,0,0:0:0:0:
301,189,47077,6,0,B|320:160|304:112,1,80
152,176,47518,1,0,3:0:0:0:
152,176,47739,2,0,B|128:128|160:88,1,80
272,40,48180,1,0,0:0:0:0:
104,24,48400,1,0,3:0:0:0:
104,24,48621,1,0,0:0:0:0:
0,104,48842,6,0,P|56:112|80:104,1,80,2|0,0:0|0:0,0:0:0:0:
194,40,49283,2,0,P|242:32|274:40,1,80,0|2,3:0|0:0,0:0:0:0:
360,160,49724,1,0,0:0:0:0:
360,160,49944,1,0,0:0:0:0:
248,128,50165,2,0,P|200:120|152:136,1,80,0|0,3:0|0:0,0:0:0:0:
56,176,50606,6,0,L|64:272,1,80
168,312,51047,1,0,3:0:0:0:
168,312,51268,2,0,P|168:264|192:232,1,80
304,240,51709,1,0,0:0:0:0:
312,320,51930,1,0,3:0:0:0:
304,232,52150,1,0,0:0:0:0:
312,328,52371,6,0,P|360:336|392:328,1,80
496,272,52812,1,0,3:0:0:0:
448,208,53033,1,0,0:0:0:0:
464,128,53253,1,0,0:0:0:0:
440,216,53474,1,0,0:0:0:0:
464,120,53694,1,0,3:0:0:0:
432,224,53915,1,0,0:0:0:0:
464,112,54136,6,0,P|400:88|376:88,1,80
272,96,54577,1,0,3:0:0:0:
272,96,54797,2,0,P|208:104|176:96,1,80
64,56,55239,1,2,0:0:0:0:
144,32,55459,1,0,3:0:0:0:
40,136,55680,1,2,0:0:0:0:
193,101,55900,6,0,L|177:197,1,80,2|0,0:0|0:0,0:0:0:0:
123,349,56342,1,8,0:0:0:0:
256,240,56562,1,0,0:0:0:0:
96,192,56783,1,8,0:0:0:0:
123,349,57003,1,8,0:3:0:0:
264,360,57224,1,8,0:0:0:0:
264,360,57334,1,8,0:3:0:0:
264,360,57444,1,8,0:3:0:0:
432,288,57665,6,0,P|440:214|362:162,1,160,4|8,0:0|0:0,0:0:0:0:
366,244,58327,1,0,0:0:0:0:
440,112,58547,2,0,P|475:86|542:99,1,80
360,72,58989,2,0,P|325:98|258:85,1,80,8|0,0:0|0:0,0:0:0:0:
168,48,59430,6,0,P|90:48|26:122,1,160,0|8,0:0|0:0,0:0:0:0:
136,160,60092,1,0,0:0:0:0:
168,48,60312,2,0,P|216:40|264:56,1,80
213,158,60753,2,0,P|165:166|117:150,1,80,10|0,0:0|0:0,0:0:0:0:
299,158,61194,6,0,P|347:166|395:150,1,80,2|0,0:0|0:0,0:0:0:0:
496,128,61636,2,0,L|480:216,1,80,8|0,0:0|0:0,0:0:0:0:
398,298,62077,1,0,0:0:0:0:
411,173,62297,1,0,0:0:0:0:
472,282,62518,1,8,0:0:0:0:
359,229,62739,1,0,0:0:0:0:
481,206,62959,6,0,P|480:128|400:96,1,160,0|8,0:0|0:0,0:0:0:0:
296,128,63621,2,0,P|240:144|192:136,1,80
96,136,64062,1,0,0:0:0:0:
176,80,64283,1,8,0:0:0:0:
128,216,64503,1,0,0:0:0:0:
32,88,64724,6,0,P|64:64|112:56,1,80,4|0,0:0|0:0,0:0:0:0:
296,128,65165,1,8,0:0:0:0:
128,216,65386,2,0,L|23:245,1,80,4|0,0:0|0:0,0:0:0:0:
184,320,65827,2,0,P|232:304|264:312,1,80,0|8,0:0|0:0,0:0:0:0:
376,336,66268,1,0,0:0:0:0:
488,256,66489,6,0,L|496:152,1,80,4|0,0:0|0:0,0:0:0:0:
356,69,66930,1,0,0:0:0:0:
339,266,67150,2,0,P|352:303|375:335,1,80,4|0,0:0|0:0,0:0:0:0:
247,232,67592,2,0,P|199:248|167:248,1,80,0|8,0:0|0:0,0:0:0:0:
56,216,68033,1,0,0:0:0:0:
247,232,68253,6,0,P|240:312|160:368,1,160,4|8,0:0|0:0,0:0:0:0:
56,216,68915,1,8,0:3:0:0:
48,176,69025,1,8,0:3:0:0:
40,136,69136,2,8,L|48:48,1,80,8|8,0:3|0:3,0:3:0:0:
216,40,69577,1,8,0:0:0:0:
216,40,69797,1,0,0:0:0:0:
341,68,70018,6,0,P|325:116|349:156,1,90.0000034332277
362,192,70459,2,0,P|359:242|322:271,1,90.0000034332277
288,293,70900,5,0,0:0:0:0:
169,129,71121,1,0,0:0:0:0:
169,254,71342,1,8,0:0:0:0:
288,90,71562,1,0,0:0:0:0:
362,192,71783,6,0,P|368:240|352:280,1,80,4|0,0:0|0:0,0:0:0:0:
149,191,72224,2,0,P|144:144|160:104,1,80,8|0,0:0|0:0,0:0:0:0:
176,264,72665,2,0,P|184:314|136:266,1,160,0|8,0:0|0:0,0:0:0:0:
284,192,73327,6,0,P|332:184|364:192,1,80
496,336,73768,2,0,L|408:328,1,80,0|8,0:0|0:0,0:0:0:0:
256,264,74209,1,0,0:0:0:0:
256,264,74430,2,0,L|166:264,1,80
361,191,74871,2,0,P|360:245|317:285,1,80,8|0,0:0|0:0,0:0:0:0:
149,191,75312,6,0,P|133:143|149:95,1,80
313,62,75753,1,8,0:0:0:0:
448,192,75974,2,0,L|432:288,1,80
304,336,76415,1,0,0:0:0:0:
236,172,76636,1,8,0:0:0:0:
376,120,76856,1,0,0:0:0:0:
268,254,77077,5,0,0:0:0:0:
128,240,77297,1,0,0:0:0:0:
224,96,77518,2,0,P|240:144|232:184,1,80,8|0,0:0|0:0,0:0:0:0:
72,184,77959,1,0,0:0:0:0:
40,40,78180,1,2,0:0:0:0:
40,40,78400,1,2,0:0:0:0:
456,64,78842,6,0,L|440:160,1,80,4|0,0:0|0:0,0:0:0:0:
304,256,79283,2,0,L|288:160,1,80,8|0,0:0|0:0,0:0:0:0:
168,48,79724,2,0,L|152:144,1,80
136,248,80165,1,8,0:0:0:0:
296,336,80386,6,0,P|352:344|400:328,1,80
212,261,80827,2,0,P|148:245|108:261,1,80,0|8,0:0|0:0,0:0:0:0:
48,352,81268,1,0,0:0:0:0:
216,344,81489,2,0,L|296:336,2,80,0|0|8,0:0|0:0|0:0,0:0:0:0:
64,224,82150,1,0,0:0:0:0:
60,183,82261,1,0,0:0:0:0:
74,145,82371,6,0,P|112:120|160:120,1,80,4|0,0:0|0:0,0:0:0:0:
360,208,82812,1,4,0:0:0:0:
212,261,83033,2,0,L|116:245,1,80,4|0,0:0|0:0,0:0:0:0:
266,135,83474,5,8,0:0:0:0:
422,281,83694,1,8,0:0:0:0:
216,344,83915,1,4,0:0:0:0:
456,48,85239,5,8,0:3:0:0:
392,176,85459,1,8,0:3:0:0:
304,72,85680,1,0,0:0:0:0:
344,64,85790,1,0,0:0:0:0:
384,72,85900,6,0,P|400:136|392:168,1,80,4|0,0:0|0:0,0:0:0:0:
296,232,86342,1,8,0:0:0:0:
131,235,86562,2,0,P|107:283|107:331,1,80,4|0,0:0|0:0,0:0:0:0:
296,232,87003,1,0,0:0:0:0:
210,104,87224,1,8,0:0:0:0:
131,235,87444,1,0,0:0:0:0:
296,152,87665,6,0,P|344:144|384:152,1,80,2|0,0:0|0:0,0:0:0:0:
464,256,88106,2,0,P|416:264|376:256,1,80,10|0,0:0|0:0,0:0:0:0:
296,152,88547,1,2,0:0:0:0:
296,312,88768,1,0,0:0:0:0:
168,232,88989,1,8,0:0:0:0:
80,118,89209,1,0,0:0:0:0:
104,86,89319,1,0,0:0:0:0:
128,54,89430,6,0,L|216:30,1,80
296,152,89871,1,8,0:0:0:0:
296,152,90092,2,0,P|240:152|216:136,1,80
357,79,90533,1,0,0:0:0:0:
479,151,90753,1,8,0:0:0:0:
275,223,90974,6,0,P|273:184|296:152,1,80
448,251,91415,2,0,P|447:271|439:287,2,26.6666666666667
416,219,91636,2,0,P|488:219|472:147,1,160,8|0,0:0|0:0,0:0:0:0:
296,152,92297,1,2,0:0:0:0:
296,152,92518,1,10,0:0:0:0:
152,144,92739,1,0,0:0:0:0:
136,176,92849,1,0,0:0:0:0:
120,208,92959,6,0,L|112:320,1,80,4|0,0:0|0:0,0:0:0:0:
256,336,93400,1,8,0:0:0:0:
372,164,93621,2,0,P|316:148|284:156,1,80
376,312,94062,1,0,0:0:0:0:
496,288,94283,1,8,0:0:0:0:
323,255,94503,1,0,0:0:0:0:
480,184,94724,6,0,P|496:120|496:96,1,80,2|0,0:0|0:0,0:0:0:0:
372,164,95165,2,0,P|308:180|276:172,1,80,10|0,0:0|0:0,0:0:0:0:
208,104,95606,1,2,0:0:0:0:
353,51,95827,1,0,0:0:0:0:
208,192,96047,1,8,0:0:0:0:
120,48,96268,5,0,0:0:0:0:
160,40,96378,1,0,0:0:0:0:
200,32,96489,2,0,B|288:40|280:40,1,80,4|0,0:0|0:0,0:0:0:0:
407,154,96930,1,8,0:0:0:0:
208,192,97150,2,0,L|120:200,1,80,4|0,0:0|0:0,0:0:0:0:
288,326,97592,2,0,L|264:350,2,26.6666666666667
320,302,97812,1,8,0:0:0:0:
292,92,98033,5,4,0:0:0:0:
256,192,98143,12,0,101783,0:0:0:0:
