osu file format v9

[General]
AudioFilename: owo)b.mp3
AudioLeadIn: 2000
PreviewTime: 54615
Countdown: 0
SampleSet: Soft
StackLeniency: 0.7
Mode: 0
LetterboxInBreaks: 0

[Editor]
DistanceSpacing: 1
BeatDivisor: 4
GridSize: 4

[Metadata]
Title:Dive to World (TV Size)
Artist:Cherryblossom
Creator:Yasora
Version:Stay!
Source:Katekyo Hitman REBORN!
Tags:opening op3 khr home tutor

[Difficulty]
HPDrainRate:2
CircleSize:3
OverallDifficulty:2
ApproachRate:3
SliderMultiplier:1
SliderTickRate:2

[Events]
//Background and Video events
0,0,"chrome-chan~.jpg"
Video,-300,"akakaka.avi"
//Break Periods
//Storyboard Layer 0 (Background)
//Storyboard Layer 1 (Fail)
//Storyboard Layer 2 (Pass)
//Storyboard Layer 3 (Foreground)
//Storyboard Sound Samples
//Background Colour Transformations
3,100,163,162,255

[TimingPoints]
85,408.163265306122,4,2,1,60,1,0
187,-100,4,2,1,80,0,0
4982,-100,4,1,1,70,0,0
6921,-100,4,1,2,70,0,0
7125,-100,4,1,1,70,0,0
8554,-100,4,1,2,70,0,0
8758,-100,4,1,1,70,0,0
10186,-100,4,1,2,70,0,0
10390,-100,4,1,1,70,0,0
11819,-100,4,1,2,70,0,0
12023,-100,4,1,1,70,0,0
13554,-100,4,2,1,80,0,0
15084,-100,4,2,2,80,0,0
15288,-100,4,2,1,80,0,0
18349,-100,4,2,2,80,0,0
18554,-100,4,2,1,80,0,0
19982,-100,4,2,2,80,0,0
20186,-100,4,2,1,80,0,0
21615,-100,4,2,2,80,0,0
21819,-100,4,2,1,80,0,0
28145,-100,4,2,2,80,0,0
28349,-100,4,2,1,80,0,0
31410,-100,4,2,2,80,0,0
31615,-100,4,2,1,80,0,0
33043,-100,4,2,2,80,0,0
33247,-100,4,2,1,80,0,0
34676,-100,4,2,2,80,0,0
34880,-100,4,2,1,80,0,0
36308,-100,4,2,2,80,0,0
36512,-100,4,2,1,80,0,0
37941,-100,4,2,2,80,0,0
38145,-100,4,2,1,80,0,0
39574,-100,4,2,2,80,0,0
39778,-100,4,2,1,80,0,0
41206,-100,4,2,2,80,0,0
41410,-100,4,2,1,80,0,0
42839,-100,4,2,2,80,0,0
43043,-100,4,2,1,80,0,0
46104,-100,4,2,2,80,0,0
46308,-100,4,2,1,80,0,0
54778,-100,4,2,1,50,0,0
55595,-100,4,1,1,80,0,1
55900,-100,4,1,2,80,0,1
56104,-100,4,1,1,80,0,1
59165,-100,4,1,2,80,0,1
59369,-100,4,1,1,80,0,1
60798,-100,4,1,2,80,0,1
61002,-100,4,1,1,80,0,1
62430,-100,4,1,2,80,0,1
62636,-100,4,1,1,80,0,1
64063,-100,4,1,2,80,0,1
64267,-100,4,1,1,80,0,1
68656,-100,4,1,1,70,0,0
68961,-100,4,1,2,70,0,0
69165,-100,4,1,1,70,0,0
72226,-100,4,1,2,70,0,0
72430,-100,4,1,1,70,0,0
75493,-100,4,1,2,70,0,0
75697,-100,4,1,1,70,0,0
78757,-100,4,1,2,70,0,0
78961,-100,4,1,1,70,0,0
81716,-100,4,1,1,60,0,0
88248,-100,4,2,1,30,0,0
89064,-100,4,2,1,5,0,0

[Colours]
Combo1 : 255,150,0
Combo2 : 255,128,128
Combo3 : 45,88,228
Combo4 : 128,128,192
SliderBorder : 255,255,255

[HitObjects]
356,192,84,2,0,B|412:176|456:224,2,100,6|0|2
256,192,1309,1,0
156,192,1717,2,0,B|100:176|56:224,2,100,2|0|2
256,192,2942,1,0
300,104,3350,6,0,B|344:56|436:56|488:112,1,200,2|2
496,204,4574,1,0
424,276,4982,6,0,B|376:304|324:280,1,100,8|8
316,184,5799,1,8
260,104,6207,1,0
200,184,6615,6,0,B|184:248|120:288|32:272,1,200,4|0
8,180,7840,1,8
56,92,8248,2,0,B|108:92|136:44|136:44|160:92|228:92,1,200
316,96,9472,1,8
400,36,9880,6,0,B|452:80|428:184|348:192,1,200,0|0
252,196,11105,1,8
152,192,11513,2,0,B|76:185|52:81|104:37,1,200
184,96,12738,1,8
256,32,13146,5,4
332,96,13554,2,0,B|384:144|384:144|320:180|340:264,1,200,8|8
432,240,14778,2,0,B|444:308|396:372|300:356,1,200,2|2
216,332,16003,1,8
156,252,16411,6,0,B|100:148,1,100,2|8
152,72,17227,2,0,B|208:168,1,100,2|8
256,240,18044,2,0,B|304:288|388:288|444:240,1,200,2|2
392,156,19268,1,8
440,68,19676,6,0,B|392:20|308:20|252:68,1,200,2|2
168,108,20901,1,8
88,44,21309,2,0,B|40:96|64:192|144:208,1,200,2|2
196,284,22533,1,8
296,284,22942,6,0,B|344:312|396:280,1,100,2|8
460,212,23758,1,2
504,124,24166,2,8,B|456:96|408:120|408:120|360:144|304:104,1,200
260,24,25391,2,0,B|196:60|192:144|250:192,1,200,2|4
328,248,26615,5,8
344,348,27023,2,0,B|300:372|244:352,1,100,2|8
148,344,27840,2,0,B|76:348|12:276|32:192,1,200,2|2
64,120,29064,1,8
156,80,29472,6,0,B|208:72|248:116,2,100,2|8|2
168,180,30697,1,8
256,224,31105,2,0,B|276:284|356:320|436:288,1,200,2|2
472,204,32329,1,8
472,104,32738,6,0,B|408:100|380:156|380:156|288:140,1,200,2|2
200,112,33962,1,8
104,84,34370,2,0,B|72:152|132:232|212:212,1,200,2|2
256,300,35595,1,8
312,212,36003,6,0,B|382:230|442:150|410:82,1,200,2|2
332,24,37227,1,8
312,120,37636,2,0,B|260:124|236:68|236:68|212:124|144:124,1,200,2|2
148,24,38860,1,8
72,88,39268,6,0,B|40:132|68:184|68:184|40:232|72:284,1,200,4|2
164,304,40493,1,8
260,276,40901,2,0,B|292:232|264:180|264:180|292:132|260:80,1,200,2|2
176,132,42125,1,8
168,32,42533,6,0,B|104:-4|16:44|20:128,1,200,4|2
52,208,43758,1,8
128,272,44166,2,0,B|152:320|220:332,2,100,2|8|2
164,176,45391,1,8
248,228,45799,6,0,B|284:172|248:72|164:76,1,200,4|2
76,92,47023,1,8
40,184,47431,2,0,B|44:244|8:292,2,100,2|8|2
140,172,48656,1,8
240,168,49064,6,0,B|272:208|348:200,1,100,2|12
336,300,49880,2,0,B|388:304|420:256,1,100,2|12
472,168,50697,2,0,B|512:64,2,100,2|12|2
372,164,51921,1,12
256,192,52329,12,0,53758
432,296,54778,6,0,B|400:344|332:348,1,100,0|2
340,248,55595,6,0,B|312:208|248:208|216:244|216:244|160:228,1,200,4|0
60,208,56819,1,8
132,140,57227,2,0,B|96:100|40:112,2,100,0|8|0
208,76,58452,1,8
300,40,58860,6,0,B|328:88|308:144|256:168|256:168|272:212,1,200
256,308,60085,1,8
156,308,60493,2,0,B|48:308|48:308|60:260|32:204,1,200
48,120,61717,1,8
120,48,62125,6,0,B|171:24|216:48|216:48|263:72|314:50,1,200,4|0
400,104,63350,1,8
500,136,63758,2,0,B|488:192|444:216|392:208|392:208|368:264,1,200
276,296,64982,1,8
196,236,65391,6,0,B|108:300,2,100,0|8|0
252,152,66615,2,0,B|336:88,2,100,8|0|8
156,124,67840,1,0
72,72,68248,1,8
48,168,68656,6,0,B|12:236|40:324|112:336,1,200,4|0
192,288,69880,1,8
284,248,70289,2,0,B|316:268|316:320|276:344,2,100,0|8|0
292,148,71513,1,8
376,200,71921,6,0,B|432:236|424:352|380:376,1,200
292,328,73146,2,0,B|188:348|92:264,1,200,8|8
68,184,74370,2,0,B|56:124|100:80,1,100,0|8
192,88,75187,6,0,B|232:136|304:148|384:128,1,200,4|0
464,180,76411,1,8
416,268,76819,1,0
332,320,77227,2,0,B|264:356|188:308|196:224,1,200,8|8
148,144,78452,6,0,B|204:100|296:144|288:228,1,200,4|0
384,192,79676,2,0,B|412:272|500:288,2,150,8|8|8
360,92,81309,1,8
260,76,81717,6,0,B|212:56|160:76,2,100,4|8|0
212,164,82942,1,8
160,248,83350,2,0,B|144:312|80:316,2,100,0|8|0
64,224,84574,1,8
72,124,84982,6,0,B|56:64|0:40,2,100,0|8|0
156,180,86207,1,8
244,132,86615,2,0,B|288:108|344:136,2,100,0|8|0
232,232,87840,1,8
209,328,88248,6,0,B|133:328|101:228|157:180,1,200,4|0
