osu file format v9

[General]
AudioFilename: owo)b.mp3
AudioLeadIn: 2000
PreviewTime: 54615
Countdown: 0
SampleSet: Normal
StackLeniency: 0.7
Mode: 0
LetterboxInBreaks: 0

[Editor]
DistanceSpacing: 1.1
BeatDivisor: 4
GridSize: 4

[Metadata]
Title:Dive to World (TV Size)
Artist:Cherryblossom
Creator:Yasora
Version:Run!
Source:Katekyo Hitman REBORN!
Tags:opening op3 khr home tutor

[Difficulty]
HPDrainRate:3
CircleSize:3
OverallDifficulty:4
ApproachRate:5
SliderMultiplier:1.2
SliderTickRate:2

[Events]
//Background and Video events
0,0,"chrome-chan~.jpg"
Video,-300,"akakaka.avi"
//Break Periods
//Storyboard Layer 0 (Background)
//Storyboard Layer 1 (Fail)
//Storyboard Layer 2 (Pass)
//Storyboard Layer 3 (Foreground)
//Storyboard Sound Samples
//Background Colour Transformations
3,100,163,162,255

[TimingPoints]
85,408.163265306122,4,2,1,60,1,0
187,-100,4,2,1,80,0,0
4982,-100,4,1,1,80,0,0
11819,-100,4,1,2,80,0,0
12023,-100,4,1,1,80,0,0
13146,-100,4,2,1,80,0,0
36308,-100,4,2,2,80,0,0
36512,-100,4,2,1,80,0,0
54778,-100,4,2,1,40,0,0
55595,-100,4,1,1,80,0,1
68656,-100,4,1,1,70,0,0
78758,-100,4,1,2,70,0,0
78962,-100,4,1,1,70,0,0
88248,-100,4,2,1,30,0,0
89064,-100,4,2,1,5,0,0

[Colours]
Combo1 : 255,150,0
Combo2 : 255,128,128
Combo3 : 45,88,228
Combo4 : 128,128,192
SliderBorder : 255,255,255

[HitObjects]
432,252,84,2,0,B|396:308|320:304,1,120,6|2
220,260,901,2,0,B|184:252|148:280,2,60,0|0|2
268,148,1717,2,0,B|252:76|188:40,1,120,0|2
84,44,2533,2,0,B|48:36|24:56,2,60,0|0|2
76,164,3350,2,0,B|104:296,1,120,0|2
216,316,4166,2,0,B|232:352|288:360,2,60,0|0|2
256,204,4982,5,8
312,184,5187,1,8
332,128,5391,1,8
216,96,5799,1,8
100,128,6207,1,0
88,248,6615,6,0,B|72:292|100:336|156:336,1,120,4|8
256,288,7431,2,0,B|256:212,2,60,0|0|8
368,335,8248,2,0,B|412:336|440:292|424:248,1,120,0|8
376,140,9064,1,0
316,136,9268,1,0
260,112,9472,1,8
144,88,9880,6,0,B|76:80|28:124,1,120,0|8
116,208,10697,2,0,B|84:272|124:328,1,120,0|8
172,352,11309,1,0
232,352,11513,6,0,B|256:368|256:368|268:356|268:356|280:368|280:368|292:356|292:356|304:368|304:368|316:356|316:356|388:356,1,180
444,252,12533,2,0,B|432:172,1,60,0|8
352,104,13146,6,0,B|316:52|228:52,1,120,4|8
232,172,13962,2,0,B|184:204|104:200,1,120,2|8
44,104,14778,1,2
132,24,15187,1,8
240,76,15595,2,0,B|300:88|368:64,1,120,2|8
460,132,16411,5,2
452,192,16615,2,0,B|444:256,1,60,0|8
332,296,17227,1,2
272,288,17431,2,0,B|244:276|204:280,1,60,0|8
120,356,18044,6,0,B|72:308|104:236,1,120,2|8
92,124,18860,1,2
128,76,19064,1,0
180,48,19268,2,0,B|224:40|260:76,1,60,8|0
292,84,19676,6,0,B|340:116|424:120,1,120,2|8
468,220,20493,1,2
396,316,20901,1,8
280,284,21309,2,0,B|220:256|160:280,1,120,2|8
60,340,22125,2,0,B|32:356|0:360,2,60,2|0|8
60,220,22942,6,0,B|16:176|16:108,1,120,2|8
120,52,23758,1,2
220,128,24166,1,8
280,232,24574,2,0,B|316:288|392:284,1,120,2|8
456,184,25391,2,2,B|488:200|504:224,2,60,2|0|2
408,148,26003,1,8
356,124,26207,6,0,B|288:112|244:72,1,120,4|8
132,108,27023,1,2
64,208,27431,1,8
145,296,27840,2,0,B|177:328|216:328|216:328|255:328,1,120,2|8
367,296,28656,2,0,B|335:328|296:328|296:328|257:328,1,120,2|8
208,216,29472,5,2
256,108,29880,2,0,B|316:96|376:136,1,120,8|2
452,44,30697,1,8
370,132,31105,2,0,B|361:201|410:244,1,120,2|8
342,342,31921,1,2
241,277,32329,1,8
124,300,32738,6,0,B|88:272|88:272|72:184,1,120,2|8
120,88,33554,2,0,B|156:116|156:116|172:204,1,120,2|8
276,268,34370,1,2
328,232,34574,1,0
376,196,34778,1,8
480,136,35187,2,0,B|508:196|480:256,1,120,2|8
376,196,36003,6,0,B|340:128|240:96|156:136,1,240,2|2
64,196,37227,1,8
124,300,37636,2,0,B|180:332|244:304,1,120,2|8
340,248,38452,2,0,B|400:228|464:248,1,120,2|8
476,128,39268,6,0,B|428:80|360:80,1,120,4|8
308,80,39880,2,0,B|249:79|201:127,1,120,4|0
152,160,40493,1,8
44,216,40901,6,0,B|64:272|132:288,1,120,6|8
192,292,41513,2,0,B|252:268|316:308,1,120,6|0
364,324,42125,1,8
472,276,42533,6,0,B|489:248|488:204,2,60,4|0|8
368,216,43350,1,2
240,220,43758,1,8
128,264,44166,5,2
88,152,44574,2,0,B|52:160|32:196,2,60,8|0|2
132,40,45391,1,8
228,108,45799,6,0,B|276:144|356:144,1,120,4|8
400,148,46411,2,0,B|424:208|396:272,1,120,4|0
372,320,47023,1,8
252,300,47431,6,0,B|204:256|128:264,1,120,6|8
80,260,48044,2,0,B|16:228|28:152,1,120,6|0
32,100,48656,1,8
132,168,49064,6,0,B|156:40,1,120,2|12
268,84,49880,1,2
356,168,50289,1,12
471,186,50697,2,0,B|463:256|394:278,1,120,2|12
285,306,51513,2,0,B|221:280|148:303,1,120,2|12
256,192,52329,12,0,53758
110,111,54778,6,0,B|71:78|38:76,2,60,2|0|2
161,142,55391,1,0
222,145,55595,6,0,B|276:108|348:132,1,120,4|8
396,148,56207,1,0
404,268,56615,2,0,B|388:304|340:316,1,60,0|8
240,324,57227,2,0,B|168:328|108:288,1,120,0|8
72,268,57840,1,0
92,148,58248,2,0,B|100:108|136:100,1,60,0|8
232,48,58860,6,0,B|272:104|232:164,1,120,0|8
284,264,59676,1,0
392,208,60085,1,8
440,320,60493,2,0,B|472:308|508:324,2,60,0|0|8
380,324,61105,2,0,B|316:336|256:320,1,120,0|0
200,312,61717,1,8
84,288,62125,6,0,B|60:228|88:168,1,120,4|8
112,116,62738,1,0
220,172,63146,2,0,B|256:188|292:168,1,60,0|8
352,80,63758,2,0,B|420:76|472:124,1,120,0|8
472,176,64370,2,0,B|444:308,1,120
400,332,64982,2,0,B|368:356|332:356,1,60,8|0
284,352,65391,5,0
208,256,65799,2,0,B|172:204|96:224,1,120,8|0
48,116,66615,1,8
92,76,66819,2,0,B|124:68|176:80,1,60
212,84,67227,2,0,B|252:140|308:172,1,120,8|0
404,228,68044,1,8
364,272,68248,2,0,B|344:300|308:308,1,60
256,300,68656,6,0,B|204:272|132:280,1,120,4|8
52,204,69472,1,0
104,96,69880,1,8
184,184,70289,1,0
304,184,70697,2,0,B|344:216|312:280|260:264,1,120,8|0
168,328,71513,1,8
80,248,71921,6,0,B|20:204|40:128,1,120,0|8
96,40,72738,2,0,B|112:72|152:92,1,60
188,112,73146,2,0,B|224:116|248:136,1,60,8|4
332,212,73758,6,0,B|356:204|364:160,1,60,0|8
392,112,74166,2,0,B|416:76,2,30,0|0|0
272,80,74778,1,8
156,104,75187,6,0,B|88:116|64:184,1,120,4|8
60,236,75799,2,0,B|72:300|140:324,1,120
196,328,76411,2,0,B|232:316|264:332,1,60,8|0
316,328,76819,5,0
348,212,77227,1,8
308,100,77636,1,0
200,44,78044,1,8
144,68,78248,1,0
104,112,78452,6,0,B|92:200|156:268|256:284,1,240,4|0
360,292,79676,1,8
412,260,79880,1,8
412,140,80289,2,0,B|344:104,1,60,0|8
240,112,80901,2,0,B|176:144,2,60,0|0|8
292,216,81717,6,0,B|292:284|248:336,1,120,4|8
176,240,82533,2,0,B|132:192|64:192,1,120,0|8
100,76,83350,1,0
220,84,83758,2,0,B|280:112|336:72,1,120,8|0
432,144,84574,1,8
432,264,84982,5,0
328,324,85391,2,0,B|272:352|208:324,1,120,8|0
100,280,86207,1,8
52,168,86615,1,0
136,84,87023,2,0,B|200:116|176:200,2,120,8|0|8
252,48,88248,6,0,B|300:12|360:44|360:44|424:80|488:32,1,240,4|0
