osu file format v9

[General]
AudioFilename: owo)b.mp3
AudioLeadIn: 2000
PreviewTime: 54615
Countdown: 0
SampleSet: Soft
StackLeniency: 0.7
Mode: 0
LetterboxInBreaks: 0

[Editor]
DistanceSpacing: 1
BeatDivisor: 4
GridSize: 4

[Metadata]
Title:Dive to World (TV Size)
Artist:Cherryblossom
Creator:Yasora
Version:Jump!
Source:Katekyo Hitman REBORN!
Tags:opening op3 khr home tutor

[Difficulty]
HPDrainRate:5
CircleSize:4
OverallDifficulty:6
ApproachRate:7
SliderMultiplier:1.6
SliderTickRate:2

[Events]
//Background and Video events
0,0,"chrome-chan~.jpg"
Video,-300,"akakaka.avi"
//Break Periods
//Storyboard Layer 0 (Background)
//Storyboard Layer 1 (Fail)
//Storyboard Layer 2 (Pass)
//Storyboard Layer 3 (Foreground)
//Storyboard Sound Samples
//Background Colour Transformations
3,100,163,162,255

[TimingPoints]
85,408.163265306122,4,2,1,60,1,0
187,-100,4,2,1,80,0,0
4982,-100,4,1,1,70,0,0
13146,-100,4,2,1,80,0,0
53962,-100,4,2,1,30,0,0
54370,-100,4,2,1,40,0,0
54778,-100,4,2,1,50,0,0
55595,-100,4,1,1,80,0,1
68656,-100,4,1,1,70,0,0
81717,-100,4,1,1,60,0,0
88249,-100,4,2,1,30,0,0
89064,-100,4,2,1,5,0,0

[Colours]
Combo1 : 255,150,0
Combo2 : 255,128,128
Combo3 : 45,88,228
Combo4 : 128,128,192
SliderBorder : 255,255,255

[HitObjects]
156,280,84,2,0,B|120:312|80:308,2,80,6|0|2
200,212,697,2,0,B|224:164,1,40,0|2
296,180,1003,2,0,B|320:228,1,40,0|2
356,284,1309,2,0,B|384:316|432:312,1,80,2|0
420,228,1717,6,0,B|448:196|448:144,2,80,2|0|2
368,168,2329,2,0,B|376:144|364:116,1,40,0|2
300,56,2636,2,0,B|292:80|304:104,1,40,0|2
228,128,2942,2,0,B|188:152|136:144,1,80,2|0
80,112,3350,6,0,B|56:160|92:200,2,80,2|0|2
120,44,3962,2,0,B|140:32|180:40,1,40,0|2
228,76,4268,2,0,B|260:80|284:64,1,40,0|2
344,92,4574,2,0,B|384:120|388:164,1,80,2|0
368,236,4982,5,8
304,304,5187,1,8
240,236,5391,1,8
172,304,5595,2,0,B|148:368,2,40,0|0|8
152,216,6003,5,0
116,72,6207,1,8
280,104,6615,6,0,B|312:64|388:64|428:104,1,160,4|8
484,152,7227,1,0
484,232,7431,2,0,B|488:276|444:300,1,80
412,320,7738,1,0
372,332,7840,2,0,B|324:336|292:304,1,80,8|0
240,256,8248,6,0,B|192:204,2,40
296,200,8656,2,0,B|296:108,1,80,8|0
300,40,9064,2,0,B|352:48|368:104|368:104|416:140,1,160,0|8
472,208,9676,1,0
456,292,9880,6,0,B|448:320|412:328,3,40
392,332,10289,2,0,B|368:332|344:352,3,40,8|0|0|0
316,348,10697,2,0,B|256:348,3,40
236,348,11105,2,0,B|188:340|168:304,1,80,8|0
132,240,11513,6,0,B|120:204,8,20
208,216,12125,1,0
348,72,12533,1,0
308,156,12738,2,0,B|348:172|392:156,1,80,8|0
452,236,13146,6,0,B|452:288|416:336|336:336,1,160,4|8
288,284,13758,2,0,B|248:268|208:284,1,80,0|2
132,248,14166,2,0,B|96:168,1,80,0|8
104,96,14574,1,0
172,52,14778,6,0,B|236:28|340:48,1,160,2|8
368,116,15391,2,0,B|368:172|424:212|484:200,1,160,2|0
484,280,16003,1,8
408,308,16207,1,0
332,288,16411,6,0,B|280:272|224:296,1,80,2|0
172,288,16819,1,8
96,272,17023,1,0
60,200,17227,2,0,B|52:144|104:96|164:104,1,160,2|8
208,36,17840,6,0,B|256:72|256:144|204:176,1,160,2|0
256,248,18452,2,0,B|288:216|368:216|404:248,1,160,8|2
428,324,19064,1,0
480,264,19268,1,8
456,188,19472,1,0
500,120,19676,6,0,B|448:92|400:128|400:128|344:116,1,160,2|8
272,84,20289,1,0
212,32,20493,1,2
196,108,20697,2,0,B|216:152|192:196,1,80,0|8
152,252,21105,1,0
128,152,21309,6,0,B|200:148|288:180,1,160,2|8
344,240,21921,1,0
412,284,22125,1,2
420,204,22329,2,0,B|444:160|444:112,1,80,0|8
416,52,22738,1,0
336,52,22942,6,0,B|284:68|232:56,1,80,2|0
180,40,23350,1,8
176,120,23554,2,0,B|196:160|252:164,1,80,0|2
312,200,23962,2,0,B|308:248|264:280,1,80,0|8
196,256,24370,6,0,B|180:312|236:364|308:352,1,160,2|0
340,292,24982,1,8
396,352,25187,1,0
396,352,25289,1,0
396,352,25391,1,8
468,308,25595,2,0,B|488:252|480:204,1,80,0|2
460,144,26003,1,8
400,80,26207,6,0,B|352:48|280:80|280:144,1,160,4|8
204,164,26819,1,0
132,124,27023,2,0,B|80:88|8:120|8:192,1,160,2|8
88,188,27636,1,0
136,252,27840,6,0,B|168:280|148:332|148:332|228:332,1,160,2|8
84,300,28452,2,0,B|44:260|72:180|132:184,1,160,2|0
152,108,29064,2,0,B|192:124|208:164,1,80,8|0
252,228,29472,6,0,B|268:280|324:304|396:280,1,160,2|8
388,204,30085,1,0
388,124,30289,2,0,B|432:128|460:168,1,80,2|0
316,144,30697,2,0,B|272:144|248:104,1,80,8|0
188,56,31105,6,0,B|144:20|64:48|60:108,1,160,2|8
48,180,31717,1,0
60,260,31921,1,2
40,340,32125,2,0,B|84:352|120:312,1,80,0|8
156,252,32533,1,0
224,148,32738,6,0,B|202:180|202:180|252:220|232:292,1,160,2|8
300,328,33350,1,0
300,328,33554,1,2
352,264,33758,2,0,B|392:244|432:264,2,80,0|8|0
316,196,34370,6,0,B|356:172|432:172|472:200,1,160,2|8
496,124,34982,1,0
500,44,35187,1,2
416,56,35391,2,0,B|408:100|360:108,1,80,0|8
336,32,35799,1,0
284,108,36003,6,0,B|292:164|232:216|168:192,1,160,2|8
204,124,36615,2,0,B|252:140|276:216|224:264,1,160,2|0
160,292,37227,2,0,B|108:304|80:260,1,80,8|0
68,196,37636,6,0,B|52:132|72:80|72:80|112:64,1,160,2|8
188,36,38248,1,0
252,84,38452,2,0,B|280:132|340:148|400:128,1,160,2|8
460,84,39064,1,0
484,160,39268,6,0,B|504:216|492:280|432:312,1,160,4|8
392,244,39880,2,0,B|320:272|228:240,1,160,4|0
248,160,40493,2,0,B|236:112|188:116,1,80,8|0
120,144,40901,6,0,B|64:172|64:244|112:276,1,160,6|8
220,276,41513,2,0,B|268:248|268:168|220:140,1,160,6|0
180,68,42125,2,0,B|216:40|264:40,1,80,8|0
332,40,42533,6,0,B|388:32|436:96|424:148,1,160,4|8
408,224,43146,1,0
382,243,43248,1,0
368,272,43350,1,2
288,272,43554,2,0,B|272:232|224:224,1,80,0|8
156,256,43962,1,0
84,220,44166,6,0,B|56:180|64:136|92:100|140:96,1,160,2|8
148,176,44778,1,0
148,176,44982,2,0,B|182:196|224:180,1,80,2|0
318,110,45391,2,0,B|280:88|236:108,1,80,8|0
318,110,45799,6,0,B|328:164|384:196|448:184,1,160,4|8
408,108,46411,2,0,B|398:162|342:194|278:182,1,160,4|0
216,224,47023,1,8
136,216,47227,1,0
40,104,47431,6,0,B|76:124|72:172|72:172|100:136|152:140,1,160,6|8
168,64,48044,2,0,B|224:80|224:140|224:140|288:160,1,160,6|0
292,80,48656,2,0,B|336:88|360:128,1,80,8|0
396,192,49064,6,0,B|404:244|376:312|328:336,1,160,2|12
268,292,49676,2,0,B|236:268|192:280,1,80,0|2
40,276,50084,2,0,B|72:300|116:288,1,80,0|12
152,208,50493,1,0
152,208,50697,6,0,B|136:152|176:92|236:88,1,160,2|12
280,28,51309,2,0,B|316:56|304:104,1,80,0|2
412,28,51717,2,0,B|376:56|388:104,1,80,0|12
256,192,52329,12,0,53758
212,176,53962,6,0,B|168:152,3,40,2|0|0|0
136,152,54370,2,0,B|80:160,3,40
56,160,54778,2,0,B|24:184|8:248,2,80,2|0|2
80,84,55391,1,0
80,84,55595,6,0,B|152:72|240:36,1,160,4|8
312,44,56207,2,0,B|368:60|380:140|328:184,1,160
288,240,56819,1,8
320,312,57023,1,0
364,244,57227,6,0,B|412:268|400:328|400:328|472:304,1,160,0|8
468,228,57840,2,0,B|444:176|384:148|336:160,1,160
256,156,58452,2,0,B|216:176|172:144,1,80,8|0
228,84,58860,6,0,B|280:56|344:104|336:164,1,160,0|8
256,156,59472,2,0,B|256:208|256:208|228:260|264:312,1,160
328,256,60084,1,8
172,260,60289,1,0
172,180,60493,6,0,B|176:120|132:72|68:76,1,160,0|8
88,156,61105,2,0,B|220:44,1,160
288,44,61717,1,8
304,44,61819,1,0
320,44,61921,1,0
336,44,62023,1,0
348,44,62125,6,0,B|408:40|456:104|436:156,1,160,4|8
360,124,62738,2,0,B|324:168|260:168|216:124,1,160
152,80,63350,2,0,B|128:116|148:160,1,80,8|0
84,40,63758,6,0,B|40:116|84:204,1,160,0|8
52,268,64370,2,0,B|112:208|208:232,1,160
272,268,64982,1,8
348,244,65187,1,0
508,224,65595,6,0,B|528:264|508:304,1,80,0|8
436,260,66003,1,0
436,100,66411,2,0,B|436:188,1,80,0|8
436,260,66819,1,0
348,244,67023,6,0,B|288:184|200:188,1,160,0|8
136,144,67636,2,0,B|100:124|80:80,1,80
160,64,68044,2,0,B|180:24|228:16,1,80,0|8
292,52,68452,1,0
364,20,68656,6,0,B|404:44|432:108|420:176,1,160,4|8
384,232,69268,1,0
316,192,69472,2,0,B|296:148|236:136,1,80
236,220,69880,2,0,B|208:248|164:248,1,80,8|0
172,160,70289,6,0,B|112:184|60:108|104:60,1,160,0|8
164,20,70901,2,0,B|224:-4|276:72|232:120,1,160,0|0
308,152,71513,1,8
384,180,71717,1,0
424,248,71921,6,0,B|424:304|424:304|368:308|344:376,2,160,0|8|0
384,180,72942,1,0
392,100,73146,2,0,B|436:96|460:136,1,80,8|4
256,40,73758,5,0
204,100,73962,2,0,B|164:120|120:104,1,80,8|0
127,106,74268,1,0
127,106,74370,1,0
72,164,74574,2,0,B|100:268,1,80,0|8
116,320,74982,1,0
188,284,75187,6,0,B|224:264|300:264|360:292,1,160,4|8
412,240,75799,2,0,B|448:200|448:124|404:88,1,160
348,40,76411,2,0,B|312:64|256:52,1,80,8|0
196,28,76819,6,0,B|188:72|212:112|212:112|180:136|176:184,1,160,0|8
256,180,77431,2,0,B|252:232|188:252|188:252|176:324,1,160
100,308,78044,1,8
48,248,78248,1,0
88,180,78452,6,0,B|120:136|60:72|100:24,1,160,4|8
164,72,79064,2,0,B|208:100|272:88|272:88|316:124,1,160
324,196,79676,1,8
248,168,79880,1,8
108,244,80289,6,0,B|112:292|164:308,1,80,0|8
104,152,80901,2,0,B|104:88|152:40|216:40,1,160,0|8
276,64,81513,1,0
356,48,81717,6,0,B|396:64|436:48,1,80,4|0
434,49,82023,1,0
434,49,82125,1,8
472,200,82533,2,0,B|500:288,2,80,0|0|8
428,132,83146,1,0
388,200,83350,6,0,B|364:288,1,80
367,277,83656,1,0
367,277,83758,1,8
320,124,84166,2,0,B|280:108|240:124,2,80,0|0|8
376,72,84778,1,0
428,128,84982,6,0,B|468:112|512:128,1,80
506,126,85289,1,0
506,126,85391,1,8
468,280,85799,2,0,B|468:328|508:356,2,80,0|0|8
464,200,86411,1,0
400,248,86615,6,0,B|368:284|312:276,1,80
329,277,86921,1,0
329,277,87023,1,8
220,160,87431,2,0,B|188:120|140:120,2,80,0|0|8
260,228,88044,1,0
328,276,88248,6,0,B|340:330|417:341|470:304|475:237|450:186|385:168|336:204,1,320,4|0
