osu file format v9

[General]
AudioFilename: owo)b.mp3
AudioLeadIn: 2000
PreviewTime: 54615
Countdown: 0
SampleSet: Soft
StackLeniency: 0.7
Mode: 0
LetterboxInBreaks: 0

[Editor]
DistanceSpacing: 1.1
BeatDivisor: 4
GridSize: 4

[Metadata]
Title:Dive to World (TV Size)
Artist:Cherryblossom
Creator:Yasora
Version:Burn!
Source:Katekyo Hitman REBORN!
Tags:opening op3 khr home tutor

[Difficulty]
HPDrainRate:6
CircleSize:4
OverallDifficulty:7
ApproachRate:8
SliderMultiplier:1.8
SliderTickRate:2

[Events]
//Background and Video events
0,0,"chrome-chan~.jpg"
Video,-300,"akakaka.avi"
//Break Periods
//Storyboard Layer 0 (Background)
//Storyboard Layer 1 (Fail)
//Storyboard Layer 2 (Pass)
//Storyboard Layer 3 (Foreground)
//Storyboard Sound Samples
//Background Colour Transformations
3,100,163,162,255

[TimingPoints]
85,408.163265306122,4,2,1,60,1,0
187,-100,4,2,1,80,0,0
4982,-100,4,1,1,70,0,0
13146,-100,4,2,1,80,0,0
53962,-100,4,2,1,50,0,0
53962,-100,4,2,1,40,0,0
54370,-100,4,2,1,60,0,0
54778,-100,4,2,1,70,0,0
55595,-100,4,1,1,80,0,1
68656,-100,4,1,1,70,0,0
81717,-100,4,1,1,60,0,0
88248,-100,4,2,1,5,0,0

[Colours]
Combo1 : 255,150,0
Combo2 : 255,128,128
Combo3 : 45,88,228
Combo4 : 128,128,192
SliderBorder : 255,255,255

[HitObjects]
196,92,85,1,6
256,192,289,1,0
316,88,493,1,2
256,192,697,2,0,B|296:232,1,45,0|2
244,328,1003,2,0,B|200:280,1,45
64,278,1309,1,2
56,136,1513,1,0
56,136,1717,6,0,B|24:104|28:52,2,90,2|0|2
148,72,2329,1,0
180,104,2397,1,2
176,232,2636,1,0
148,268,2738,1,2
116,168,2942,1,2
232,172,3146,1,0
308,172,3350,6,0,B|352:164|400:172,2,90,2|0|2
296,256,3962,2,0,B|252:288,1,45,0|2
296,92,4268,2,0,B|252:52,1,45,2|0
176,96,4574,1,2
92,152,4778,1,0
92,256,4982,5,8
172,332,5187,1,8
256,252,5391,1,0
296,228,5493,1,0
344,220,5595,1,0
388,232,5697,1,0
429,253,5799,1,8
340,316,6003,5,0
340,120,6207,1,8
340,120,6615,6,0,B|304:72|232:64|176:100,1,180,4|8
96,140,7227,1,0
44,212,7431,2,0,B|48:264|96:288,1,90,0|0
128,260,7738,1,0
168,236,7840,2,0,B|208:212|268:220,1,90,8|0
288,132,8248,6,0,B|340:140|360:192,1,90
380,224,8554,1,0
424,228,8656,2,0,B|476:220|496:160,1,90,8|0
480,84,9064,2,0,B|460:32|408:24,1,90,0|0
372,24,9370,1,0
328,28,9472,2,0,B|286:38|262:86,1,90,8|0
96,84,9880,6,0,B|84:56|56:48,2,45,0|0|0
88,268,10289,2,0,B|76:292|52:304,2,45,8|0|0
188,180,10697,2,0,B|212:168|240:184,2,45,0|0|0
204,352,11105,2,0,B|224:300|204:248,1,90,8|0
308,256,11513,6,0,B|316:276,8,22.5
428,64,12125,2,0,B|408:116|432:156,1,90
388,224,12533,1,0
428,64,12738,2,0,B|384:88|336:64,1,90,8|0
293,213,13146,6,0,B|357:193|381:121|337:61,1,180,4|8
260,124,13758,1,0
220,32,13962,2,0,B|176:16|128:32,1,90,2|0
28,76,14370,1,8
36,192,14574,1,0
32,324,14778,6,0,B|100:324|136:256|104:188,1,180,2|8
36,192,15391,2,0,B|6:254|42:322|110:322,1,180,2|0
200,308,16003,1,8
256,236,16207,1,0
284,140,16411,5,2
288,40,16615,1,0
364,108,16819,2,0,B|388:152|360:200,1,90,8|0
460,216,17227,2,0,B|440:268|468:312,1,90,2|0
368,272,17636,2,0,B|324:296|280:272,1,90,8|0
212,204,18044,6,0,B|176:240|192:292|192:292|104:304,1,180,2|8
8,292,18656,1,0
52,204,18860,2,0,B|76:168|80:116,1,90,2|0
116,28,19268,1,8
200,76,19472,1,0
252,160,19676,6,0,B|264:220|348:252|408:220,1,180,2|8
496,216,20289,1,0
464,124,20493,2,0,B|456:72|408:52,1,90,2|0
372,136,20901,2,0,B|392:184|364:236,1,90,8|0
328,352,21309,6,0,B|328:300|328:300|268:252|296:180,1,180,2|8
264,92,21921,1,0
168,124,22125,2,0,B|120:128|72:80,1,90,2|0
16,168,22533,1,8
40,264,22738,1,2
40,264,22840,1,2
40,264,22942,6,0,B|76:308|132:288,1,90,2|0
164,204,23350,1,8
252,236,23554,2,0,B|300:256|296:316,1,90,0|2
356,228,23962,2,0,B|436:184,1,90,0|8
484,100,24370,1,0
404,44,24574,6,0,B|308:44|308:44|304:88|252:116,1,180,2|8
164,112,25187,1,0
140,140,25289,1,0
136,176,25391,1,2
40,212,25595,2,0,B|44:268|100:288,1,90,0|2
160,352,26003,1,10
256,240,26207,6,0,B|316:240|316:240|332:312|416:308,1,180,4|8
396,224,26819,2,0,B|440:192|440:132,1,90,0|2
384,72,27227,1,0
304,84,27431,2,0,B|312:140|372:156,1,90,8|0
224,84,27840,6,0,B|212:152|144:180|80:156,1,180,2|8
136,84,28452,2,0,B|180:168|156:268,1,180,2|0
96,324,29064,1,8
216,324,29268,1,0
256,336,29370,1,0
296,320,29472,6,0,B|360:296|432:320|432:320|476:288,1,180,2|8
452,208,30084,1,0
444,120,30289,2,0,B|392:128|372:184,1,90,2|0
284,140,30697,1,8
228,228,30901,1,0
228,228,31105,6,0,B|192:192|132:188|92:220|80:264,1,180,2|8
160,284,31717,1,0
160,284,31921,2,0,B|132:240|152:192,1,90,2|0
288,180,32329,2,0,B|320:220|296:268,1,90,10|0
288,180,32738,6,0,B|300:120|376:88|448:120,1,180,2|8
496,192,33350,1,0
484,292,33554,2,0,B|460:332|408:344,1,90,2|0
316,332,33962,2,0,B|268:320|228:340,1,90,8|0
44,192,34370,6,0,B|40:244|80:272,1,90,2|0
168,272,34778,2,0,B|204:240|196:188,1,90,8|0
216,92,35187,2,0,B|172:80|132:32,1,90,2|0
24,32,35595,1,8
52,144,35799,1,2
25,302,36003,6,0,B|32:232|32:232|92:248|128:192,1,180,2|8
52,144,36615,2,0,B|124:188|232:176,1,180,2|0
304,120,37227,1,8
400,148,37431,1,0
404,244,37636,6,0,B|360:252|328:292|328:292|296:248|244:248,1,180,2|8
104,352,38248,1,0
176,296,38452,2,0,B|152:244|176:196,1,90,2|0
216,120,38860,2,0,B|260:144|304:120,1,90,10|0
396,32,39268,6,0,B|460:24|504:108|464:164,1,180,4|8
384,116,39880,2,0,B|332:112|312:48|312:48|244:92,1,180,4|0
164,64,40493,2,0,B|144:112|180:148,1,90,8|0
100,32,40901,6,0,B|68:84|80:164|128:204,1,180,6|8
120,288,41513,2,0,B|184:292|212:236|212:236|276:288,1,180,6|0
264,180,42125,2,0,B|340:236,1,90,8|0
428,276,42533,6,0,B|480:308|480:308|520:256|508:188,1,180,4|8
448,116,43146,1,0
448,116,43248,1,0
448,116,43350,2,0,B|416:68|352:72,1,90,2|0
324,72,43656,1,0
320,120,43758,2,0,B|320:168|280:208,1,90,8|0
196,236,44166,6,0,B|220:284|272:296,1,90,2|0
360,304,44574,1,8
376,264,44676,1,0
396,220,44778,1,0
502,192,44982,2,0,B|480:280,1,90,2|0
396,44,45391,2,0,B|404:96|460:112,1,90,10|0
451,109,45697,1,0
451,109,45799,6,0,B|432:168|348:184|288:148,1,180,4|8
220,68,46411,2,0,B|176:100|168:192|228:232,1,180,4|0
164,296,47023,1,8
88,244,47227,1,0
56,160,47431,6,0,B|76:136|76:96|76:96|200:60,1,180,6|8
268,28,48044,2,0,B|292:80|252:120|252:120|224:220,1,180,6|0
152,192,48656,2,0,B|152:252|200:272,1,90,8|0
272,304,49064,6,0,B|324:336|404:316|436:256,1,180,2|12
468,164,49676,1,0
288,24,49880,2,0,B|280:72|332:100,1,90,2|0
396,136,50289,2,0,B|368:176|316:172,1,90,12|0
256,304,50697,6,0,B|256:200,1,90,2|0
116,136,51105,2,0,B|144:176|196:172,1,90,12|0
256,36,51513,2,0,B|256:144,1,90,2|0
256,304,51921,2,0,B|160:304,1,90,12|0
108,232,52329,5,10
108,188,52431,1,0
120,144,52533,1,0
144,108,52636,1,0
180,84,52738,1,0
224,76,52840,1,0
268,80,52942,2,0,B|320:80|352:112,1,90,0|2
388,136,53248,1,0
412,172,53350,2,0,B|432:192|428:224,3,45,8|0|8|0
428,256,53758,1,2
368,336,53962,5,2
324,340,54064,1,0
280,340,54166,1,0
236,328,54268,1,0
204,296,54370,1,2
188,252,54472,1,0
192,208,54574,1,0
208,164,54676,1,0
236,128,54778,2,0,B|259:78|327:74,2,90,2|0|0
316,168,55391,1,0
426,288,55595,6,0,B|394:336|318:356|254:316,1,180,4|8
315,168,56207,2,0,B|343:224|319:304|261:323,1,180
231,231,56819,1,8
160,100,57023,1,0
153,188,57227,6,0,B|127:231|151:273,1,90
306,273,57636,2,0,B|330:231|304:188,1,90,8|0
240,32,58044,2,0,B|218:66|257:92|231:128,1,90
68,186,58452,1,8
85,97,58656,1,0
20,260,58860,6,0,B|60:292|108:264|108:264|184:312,1,180,0|8
148,152,59472,1,0
228,208,59676,2,0,B|276:200|300:156,1,90
332,32,60085,2,0,B|380:44|400:88,1,90,8|0
468,168,60493,6,0,B|488:228|440:292|360:288,1,180,0|8
225,336,61105,2,0,B|241:275|317:248|375:291,1,180
364,180,61717,1,8
324,164,61819,1,0
304,132,61921,1,0
300,96,62023,1,0
312,56,62125,6,0,B|356:0|456:40|432:128,1,180,4|8
312,56,62738,2,0,B|268:0|168:40|192:128,1,180
72,172,63350,1,8
105,249,63554,1,0
36,99,63758,6,0,B|108:75|148:139|148:139|192:107,1,180,0|8
222,32,64370,2,0,B|284:54|267:127|267:127|302:141|314:191,1,180
165,247,64982,2,0,B|245:185,1,90,8|0
344,96,65391,6,0,B|384:121|399:175|385:228|324:250,1,180,0|8
282,172,66003,2,0,B|371:150|467:189,1,180
471,274,66615,1,8
468,96,66819,1,0
386,58,67023,6,0,B|345:83|289:56,1,90
237,126,67431,2,0,B|244:177|210:208,1,90,8|0
149,141,67840,1,0
180,57,68044,1,0
237,125,68248,1,8
64,161,68452,1,0
122,12,68656,1,4
313,127,69064,6,0,B|352:100|402:127|402:127|424:168|404:224,1,180,8|0
320,212,69676,1,0
233,256,69880,2,0,B|201:306|139:312,1,90,8|0
148,213,70289,6,0,B|176:174|220:162,1,90
148,36,70697,2,0,B|172:76|224:88,1,90,8|0
298,128,71105,1,0
360,64,71309,2,0,B|400:48|448:64,1,90,0|8
404,144,71717,1,0
212,172,71921,6,0,B|167:172|167:172|148:216|96:220|96:220|96:272,1,180,0|8
92,140,72533,1,0
80,100,72636,1,0
88,60,72738,1,0
248,96,72942,2,0,B|156:96,1,90,0|8
48,204,73350,1,4
48,204,73758,5,0
100,324,73962,1,8
152,232,74166,1,0
192,216,74268,1,0
228,232,74370,1,0
304,192,74574,2,0,B|324:240|296:288,1,90,0|8
376,328,74982,1,0
448,192,75187,6,0,B|452:128|400:68|328:68,1,180,4|8
164,192,75799,2,0,B|160:128|212:68|284:68,1,180
308,152,76411,2,0,B|308:256,1,90,8|0
236,294,76819,6,0,B|258:358|354:358|378:298,1,180,0|8
264,224,77431,2,0,B|288:204|324:204|356:228,1,90
428,180,77840,1,0
496,120,78044,2,0,B|460:84|408:92,1,90,8|0
212,96,78452,6,0,B|188:128|188:128|136:100|88:168|136:208,1,180,4|8
188,304,79064,2,0,B|128:320|66:282|48:219,1,180
44,128,79676,1,8
56,84,79778,1,0
92,60,79880,1,0
340,48,80085,5,0
236,88,80289,2,8,B|248:136|316:156,1,90,8|12
456,320,80901,2,0,B|412:340|360:320,1,90
328,308,81207,1,0
324,264,81309,2,0,B|306:221|320:176,1,90,8|0
256,52,81717,6,0,B|212:36|164:52,1,90,4|0
124,60,82023,1,0
80,72,82125,1,8
24,216,82329,2,0,B|48:256|104:256,1,90
200,252,82738,1,0
276,160,82942,2,0,B|230:139|184:164,1,90,8|0
328,28,83350,6,0,B|364:68|332:132,1,90
340,112,83656,1,0
340,112,83758,1,8
472,128,83962,2,0,B|452:168|404:188,1,90
372,212,84268,1,0
332,230,84370,1,0
239,242,84574,2,0,B|239:294|284:314,1,90,8|0
240,120,84982,6,0,B|208:76|152:76,1,90
120,72,85289,1,0
80,72,85391,1,8
60,284,85595,2,0,B|108:276|128:228,1,90
148,192,85901,1,0
168,152,86003,1,0
256,284,86207,2,0,B|256:188,1,90,8|0
340,60,86615,6,0,B|340:176,1,90
340,196,86921,1,0
340,240,87023,1,8
472,340,87227,2,0,B|440:308|384:316,1,90,0|8
336,316,87533,1,0
292,332,87636,1,0
120,352,87840,2,0,B|160:376|208:356,1,90,8|0
256,192,88248,12,0,89064
