osu file format v14

[General]
AudioFilename: Cherry Cherry Boom Boom - Come Back From San Francisco (Rameses B Instrumental Remix).mp3
AudioLeadIn: 0
PreviewTime: 58285
Countdown: 0
SampleSet: Soft
StackLeniency: 0.7
Mode: 0
LetterboxInBreaks: 1
WidescreenStoryboard: 0

[Editor]
Bookmarks: 14356
DistanceSpacing: 1.5
BeatDivisor: 16
GridSize: 4
TimelineZoom: 3.699998

[Metadata]
Title:Come Back From San Fran(RB edit)
TitleUnicode:Come Back From San Fran(RB edit)
Artist:Cherry Cherry Boom Boom
ArtistUnicode:Cherry Cherry Boom Boom
Creator:gorgonzoler
Version:Hard
Source:
Tags:
BeatmapID:622945
BeatmapSetID:267953

[Difficulty]
HPDrainRate:6
CircleSize:3.5
OverallDifficulty:6
ApproachRate:8
SliderMultiplier:1.6
SliderTickRate:1

[Events]
//Background and Video events
0,0,"48b18b7cd85a0e1f93b4e.jpg",0,0
//Break Periods
2,32771,35249
2,140770,163821
//Storyboard Layer 0 (Background)
//Storyboard Layer 1 (Fail)
//Storyboard Layer 2 (Pass)
//Storyboard Layer 3 (Foreground)
//Storyboard Sound Samples

[TimingPoints]
-0.319772013241693,428.571428571429,4,2,0,70,1,0
1713,-133.333333333333,4,2,0,70,0,0
42856,-100,4,2,0,70,0,0

[HitObjects]
256,192,0,12,0,1713,0:0:0:0:
128,296,3428,5,0,0:0:0:0:
382,41,4285,1,0,0:0:0:0:
254,165,5142,5,0,0:0:0:0:
280,244,6856,2,0,P|304:216|396:208,1,120.000004577637,0|0,0:0|0:0,0:0:0:0:
284,140,7713,2,0,P|252:112|172:84,1,120.000004577637
184,164,8571,6,0,P|144:164|116:200,1,60.0000022888184
116,220,8999,1,0,0:0:0:0:
128,272,9213,2,0,P|151:283|188:272,1,60.0000022888184,0|0,0:0|0:0,0:0:0:0:
264,240,9642,1,0,0:0:0:0:
332,180,9856,2,0,P|376:220|444:216,1,120.000004577637
340,68,11142,1,0,0:0:0:0:
344,280,11785,6,0,L|400:316,1,60.0000022888184
240,216,12428,2,0,L|184:180,1,60.0000022888184
388,200,13071,2,0,L|448:156,1,60.0000022888184
276,152,13713,2,0,L|216:104,1,60.0000022888184
392,96,14356,2,0,L|456:56,1,60.0000022888184
280,56,14999,2,0,L|240:48,3,30.0000011444092,0|0|0|0,0:0|0:0|0:0|0:0,0:0:0:0:
256,192,15428,12,0,17142,0:0:0:0:
256,192,17999,5,0,0:0:0:0:
100,192,18428,2,0,L|100:224,3,30.0000011444092,0|0|0|0,0:0|0:0|0:0|0:0,0:0:0:0:
256,192,18856,12,0,20571,0:0:0:0:
256,192,21428,6,0,P|316:160|316:120,1,90.0000034332277,0|0,0:0|0:0,0:0:0:0:
316,104,21856,2,0,L|292:76,3,30.0000011444092,0|0|0|0,0:0|0:0|0:0|0:0,0:0:0:0:
256,192,22285,12,0,23999,0:0:0:0:
256,192,24856,5,0,0:0:0:0:
208,272,25713,2,0,B|184:220|116:292|12:164|136:0|256:132|256:132|376:-4|484:204|400:264|244:224|264:384,1,840.000032043458
256,196,29142,5,0,0:0:0:0:
68,184,30428,6,0,P|68:132|128:72,1,120.000004577637
108,80,31285,1,0,0:0:0:0:
160,152,31499,2,0,P|164:196|124:260,1,120.000004577637
160,152,32142,2,0,P|180:108|212:88,1,60.0000022888184
256,192,32571,1,0,0:0:0:0:
129,172,35999,5,0,0:0:0:0:
104,208,37285,6,0,P|128:156|196:112,2,120.000004577637,0|0|0,0:0|0:0|0:0,0:0:0:0:
184,212,38356,2,0,P|240:204|292:236,1,120.000004577637,0|0,0:0|0:0,0:0:0:0:
220,292,38999,2,0,P|256:300|288:328,2,60.0000022888184,0|0|0,0:0|0:0|0:0,0:0:0:0:
140,248,39642,1,0,0:0:0:0:
256,192,41142,12,0,42856,0:0:0:0:
144,120,43285,5,0,0:0:0:0:
256,232,43713,1,0,0:0:0:0:
352,104,44142,2,0,P|395:39|471:18,1,160
432,172,44999,1,0,0:0:0:0:
412,248,45213,2,0,P|348:268|304:252,1,80
244,264,45642,1,0,0:0:0:0:
244,264,45856,2,0,P|204:264|168:282,1,80,0|0,0:0|0:0,0:0:0:0:
96,316,46285,6,0,P|48:288|24:296,1,80
116,236,46713,2,0,P|88:187|63:182,1,80
172,168,47142,2,0,P|172:112|153:95,1,80
252,140,47571,2,0,P|280:92|271:67,1,80
259,244,47999,6,0,P|233:274|236:312,1,80
339,216,48428,2,0,P|331:254|353:286,1,80
396,147,48856,2,0,P|407:184|442:201,1,80
416,68,49285,2,0,P|445:94|483:91,1,80
312,328,49713,6,0,P|268:292|264:256,3,80,0|0|0|0,0:0|0:0|0:0|0:0,0:0:0:0:
344,256,50571,2,0,P|308:208|260:196,3,80,0|0|0|0,0:0|0:0|0:0|0:0,0:0:0:0:
188,204,51428,6,0,P|154:225|135:259,3,80,0|0|0|0,0:0|0:0|0:0|0:0,0:0:0:0:
167,331,52286,2,0,P|200:311|216:275,3,80,0|0|0|0,0:0|0:0|0:0|0:0,0:0:0:0:
256,192,53142,12,0,54856,0:0:0:0:
124,192,56571,5,0,0:0:0:0:
332,192,56999,1,0,0:0:0:0:
124,192,57428,2,0,L|36:192,1,80
124,128,57856,2,0,P|72:112|60:96,2,40,0|0|0,0:0|0:0|0:0,0:0:0:0:
200,200,58285,6,0,B|304:96|372:248|424:176|360:4|264:72,2,320,0|0|0,0:0|0:0|0:0,0:0:0:0:
136,236,60428,5,0,0:0:0:0:
343,236,60856,1,0,0:0:0:0:
232,200,61713,2,0,P|272:212|208:116,2,320,0|0|0,0:0|0:0|0:0,0:0:0:0:
168,160,64285,1,0,0:0:0:0:
116,356,65142,6,0,P|96:308|136:24,2,320,0|0|0,0:0|0:0|0:0,0:0:0:0:
176,156,67285,2,0,P|184:208|272:296,1,160,0|0,0:0|0:0,0:0:0:0:
284,188,67928,1,0,0:0:0:0:
424,160,68571,6,0,L|384:64,1,80
319,159,68999,2,0,L|279:255,1,80
214,159,69428,2,0,L|174:63,1,80
109,158,69856,2,0,L|69:254,1,80
182,231,70285,2,0,P|208:288|392:344,1,240,0|0,0:0|0:0,0:0:0:0:
324,280,71142,2,0,P|397:251|444:187,1,160,0|0,0:0|0:0,0:0:0:0:
444,188,71999,6,0,B|392:184|408:260|208:212|228:20|464:48|368:160,2,320,0|0|0,0:0|0:0|0:0,0:0:0:0:
444,188,74142,5,0,0:0:0:0:
380,268,74571,2,0,P|316:248|272:220,1,120,0|0,0:0|0:0,0:0:0:0:
248,172,74999,2,0,L|248:112,3,40,0|0|0|0,0:0|0:0|0:0|0:0,0:0:0:0:
248,80,75428,6,0,B|184:72|112:80|40:196|60:256|172:172,2,320
164,272,77571,1,0,0:0:0:0:
392,272,77999,2,0,P|328:252|280:144,1,160,0|0,0:0|0:0,0:0:0:0:
60,144,78856,6,0,B|116:188|232:164|252:176|256:296|120:316|120:228,2,320,0|0|0,0:0|0:0|0:0,0:0:0:0:
284,112,80999,1,0,0:0:0:0:
476,192,81428,2,0,L|476:304,1,80
168,308,82285,6,0,L|92:268,1,80
196,240,82713,2,0,L|240:152,1,80
132,196,83142,2,0,L|56:156,1,80
160,128,83570,2,0,L|204:40,1,80
264,80,83999,2,0,L|428:156,1,160,0|0,0:0|0:0,0:0:0:0:
335,221,84642,1,0,0:0:0:0:
244,168,84856,1,0,0:0:0:0:
140,152,85071,2,0,L|140:196,8,26.6666666666667
148,148,85713,6,0,P|196:103|262:168,1,160,0|0,0:0|0:0,0:0:0:0:
148,148,86571,6,0,P|184:84|384:148,1,320,0|0,0:0|0:0,0:0:0:0:
381,138,87856,1,0,0:0:0:0:
184,204,88285,1,0,0:0:0:0:
172,264,89142,6,0,P|224:288|280:212,1,160
72,216,89999,2,0,P|144:168|252:148,1,160
416,196,90856,2,0,P|400:160|204:220,1,280,0|0,0:0|0:0,0:0:0:0:
196,240,91713,2,0,L|184:288,7,40,0|0|0|0|0|0|0|0,0:0|0:0|0:0|0:0|0:0|0:0|0:0|0:0,0:0:0:0:
186,278,92571,6,0,P|120:256|204:96,2,320
256,192,94713,1,0,0:0:0:0:
308,95,95142,2,0,P|352:104|360:136,1,80,0|0,0:0|0:0,0:0:0:0:
220,320,95999,6,0,L|156:292,2,53.3333333333333,0|0|0,0:0|0:0|0:0,0:0:0:0:
280,284,96428,2,0,L|340:252,2,53.3333333333333,0|0|0,0:0|0:0|0:0,0:0:0:0:
220,248,96856,2,0,L|160:216,2,53.3333333333333,0|0|0,0:0|0:0|0:0,0:0:0:0:
280,212,97285,2,0,L|340:184,2,53.3333333333333,0|0|0,0:0|0:0|0:0,0:0:0:0:
220,180,97713,2,0,L|80:96,1,160,0|0,0:0|0:0,0:0:0:0:
96,200,98356,1,0,0:0:0:0:
152,112,98571,2,0,B|224:72|272:68|272:68|280:104,1,160,0|0,0:0|0:0,0:0:0:0:
384,140,99428,6,0,B|344:224|244:276|76:280|156:192,2,320,0|0|0,0:0|0:0|0:0,0:0:0:0:
176,144,101571,1,0,0:0:0:0:
360,244,101999,2,0,P|344:196|268:168,1,120,0|0,0:0|0:0,0:0:0:0:
244,196,102428,2,0,L|216:240,3,40,0|0|0|0,0:0|0:0|0:0|0:0,0:0:0:0:
180,260,102856,2,0,P|117:244|96:144,2,160,0|0|0,0:0|0:0|0:0,0:0:0:0:
184,155,103928,2,0,P|256:183|281:257,1,160
379,301,104571,6,0,B|307:340|288:352|281:257,1,160
168,244,105428,2,0,B|128:280|96:292|0:240|176:104,1,280,0|0,0:0|0:0,0:0:0:0:
220,92,106285,6,0,P|292:100|376:180,2,160,0|0|0,0:0|0:0|0:0,0:0:0:0:
268,184,107356,2,0,P|313:240|316:356,1,160,0|0,0:0|0:0,0:0:0:0:
228,288,107999,2,0,P|328:244|396:260,2,160,0|0|0,0:0|0:0|0:0,0:0:0:0:
184,192,109071,2,0,P|105:194|36:155,1,160,0|0,0:0|0:0,0:0:0:0:
128,104,109713,5,0,0:0:0:0:
275,251,110142,1,0,0:0:0:0:
422,103,110571,1,0,0:0:0:0:
214,103,110999,1,0,0:0:0:0:
361,250,111428,2,0,P|304:300|240:136,1,320,0|0,0:0|0:0,0:0:0:0:
280,216,112499,2,0,L|316:192,8,26.6666666666667
256,232,113142,5,0,0:0:0:0:
48,224,113571,2,0,P|120:244|208:176,1,160,0|0,0:0|0:0,0:0:0:0:
272,136,114213,2,0,P|339:97|415:117,1,160,0|0,0:0|0:0,0:0:0:0:
356,204,114856,2,0,P|431:224|470:292,2,160,0|0|0,0:0|0:0|0:0,0:0:0:0:
176,212,116571,6,0,P|132:156|184:72,1,160
347,81,117428,2,0,P|380:150|336:212,1,160
184,304,118285,2,0,B|256:256|256:256|280:284|348:308,1,160
132,200,119142,2,0,P|80:224|68:300,2,120,0|0|0,0:0|0:0|0:0,0:0:0:0:
204,124,119999,6,0,P|216:76|332:36,1,160,0|0,0:0|0:0,0:0:0:0:
308,260,120856,2,0,P|296:308|180:348,1,160,0|0,0:0|0:0,0:0:0:0:
204,92,121713,2,0,L|376:92,1,160
312,244,122571,2,0,L|212:244,1,80
112,272,123428,5,0,0:0:0:0:
172,72,123856,1,0,0:0:0:0:
224,272,124285,2,0,L|252:176,1,80
272,68,124713,1,0,0:0:0:0:
328,268,125142,1,0,0:0:0:0:
352,60,125571,2,0,L|388:140,1,80
424,228,125999,2,0,L|488:360,2,120,0|0|0,0:0|0:0|0:0,0:0:0:0:
320,228,126856,6,0,P|328:184|112:88,2,320,0|0|0,0:0|0:0|0:0,0:0:0:0:
112,248,128999,1,0,0:0:0:0:
248,92,129428,2,0,B|216:156|300:208|252:272,1,160,0|0,0:0|0:0,0:0:0:0:
164,216,130285,6,0,P|144:152|184:68,1,160
348,168,131142,2,0,P|368:232|328:316,1,160
256,124,131999,1,0,0:0:0:0:
136,308,132856,1,0,0:0:0:0:
180,212,133713,6,0,P|224:200|368:232,2,160,0|0|0,0:0|0:0|0:0,0:0:0:0:
360,308,134999,2,0,P|416:272|424:168,2,160,0|0|0,0:0|0:0|0:0,0:0:0:0:
156,260,136285,2,0,P|184:308|232:312,1,80
336,32,137142,6,0,L|404:92,1,80
322,158,137571,2,0,L|253:98,1,80
188,178,137999,2,0,L|256:238,1,80
172,304,138428,2,0,L|103:244,1,80
88,152,138856,2,0,L|296:336,1,240
320,228,139713,2,0,L|320:264,16,20,0|0|0|0|0|0|0|0|0|0|0|0|0|0|0|0|0,0:0|0:0|0:0|0:0|0:0|0:0|0:0|0:0|0:0|0:0|0:0|0:0|0:0|0:0|0:0|0:0|0:0,0:0:0:0:
256,192,164571,12,0,167999,0:0:0:0:
216,120,168428,5,0,0:0:0:0:
360,312,168856,1,0,0:0:0:0:
136,224,169285,1,0,0:0:0:0:
376,216,169713,1,0,0:0:0:0:
152,296,170142,1,0,0:0:0:0:
344,152,170571,1,0,0:0:0:0:
252,372,170999,1,0,0:0:0:0:
252,132,171428,1,0,0:0:0:0:
160,56,171642,6,0,L|76:100,1,80
208,92,172071,2,0,L|308:112,1,80
168,136,172499,2,0,L|84:180,1,80
216,172,172928,2,0,L|316:192,1,80
176,216,173356,2,0,L|92:260,1,80
224,252,173785,2,0,L|324:272,1,80
188,304,174213,2,0,L|104:348,1,80
236,340,174642,2,0,L|336:360,1,80,0|4,0:0|0:0,0:0:0:0:
256,192,175071,5,0,0:0:0:0:
144,152,175285,2,0,P|140:192|164:248,1,80
244,308,175713,2,0,P|300:300|328:272,1,80
364,176,176142,2,0,P|344:116|308:92,1,80
256,192,176571,6,0,P|268:240|296:252,1,80,4|0,0:0|0:0,0:0:0:0:
256,192,176999,2,0,P|264:148|244:112,1,80
352,76,177428,2,0,P|344:124|368:172,1,80
376,272,177856,2,0,P|352:244|360:192,1,80
440,152,178285,2,0,L|440:200,16,40,4|0|0|0|0|0|0|0|0|0|0|0|0|0|0|0|0,0:0|0:0|0:0|0:0|0:0|0:0|0:0|0:0|0:0|0:0|0:0|0:0|0:0|0:0|0:0|0:0|0:0,0:0:0:0:
99,240,180428,5,0,0:0:0:0:
340,240,180856,2,0,L|424:316,1,80
288,244,181285,2,0,L|264:284,2,40,0|0|0,0:0|0:0|0:0,0:0:0:0:
300,124,181713,6,0,P|248:136|236:344,1,280,0|0,0:0|0:0,0:0:0:0:
272,308,182571,6,0,L|360:292,1,80
288,231,182999,2,0,L|396:211,1,80
304,154,183428,2,0,L|477:121,1,160
216,96,184285,6,0,B|132:112|100:96|88:120,1,120
108,164,184713,2,0,L|96:212,5,26.6666666666667,0|0|0|0|0|0,0:0|0:0|0:0|0:0|0:0|0:0,0:0:0:0:
116,252,185142,6,0,P|168:216|392:296,1,320
76,140,186856,2,0,L|32:176,2,53.3333333333333,0|0|0,0:0|0:0|0:0,0:0:0:0:
140,92,187285,2,0,L|196:48,2,53.3333333333333,0|0|0,0:0|0:0|0:0,0:0:0:0:
156,172,187713,2,0,P|212:220|432:168,1,320,0|0,0:0|0:0,0:0:0:0:
312,156,188785,5,0,0:0:0:0:
252,260,188999,1,0,0:0:0:0:
132,256,189213,1,0,0:0:0:0:
72,152,189428,1,0,0:0:0:0:
144,56,189642,1,0,0:0:0:0:
176,132,189856,1,0,0:0:0:0:
260,52,190071,1,0,0:0:0:0:
172,132,190285,6,0,L|112:164,1,40
256,128,190606,1,0,0:0:0:0:
340,132,190821,2,0,L|392:168,1,40
304,244,191142,2,0,L|304:344,1,80
200,284,191571,2,0,L|156:284,3,40,0|0|0|0,0:0|0:0|0:0|0:0,0:0:0:0:
112,256,191999,6,0,B|64:248|64:248|40:212,1,80
104,148,192428,2,0,B|72:111|72:111|77:68,1,80
167,61,192856,2,0,B|167:12|167:12|198:-17,1,80
272,35,193285,2,0,B|303:-2|303:-2|346:-5,1,80
369,82,193713,2,0,B|460:192|252:264,1,240
212,344,194571,2,0,B|204:280|120:220|120:220|200:148,1,240,0|0,0:0|0:0,0:0:0:0:
264,240,195428,6,0,P|308:236|216:132,2,320,0|0|0,0:0|0:0|0:0,0:0:0:0:
264,240,197571,1,0,0:0:0:0:
480,184,197999,2,0,P|444:144|356:116,1,120,0|0,0:0|0:0,0:0:0:0:
328,124,198428,2,0,L|272:152,3,40,0|0|0|0,0:0|0:0|0:0|0:0,0:0:0:0:
236,128,198856,6,0,P|106:138|189:238,2,320,0|0|0,0:0|0:0|0:0,0:0:0:0:
256,156,200785,2,0,L|309:209,1,40
256,308,201106,2,0,L|213:350,1,40
256,236,201428,2,0,L|96:236,1,160
304,236,202285,6,0,B|224:168|256:96|256:96|288:168|208:240,2,320
156,68,204428,2,0,P|124:124|200:200,1,160
260,268,205071,1,0,0:0:0:0:
128,244,205713,6,0,L|52:200,1,80,0|0,0:0|0:0,0:0:0:0:
128,244,206142,2,0,L|128:156,1,80,0|0,0:0|0:0,0:0:0:0:
128,244,206571,2,0,L|204:200,1,80,0|0,0:0|0:0,0:0:0:0:
128,244,206999,2,0,L|204:288,1,80
272,316,207428,2,0,P|312:304|292:192,1,160
280,124,208071,1,0,0:0:0:0:
388,92,208285,2,0,L|388:196,1,80
388,283,208713,1,0,0:0:0:0:
256,192,209142,12,0,210428,0:0:0:0:
108,308,210856,5,0,0:0:0:0:
108,308,211285,1,0,0:0:0:0:
28,100,211713,1,0,0:0:0:0:
472,40,212571,6,0,P|368:84|176:96,1,280
152,120,213428,2,0,P|256:164|448:176,1,280
404,232,214285,2,0,B|380:264|380:264|420:288|420:288|384:336,2,120,0|0|0,0:0|0:0|0:0,0:0:0:0:
408,120,215142,2,0,B|324:136|288:152|304:192,1,120,0|0,0:0|0:0,0:0:0:0:
296,224,215571,2,0,L|296:272,3,40,0|0|0|0,0:0|0:0|0:0|0:0,0:0:0:0:
240,260,215999,6,0,P|196:232|168:120,1,160,0|0,0:0|0:0,0:0:0:0:
360,20,216856,2,0,P|404:48|432:160,1,160,0|0,0:0|0:0,0:0:0:0:
140,336,217713,6,0,P|96:308|68:196,1,160,0|0,0:0|0:0,0:0:0:0:
260,96,218570,2,0,P|304:124|316:180,1,80,0|0,0:0|0:0,0:0:0:0:
140,140,219428,6,0,L|92:96,2,53.3333333333333,0|0|0,0:0|0:0|0:0,0:0:0:0:
192,192,219856,2,0,L|240:240,2,53.3333333333333,0|0|0,0:0|0:0|0:0,0:0:0:0:
200,96,220285,2,0,L|244:56,2,53.3333333333333,0|0|0,0:0|0:0|0:0,0:0:0:0:
128,248,220713,2,0,L|80:292,2,53.3333333333333,0|0|0,0:0|0:0|0:0,0:0:0:0:
184,196,221142,2,0,B|280:160|360:176|360:176|360:200|304:224,1,240,0|0,0:0|0:0,0:0:0:0:
269,255,221999,2,0,B|252:296|228:296|228:296|212:216|240:168,1,160
168,132,222856,6,0,B|132:228|12:288|12:288|8:220|60:180,2,320,0|0|0,0:0|0:0|0:0,0:0:0:0:
256,368,224999,1,0,0:0:0:0:
316,232,225428,6,0,B|352:136|400:124|400:124,1,120,0|0,0:0|0:0,0:0:0:0:
416,92,225856,2,0,B|428:72|428:72|468:48,3,40,0|0|0|0,0:0|0:0|0:0|0:0,0:0:0:0:
388,48,226285,6,0,P|324:48|60:104,1,320,0|0,0:0|0:0,0:0:0:0:
64,72,227999,6,0,P|128:120|160:320,1,280
128,316,228856,2,0,L|77:332,2,53.3333333333333,0|0|0,0:0|0:0|0:0,0:0:0:0:
224,304,229285,2,0,L|275:320,2,53.3333333333333,0|0|0,0:0|0:0|0:0,0:0:0:0:
256,228,229713,2,0,B|312:216|384:136|380:48|304:24|244:40|232:80|264:136,2,320,0|0|0,0:0|0:0|0:0,0:0:0:0:
152,104,231856,2,0,B|95:98|89:171|140:222|205:191,1,160,0|0,0:0|0:0,0:0:0:0:
228,256,232499,1,0,0:0:0:0:
432,128,233142,6,0,B|400:152|416:180|416:180|380:204,1,80
356,124,233571,2,0,B|340:160|368:177|368:177|348:215,1,80
292,148,233999,2,0,B|296:187|329:187|329:187|331:231,1,80
252,196,234428,2,0,B|276:228|304:211|304:211|328:248,1,80
252,276,234856,6,0,B|184:260|144:232|140:216|140:216|132:188|192:116,1,240,0|0,0:0|0:0,0:0:0:0:
236,56,235713,1,0,0:0:0:0:
156,52,235928,2,0,P|104:88|88:116,1,80
252,232,236571,6,0,B|185:170|283:153|290:189|299:61|226:-4|183:30|111:67|151:131|201:119,2,320,0|0|0,0:0|0:0|0:0,0:0:0:0:
148,204,238713,2,0,B|104:220|119:170|137:176|80:141|32:160|38:188|38:230|77:226|84:200,1,160,0|0,0:0|0:0,0:0:0:0:
388,228,239999,6,0,P|408:160|412:60,1,160,0|0,0:0|0:0,0:0:0:0:
308,192,240856,2,0,P|256:244|280:348,1,160
267,113,241713,2,0,P|193:93|136:144,1,160,0|0,0:0|0:0,0:0:0:0:
130,259,242571,2,0,L|212:172,2,120
212,172,243428,6,0,P|268:128|496:168,2,320,0|0|0,0:0|0:0|0:0,0:0:0:0:
212,172,245571,1,0,0:0:0:0:
212,172,245999,2,0,P|300:208|308:216,1,80,0|0,0:0|0:0,0:0:0:0:
212,172,246856,6,0,P|188:108|152:104,1,80
212,172,247285,2,0,P|255:119|240:86,1,80
212,172,247713,2,0,P|279:183|300:154,1,80
212,172,248142,2,0,P|264:215|297:200,1,80
216,172,248570,6,0,P|263:300|268:300,1,160
304,288,249213,1,0,0:0:0:0:
360,276,249428,2,0,P|414:222|408:176,1,120
212,204,250285,6,0,P|196:156|88:80,2,160,0|0|0,0:0|0:0|0:0,0:0:0:0:
256,356,251571,1,0,0:0:0:0:
300,203,251999,2,0,P|332:131|397:86,2,160,0|0|0,0:0|0:0|0:0,0:0:0:0:
256,356,253285,2,0,L|256:268,1,80
148,269,253713,6,0,B|189:241|253:87|134:131|87:169|95:214|137:238|264:225,2,320,0|0|0,0:0|0:0|0:0,0:0:0:0:
408,84,256285,1,0,0:0:0:0:
168,296,257142,6,0,P|84:272|124:80,1,320,0|0,0:0|0:0,0:0:0:0:
208,212,258428,2,0,P|284:244|336:316,1,160,0|0,0:0|0:0,0:0:0:0:
280,152,259499,1,0,0:0:0:0:
48,84,260142,2,0,L|80:188,1,80,0|0,0:0|0:0,0:0:0:0:
256,192,260571,12,0,263999,0:0:0:0:
