osu file format v7

[General]
AudioFilename: Katekyo_Hitman_Reborn_-_Yume_no_Manual_TV_Size.mp3
AudioLeadIn: 0
PreviewTime: 4664
Countdown: 0
SampleSet: Soft
StackLeniency: 0.7
Mode: 0
LetterboxInBreaks: 1

[Editor]
Bookmarks: 82799
DistanceSpacing: 0.800000011920929
BeatDivisor: 4
GridSize: 8

[Metadata]
Title:Yume no Manual (TV Size)
Artist:Cherry Blossom
Creator:gfbrd
Version:Hard
Source:Katekyo Hitman REBORN!
Tags:blade3285 YGOkid8

[Difficulty]
HPDrainRate:7
CircleSize:4
OverallDifficulty:7
SliderMultiplier:1.4
SliderTickRate:0.5

[Events]
//Background and Video events
0,0,"Background Picture.jpg"
Video,0,"b6c4893df35b7811dc7a468a57086660.avi"
//Break Periods
//Storyboard Layer 0 (Background)
//Storyboard Layer 1 (Fail)
//Storyboard Layer 2 (Pass)
//Storyboard Layer 3 (Foreground)
//Storyboard Sound Samples
//Background Colour Transformations
3,100,163,162,255

[TimingPoints]
4665,447.761194029851,4,2,0,70,1,0
16418,-100,4,2,0,89,0,0
17090,-100,4,2,0,70,0,0
19105,-100,4,2,0,90,0,0
20672,-100,4,2,0,70,0,0
28172,-200,4,2,0,70,0,0
28620,-100,4,2,0,70,0,0
29627,-100,4,2,0,90,0,0
30299,-100,4,2,0,70,0,0
30523,-100,4,2,0,90,0,0
31194,-100,4,2,0,70,0,0
31418,-100,4,2,0,89,0,0
33209,-100,4,2,0,70,0,0
56493,-100,4,2,0,90,0,0
56941,-100,4,2,0,70,0,0
60299,-100,4,2,0,90,0,0
60970,-100,4,2,0,70,0,0
61978,-100,4,2,0,70,0,1
82351,-200,4,2,0,70,0,1
82799,-100,4,2,0,70,0,1
87724,-200,4,2,0,70,0,1
88844,-100,4,2,0,70,0,0

[Colours]
Combo1 : 240,5,5
Combo2 : 64,128,128
Combo3 : 255,255,255

[HitObjects]
144,128,4665,1,0
144,128,5112,2,0,B|208:200|128:264,1,140,8|8
72,256,5784,2,2,C|232:256,1,140
256,192,6456,6,2,B|340:248|247:328,1,140,8|2
208,312,7127,1,0
176,312,7239,1,2
144,312,7351,2,0,B|64:312,2,70,0|2|4
256,192,8023,12,4,9590
104,320,9814,5,2
104,288,9926,1,0
104,256,10038,1,8
104,200,10262,1,0
136,152,10485,1,0
192,160,10709,2,2,B|252:96|332:176,1,140
315,162,11381,1,8
256,192,11829,12,2,12726
256,192,13172,5,0
256,192,13396,1,4
64,192,14291,5,2
128,192,14515,2,2,B|224:192,1,70,0|2
272,192,14963,1,2
272,224,15075,1,2
272,256,15187,1,2
272,320,15411,1,4
256,192,15635,12,10,16530
392,336,16754,5,8
392,336,16978,2,2,B|482:343|476:247,1,140,8|4
466,169,17650,1,8
397,113,17873,1,0
320,112,18097,1,2
280,112,18209,1,2
240,112,18321,2,2,B|144:112,2,70,8|8|2
256,168,18993,5,0
312,168,19217,2,2,B|312:72,2,70,2|2|2
368,168,19888,2,2,B|437:243|353:290,1,140,0|0
304,288,20560,1,4
136,288,21232,5,8
192,288,21456,1,2
216,288,21567,1,2
240,288,21679,2,8,B|336:288,2,70,0|0|8
256,192,22351,12,4,23696
64,64,24142,5,0
64,64,24366,1,0
256,352,24814,1,0
456,64,25262,1,0
256,352,25709,1,2
256,352,25821,1,2
256,352,25933,1,2
256,352,26157,1,4
384,128,26605,5,2
256,64,26829,1,0
160,160,27053,1,2
224,288,27276,1,0
352,256,27500,1,2
352,117,27724,1,0
220,88,27948,1,2
158,213,28172,2,2,B|158:309,1,70,2|6
64,224,29067,5,2
96,160,29291,1,0
128,224,29515,1,2
128,288,29739,2,8,B|180:357|167:370|240:269,1,140,8|4
224,232,30411,1,2
224,168,30635,6,8,B|284:101|358:179,1,140,8|4
352,224,31306,1,2
352,256,31418,1,2
352,288,31530,2,8,B|352:384,2,70
352,232,32202,2,2,B|409:152|482:251,2,140,4|4|4
256,264,33321,5,4
192,192,33545,1,2
256,120,33769,1,4
344,144,33993,1,2
352,232,34217,1,8
352,232,34440,2,2,B|408:304,2,70,2|8|2
224,208,35336,5,2
224,208,35560,2,8,B|128:208,2,70,8|0|8
272,240,36232,1,2
272,296,36456,1,2
224,272,36679,1,2
168,288,36903,6,8,B|117:358|48:285,1,140,8|2
24,240,37575,1,0
8,184,37799,1,8
24,128,38023,1,0
64,88,38247,2,8,B|64:184,2,70,2|2|8
112,56,38918,1,8
168,64,39142,1,8
480,192,39590,5,8
256,272,39926,1,4
32,192,40262,1,8
112,128,40485,5,2
184,128,40709,1,2
184,128,40821,1,2
184,128,40933,2,8,B|280:128,2,70,8|0|0
160,192,41605,1,0
218,229,41828,1,8
160,258,42053,1,0
160,320,42276,2,8,B|238:368|308:314,1,140,2|8
360,328,42948,1,0
360,264,43172,2,8,B|456:264,2,70,0|0|8
352,200,43844,5,0
312,160,44067,1,0
272,200,44291,1,0
232,160,44515,1,8
192,200,44739,2,2,B|128:236|153:281|203:308,1,140,0|0
256,304,45411,1,8
296,304,45523,1,2
336,304,45635,1,2
376,304,45747,1,2
416,304,45859,2,8,B|416:400,2,70
416,248,46530,2,0,B|355:176|278:264,2,140,4|4|4
480,96,47650,5,4
416,128,47873,1,2
480,160,48097,1,4
416,192,48321,1,2
480,224,48545,1,0
416,256,48769,1,2
480,297,48993,2,8,B|419:357|336:280,1,140,8|0
32,192,49888,5,8
256,32,50336,1,4
480,192,50784,1,8
32,96,51232,5,4
96,128,51456,1,2
32,160,51679,1,4
96,192,51902,1,2
32,224,52127,1,2
96,256,52351,1,2
32,296,52575,2,8,B|93:356|171:284,1,140,8|0
264,256,53470,5,2
264,224,53582,1,0
264,192,53694,2,2,B|264:96,2,70,0|8|0
264,256,54365,1,2
208,32,54814,5,8
448,256,55485,1,0
112,328,56157,1,8
256,192,56605,1,0
256,192,56717,1,0
256,192,56829,1,0
256,56,57276,5,2
256,120,57500,2,2,B|256:272,1,140,2|2
256,192,58172,12,4,59965
192,256,60411,5,4
352,192,60635,1,4
216,96,60858,1,4
448,96,61306,5,2
392,96,61530,2,2,B|296:96,1,70,0|2
236,96,61978,5,8
160,96,62202,1,0
160,96,62313,1,0
160,96,62426,2,0,B|64:96,2,70,0|2|8
128,160,63097,1,0
160,224,63321,1,0
224,256,63545,2,0,B|320:256,1,70,0|8
304,184,63993,1,0
272,120,64217,2,0,C|202:94|128:128,1,140,0|8
72,128,64888,5,0
32,192,65112,1,0
72,256,65336,1,0
136,288,65560,2,0,B|193:376|248:280,1,140,8|0
256,224,66232,2,0,B|352:224,1,70,0|8
192,160,66679,2,0,B|96:160,1,70,0|0
256,96,67127,2,0,B|352:96,1,70,0|8
192,32,67575,2,0,B|96:32,2,70,0|0|0
256,192,68470,5,0
288,128,68694,1,8
320,192,68918,1,0
384,192,69142,1,0
384,192,69254,1,0
384,192,69366,2,0,B|480:192,2,70,0|8|0
256,192,70262,5,0
216,136,70485,1,8
184,192,70709,1,0
120,192,70933,1,0
120,192,71045,1,0
120,192,71157,2,0,B|48:192,2,70,0|8|0
328,72,72053,5,0
392,72,72276,1,8
424,136,72500,1,0
424,136,72612,1,2
424,136,72724,2,0,B|530:136,2,70,0|0|8
360,136,73396,1,0
296,120,73620,1,0
232,144,73844,1,0
168,176,74067,1,8
160,248,74291,1,0
224,216,74515,2,8,B|320:216,2,70,0|8|8
160,248,75187,2,2,B|111:330|40:241,1,140
40,184,75859,5,8
40,120,76082,1,0
40,120,76306,2,0,B|200:120,1,140,0|8
224,168,76978,1,0
224,224,77202,2,0,B|224:320,1,70,0|0
288,128,77650,2,0,B|288:32,1,70,8|0
320,224,78097,2,0,B|320:320,1,70,0|0
384,128,78545,2,0,B|384:32,1,70,8|0
416,224,78993,6,0,B|416:320,2,70,0|0|8
448,160,79665,1,0
408,104,79888,2,0,B|347:62|272:102,1,140,0|8
120,72,80784,5,0
312,72,81232,1,8
216,256,81679,1,0
216,344,81903,1,0
216,256,82127,1,8
216,208,82239,1,2
216,160,82351,2,0,C|216:56,1,70,2|4
456,72,83470,5,8
256,328,83918,1,0
24,72,84366,2,8,B|184:72,1,140,8|0
256,72,85262,5,8
256,312,85597,1,2
256,192,85933,1,0
136,192,86157,1,8
256,192,86381,1,2
256,192,86493,1,2
376,192,86829,1,2
256,192,87053,2,0,B|256:112,2,70,8|0|0
336,240,87724,6,0,B|240:312|168:224,1,175,0|0
